#TITLE:【×▽×】FANTASTIC NxxD BABY【×_×】;
#SUBTITLE:;
#ARTIST:P*Light feat. mow*2;
#TITLETRANSLIT:;
#SUBTITLETRANSLIT:;
#ARTISTTRANSLIT:;
#GENRE:;
#CREDIT:;
#BANNER:FANTASTIC_NxxD_BABY_banner.png;
#BACKGROUND:FANTASTIC_NxxD_BABY.png;
#LYRICSPATH:;
#CDTITLE:;
#MUSIC:FANTASTIC NxxD BABY.ogg;
#OFFSET:-1.120000;
#SAMPLESTART:42.279999;
#SAMPLELENGTH:13.000000;
#SELECTABLE:YES;
#BPMS:0.000000=145.000000
;
#STOPS:32.000000=1.241000,
92.750000=0.207000,
93.000000=0.207000,
93.250000=0.207000,
93.500000=0.207000,
171.000000=1.241000,
248.500000=0.103000,
249.000000=0.103000,
250.000000=2.069000
;
#BGCHANGES:;
#KEYSOUNDS:;
#ATTACKS:;

//---------------dance-single - ----------------
#NOTES:
     dance-single:
     :
     Easy:
     5:
     0.229831,0.271099,0.133327,0.159993,0.000000,181.000000,166.000000,15.000000,18.000000,0.000000,0.000000,0.229831,0.271099,0.133327,0.159993,0.000000,181.000000,166.000000,15.000000,18.000000,0.000000,0.000000:
0000
0000
0000
0000
,
2002
0000
3003
0000
,
0010
0000
0100
0010
,
2200
0000
3300
0000
,
0002
0000
0013
0010
,
0001
0010
0100
0000
,
1000
0010
0100
0000
,
0001
1000
0100
0010
,
0110
1000
0001
0001
,
0000
0010
0100
0100
,
0000
0001
0010
0001
,
1000
0010
1000
0001
,
0000
0100
0100
0010
,
0000
1000
1000
0001
,
0000
1000
0001
0100
,
0001
2000
0010
3010
,
0000
0100
0010
0100
,
0000
0001
0010
0001
,
0000
1000
0100
0001
,
0000
0001
0100
1000
,
0000
0010
1000
0001
,
0000
0100
0001
1000
,
0000
0001
0010
0100
,
2000
3000
0000
1001
,
0000
1001
0000
1001
,
0000
1001
0000
0110
,
0000
0110
0000
2002
,
0000
3003
0000
0010
,
0100
0001
0000
1000
,
0100
0010
0000
0001
,
0100
0010
1000
0200
,
0000
0300
0000
1000
,
0010
1000
0000
0001
,
0010
0001
0000
0100
,
0010
1000
0000
0010
,
0100
0002
0003
1000
,
0001
1000
0000
0010
,
1000
0100
0000
0010
,
0001
0100
0000
0011
,
0000
1100
0000
0001
,
0000
0001
0000
0001
,
0000
0001
0000
1000
,
0010
0000
0000
0000
1000
0000
0000
0000
0001
0000
0000
0000
0220
0330
0000
0000
,
1000
0100
1000
0100
,
1000
0100
1000
0000
,
0001
0100
0001
0100
,
0020
0000
0030
0000
,
0001
0010
0001
0010
,
0001
0010
0001
0000
,
1000
0010
1000
0000
,
2002
0000
3003
0000
,
0010
1000
0001
0000
,
0010
0100
1000
0000
,
0001
1000
0010
0000
,
0100
0010
0100
0000
,
0001
0010
1000
0000
,
1000
0010
0001
0000
,
1000
0100
0001
0000
,
0001
0100
1000
0001
,
0220
0000
0000
0000
,
0000
0000
0000
0000
,
0330
0000
0000
0000
;

//---------------dance-single - ----------------
#NOTES:
     dance-single:
     :
     Medium:
     10:
     0.464741,0.500478,0.355540,0.097773,0.119995,366.000000,326.000000,40.000000,11.000000,0.000000,0.000000,0.464741,0.500478,0.355540,0.097773,0.119995,366.000000,326.000000,40.000000,11.000000,0.000000,0.000000:
0000
0000
0000
0000
,
1001
0010
0000
0010
,
0000
0100
0000
0100
,
1001
0000
0100
0000
0010
0000
1000
0002
,
0000
0000
0010
0013
,
0100
0000
1000
0000
0001
0000
1000
0010
,
0000
0010
0100
0000
0001
1000
0001
0000
,
1000
0010
0100
0000
0001
0010
0100
1000
,
0002
0003
0000
0000
1000
0000
0000
0000
0010
0000
1000
0000
0001
0000
0010
0000
,
0001
0000
0100
0010
1000
0100
1000
0000
,
1001
0000
0110
0000
1000
1000
0000
0001
,
0001
0000
0100
0010
1000
0010
0001
0010
,
0100
0000
0001
0000
0001
1000
0100
1000
,
0001
0000
0010
0100
1000
0100
0010
0000
,
0001
0000
1001
0000
0010
0010
0000
0100
,
0100
0000
0010
1000
0001
0010
0100
1000
,
0001
0000
0000
0000
1000
0000
0000
0010
0000
0000
1100
0000
0000
0000
0100
0000
,
0100
0000
0000
0000
0001
0000
0000
0010
0000
0000
0101
0000
0000
0000
0010
0000
,
0010
0000
0000
0000
1000
0000
0000
0001
0000
0000
0110
0000
0000
0000
0100
0000
,
0001
0100
0000
0010
0010
0000
1000
0100
,
0100
0000
0000
0000
0010
0000
0000
0100
0000
0000
1100
0000
0000
0000
0001
0000
,
0001
0000
0000
0000
0100
0000
0000
0010
0000
0000
0101
0000
0000
0000
0010
0000
,
1000
0000
0000
0000
0001
0000
0000
0010
0000
0000
0100
0000
0000
0000
1000
0000
,
0010
0000
1000
0000
0001
0001
0001
0000
0000
0000
0000
0000
0010
0000
0000
1001
,
0000
0000
0100
0000
0010
0000
0000
1001
0000
0000
0100
0000
0010
0000
0000
1001
,
0000
0000
0100
0000
0010
0000
0000
1001
0000
0000
0100
0000
0010
0000
0000
1001
,
0000
0010
0100
0000
1000
2000
0000
0001
,
3001
0000
0000
0000
0010
0000
0000
0100
0000
0000
0010
0000
0001
0000
0000
1100
,
0000
0000
0001
0000
0010
0000
0000
1100
0000
0000
0001
0000
0010
0000
0000
1100
,
0000
0000
0010
0000
1000
0000
0000
0101
0000
0000
0010
0000
1000
0000
0000
0101
,
0000
0010
0100
0000
0001
0010
0000
0001
,
0001
0000
1000
0100
2000
0000
3010
0100
,
0001
0100
0010
1000
0100
0000
0010
0100
,
1000
0001
1000
0010
0100
0000
0010
1000
,
0001
1000
0001
0010
0100
0010
0000
0001
,
0010
0000
0001
1000
0002
0000
0103
0010
,
1000
0100
0010
0001
0010
0000
0001
0100
,
0010
1000
0100
0010
0001
0000
0100
0001
,
1000
0010
1000
0100
0010
0100
0000
1000
,
0001
0000
0100
0010
0100
0000
1001
0000
,
0000
0110
0000
1001
,
0000
0110
0000
1001
,
0110
0000
0000
0000
1001
0000
0000
0000
0110
0000
0000
0000
2002
3003
0000
0000
,
0010
0000
0000
0101
0000
0000
0010
0000
1000
0000
0000
1100
0000
0000
0010
0000
,
0001
0000
0000
0101
0000
0000
0010
0000
1000
0000
0000
1100
0000
0000
0001
0000
,
0010
0000
0000
1100
0000
0000
0010
0000
0200
0000
0000
0000
0301
0000
0010
0000
,
0000
0010
0001
1000
0010
1000
0100
0000
,
0010
0000
0000
1010
0000
0000
0001
0000
0100
0000
0000
0110
0000
0000
1000
0000
,
0001
0000
0000
0011
0000
0000
0100
0000
0010
0000
0000
1100
0000
0000
0001
0000
,
1000
0010
0100
0001
1000
0100
0010
0002
,
0000
0000
0000
0003
,
1000
0001
0010
0001
1000
0100
0010
0000
,
0001
0100
0010
1000
0100
0010
0001
0000
,
0100
0010
0100
0001
1000
0100
0010
0000
,
0001
0010
0100
1000
0010
0100
0001
0000
,
1000
0010
0100
0001
0010
0100
1000
0000
,
0010
0100
0001
1000
0001
0010
0100
0000
,
0010
0100
1000
0000
0001
0100
0010
1000
,
0000
1000
0001
0000
0100
0010
0110
0000
,
2002
0000
0000
0000
,
0000
0000
0000
0000
,
0000
0000
0000
0000
,
0000
0000
0000
0000
0000
0000
0000
0000
0000
3003
0000
0000
0000
0000
0000
0000
;

//---------------dance-single - ----------------
#NOTES:
     dance-single:
     :
     Hard:
     13:
     0.659018,0.666970,0.213324,0.159993,0.439980,519.000000,495.000000,24.000000,18.000000,0.000000,0.000000,0.659018,0.666970,0.213324,0.159993,0.439980,519.000000,495.000000,24.000000,18.000000,0.000000,0.000000:
// measure 0
0000
0000
0000
0000
,  // measure 1
1001
0000
0000
0010
0000
0000
0100
0000
0001
0000
0000
0110
0000
0000
1000
0000
,  // measure 2
0100
0000
0000
1001
0000
0000
0010
0000
0100
0000
0000
0101
0000
0000
1000
0000
,  // measure 3
0100
0000
0000
0110
0000
0000
0001
0000
1000
0000
0000
0000
0010
0000
0010
0000
,  // measure 4
0000
0000
0100
0000
0100
0000
0000
0000
0001
1000
0001
1000
0001
0000
0000
0000
,  // measure 5
1000
0000
0010
0000
0100
0001
0000
0001
0010
0000
0100
0000
1000
0000
0001
0000
,  // measure 6
1000
0010
0000
0010
0100
0000
0001
0000
0010
0000
0100
0000
1000
0000
0001
0000
,  // measure 7
0100
0000
0010
0000
1000
0000
0001
0000
0010
0100
1000
0000
0001
0100
0010
0000
,  // measure 8
2020
0000
3030
0000
0000
0000
0000
0000
0000
0000
0000
0000
0100
0000
0000
0000
0000
0000
0001
0000
0000
0000
0000
0000
0100
0000
0000
0000
0000
0000
0010
0000
0000
0000
0000
0000
1000
0000
0000
0100
0000
0000
0000
0000
0000
0100
0000
0000
,  // measure 9
0000
0000
0010
0000
0100
0000
1000
0000
0001
0000
0100
0000
0010
0100
0000
0201
,  // measure 10
0000
0310
0010
1000
0001
1001
0000
0100
,  // measure 11
0110
0000
0100
0000
0001
0000
0010
0000
0001
1000
0000
1000
0010
0100
0001
0000
,  // measure 12
0010
0000
0100
0000
1000
0000
0010
0000
0100
0000
0010
0000
1000
0001
0000
0001
,  // measure 13
0000
0000
0010
0000
0001
0000
1000
0000
0010
0000
0100
0000
0001
0010
0000
0210
,  // measure 14
0000
0000
1300
0000
0001
0000
1000
0000
0010
0000
0100
0000
0001
0010
0100
0000
,  // measure 15
1000
0000
0010
0000
1000
0000
0100
0000
0100
0000
0100
0000
0010
0100
0000
0010
,  // measure 16
0100
0000
0010
0000
0001
0000
0100
0010
0000
1000
0100
0000
1000
0000
0010
0000
,  // measure 17
1000
0000
0001
0000
0100
0000
0010
1000
0000
0001
1000
0000
0001
0000
0010
0000
,  // measure 18
1000
0000
0010
0000
0001
0000
0100
0010
0000
0100
0010
0000
1000
0001
1000
0000
,  // measure 19
0100
0000
0100
0000
0010
0000
0100
0000
1000
0000
0001
0000
0100
0010
1000
0000
,  // measure 20
0001
0000
0010
0000
0001
0000
0100
0001
0000
1000
0010
0000
1000
0000
0100
0000
,  // measure 21
0001
0000
0100
0000
1000
0000
0001
0010
0000
0100
1000
0000
0010
0100
0001
0000
,  // measure 22
1000
0000
0010
0000
1000
0000
0001
0100
0000
0001
0010
0000
0001
0000
1000
0000
,  // measure 23
0010
0000
0000
0000
0010
0000
0000
0000
2020
3030
0202
0303
2020
3030
0000
0000
0000
0000
0000
0000
0000
0000
0000
0000
0110
0000
0000
0000
0001
0000
0010
0000
,  // measure 24
0000
0100
1000
0000
0010
0000
0100
0010
0000
1000
0001
0000
0010
0000
0001
1000
,  // measure 25
0000
0010
0100
0000
0001
0000
1000
0100
0000
1000
0001
0000
0010
0000
0001
1000
,  // measure 26
0000
0001
1000
0000
0010
0000
0100
0000
0001
0000
1000
0000
0100
0000
0010
0000
,  // measure 27
0001
0000
1000
0000
0100
0010
0100
0010
0100
0000
1000
0000
0001
0000
0010
0001
,  // measure 28
0000
1000
0010
0000
0010
0000
1000
0001
0000
0100
0010
0000
0010
0000
1000
0100
,  // measure 29
0000
0010
0001
0000
0100
0000
0010
1000
0000
0001
0100
0000
0010
0000
1000
0001
,  // measure 30
0000
1000
0100
0000
1000
0000
0001
0000
1000
0000
0010
0000
0100
0000
0100
0000
,  // measure 31
0010
0000
0010
0000
1000
0001
0010
0100
2000
0000
0000
0000
3010
0000
0100
0000
,  // measure 32
1000
0001
0010
0100
0001
1000
0100
0001
,  // measure 33
1000
0010
0001
0100
1000
0100
0010
1000
,  // measure 34
0100
0001
0100
1000
0010
0110
0000
0001
,  // measure 35
1000
0000
1000
0000
0001
0000
0001
0000
0010
0100
1000
0100
0010
0000
0001
0000
,  // measure 36
0100
1000
0001
1000
0100
0001
1000
0100
,  // measure 37
0001
1000
0010
0001
1000
0010
0100
1000
,  // measure 38
0010
0001
0010
0001
0100
1001
0000
0001
,  // measure 39
0010
0000
0100
0000
1000
0000
0010
0000
1000
0001
1000
0000
0010
0000
0010
0000
,  // measure 40
0010
0010
0100
0100
0100
0100
1000
1000
,  // measure 41
1000
1000
0001
0001
0001
0001
0010
1000
,  // measure 42
0100
0000
0001
0000
0010
0000
1000
0000
0100
0000
0001
0000
0020
0030
0000
0000
,  // measure 43
1100
0000
0001
0100
0000
0001
0010
0000
0001
0000
0100
0010
0000
0100
0001
0000
,  // measure 44
1000
0000
0100
0010
0000
0100
1000
0000
0010
0000
0100
0001
0000
0100
0010
0000
,  // measure 45
1000
0000
0100
1000
0000
0010
1000
0000
0001
0000
0010
0000
0001
0000
0201
0000
,  // measure 46
0000
0000
0010
0000
0310
0000
1000
0000
0001
0100
0010
0100
0001
0000
1000
0000
,  // measure 47
0100
0000
0010
0001
0000
1000
0010
0000
0100
0000
0001
0100
0000
1000
0100
0000
,  // measure 48
0010
0000
1000
0010
0000
0001
0010
0000
1000
0000
0001
0100
0000
0001
1000
0000
,  // measure 49
0100
0000
0010
0000
0001
0000
1000
0000
0001
0010
0001
0010
0100
1000
0002
0000
,  // measure 50
0000
0000
0100
0203
0000
0310
1010
0000
,  // measure 51
1000
0000
0001
0000
0010
0000
0001
0000
1000
0100
0010
0000
0001
0000
1000
0000
,  // measure 52
0010
0000
0100
0000
0001
0000
1000
0000
0001
0010
0100
0000
1000
0000
0010
0000
,  // measure 53
0100
0000
0001
0000
1000
0000
0100
0000
1000
0001
0100
0000
0010
0000
0020
0000
,  // measure 54
0030
0000
0100
0000
0010
0000
0100
0000
0001
1000
0001
1000
0001
0000
0100
0000
,  // measure 55
0010
1000
0100
1000
0001
0010
0100
1100
,  // measure 56
0000
0010
0100
0001
0010
0001
1001
0000
,  // measure 57
0010
0000
0100
0000
0001
0000
1000
0000
0100
0010
0100
0000
0010
0000
0011
0000
,  // measure 58
0000
1000
0100
1000
0001
0010
0110
0000
,  // measure 59
2002
0000
0000
0000
,  // measure 60
0000
0000
0000
0000
,  // measure 61
0000
0000
0000
0000
,  // measure 62
0000
0000
0000
0000
0000
0000
0000
0000
0000
0000
0000
0000
0000
0000
0000
0000
0000
3003
0000
0000
0000
0000
0000
0000
0000
0000
0000
0000
0000
0000
0000
0000
;
