#TITLE:Express Emotion;
#SUBTITLE:;
#ARTIST:REDALiCE feat.Shihori;
#TITLETRANSLIT:;
#SUBTITLETRANSLIT:;
#ARTISTTRANSLIT:;
#GENRE:J-CORE;
#CREDIT:;
#BANNER:Express Emotion_banner.png;
#BACKGROUND:Express Emotion_bg.png;
#LYRICSPATH:;
#CDTITLE:;
#MUSIC:Express Emotion.ogg;
#OFFSET:0.367000;
#SAMPLESTART:42.660000;
#SAMPLELENGTH:16.000000;
#SELECTABLE:YES;
#BPMS:0.000000=182.000000
;
#STOPS:
;
#BGCHANGES:;
#KEYSOUNDS:;
#ATTACKS:;

//---------------dance-single - ----------------
#NOTES:
     dance-single:
     :
     Easy:
     6:
     0.265054,0.367381,0.123145,0.205241,0.000000,226.000000,211.000000,15.000000,25.000000,0.000000,0.000000,0.265054,0.367381,0.123145,0.205241,0.000000,226.000000,211.000000,15.000000,25.000000,0.000000,0.000000:
0000
0000
0000
0000
,
0000
0000
0000
0000
,
0000
0000
0000
0000
,
0000
0000
0000
0000
,
0000
0000
0000
0000
,
1000
0010
0100
0000
,
0001
0010
0100
0000
,
0020
0000
0030
0000
,
2002
0000
3003
0000
,
1000
0010
1000
0000
,
0010
0100
0010
0000
,
0100
0001
0100
0000
,
0001
0010
0001
0000
,
1000
0100
1000
0000
,
0001
0100
0001
0000
,
1000
0001
0010
0000
,
0220
0000
0330
0000
,
0010
0001
0010
0000
,
1000
0100
1000
0000
,
0020
0000
0000
0000
0000
0030
0000
0000
,
0200
0000
0000
0000
0000
0300
0000
0000
,
0001
1000
0010
0000
,
1000
0001
0100
0000
,
0010
0000
0110
0000
,
0100
0000
0110
0000
,
2000
0000
0000
0000
0000
3000
0000
0000
,
0002
0000
0000
0000
0000
0003
0000
0000
,
0220
0000
0000
0000
0000
0330
0000
0000
,
1001
0000
1000
0000
,
0010
0000
0010
0000
,
0100
0000
0100
0000
,
0001
0000
0010
0000
,
2200
0000
3300
0000
,
1000
0001
0010
0000
,
0100
1000
0001
0000
,
0100
0010
1000
0000
,
0001
0010
0100
0000
,
1000
0100
1000
0000
,
0001
0010
0001
0000
,
0100
0000
0010
0000
,
0220
0000
0330
0000
,
0001
0010
0100
0000
,
0010
0100
1000
0000
,
0010
1000
0100
0000
,
0010
0001
0100
0000
,
0010
0000
0010
0000
,
2002
0000
3003
0000
,
0100
0010
0100
0010
,
0220
0000
0000
0000
0000
0330
0000
0000
,
1000
0000
1000
0000
,
0001
0000
0001
0000
,
0010
0000
0010
0000
,
0100
0000
0100
0000
,
1000
0000
0001
0000
,
0100
0000
0010
0000
,
0100
0000
0001
0000
,
0010
0000
0100
0000
,
1000
0100
1000
0000
,
0001
0100
0001
0000
,
1000
0010
1000
0000
,
0001
0010
0001
0000
,
0100
0010
1000
0000
,
0001
0010
0100
0000
,
1000
0001
0100
0000
,
0010
0100
0001
0000
,
2002
0000
3003
0000
,
1000
0010
0100
0000
,
0010
1000
0100
0000
,
0010
0001
0100
0000
,
0010
0100
0001
0000
,
0010
0100
1000
0000
,
0001
0010
0100
0000
,
1000
0000
0010
0000
,
0202
0000
0303
0000
,
0010
1000
0100
0010
,
0001
0100
0001
0000
,
1000
0000
0001
1000
,
0010
0100
0010
0000
,
0100
0000
0001
0000
,
2200
0000
3300
0000
,
0010
0000
0001
0000
,
1000
0010
0100
0001
,
0010
0001
0100
0000
,
0010
1000
0100
0000
,
1000
0001
0100
0000
,
0010
1000
0100
0000
,
0010
0010
0001
0001
,
0100
0100
0010
0010
,
1000
1000
0001
0001
,
0101
0000
1010
0000
;

//---------------dance-single - ----------------
#NOTES:
     dance-single:
     :
     Medium:
     11:
     0.457394,0.515771,0.205241,0.139564,0.000000,390.000000,365.000000,25.000000,17.000000,0.000000,0.000000,0.457394,0.515771,0.205241,0.139564,0.000000,390.000000,365.000000,25.000000,17.000000,0.000000,0.000000:
// measure 0
0000
0000
0000
0000
,  // measure 1
0000
0000
0000
0000
,  // measure 2
0000
0000
0000
0000
,  // measure 3
0000
0000
0000
0000
,  // measure 4
0000
0000
0000
0000
,  // measure 5
0001
0000
0010
0000
0011
0000
0001
0010
,  // measure 6
0000
0100
0000
1100
0000
0000
0000
0000
,  // measure 7
1000
0100
1000
0000
0001
0010
0001
0200
,  // measure 8
0000
0000
0000
0000
0300
0010
0010
0000
,  // measure 9
1000
0000
0010
0000
0100
0000
0001
0010
,  // measure 10
0000
0001
1000
0100
0000
1000
0001
0000
,  // measure 11
0100
0000
0010
1000
0000
0001
0000
0100
,  // measure 12
0000
0001
0010
0100
0010
0000
0001
0000
,  // measure 13
1000
0000
0100
0000
1000
0000
0001
0010
,  // measure 14
0000
0100
0010
0000
0001
0000
1000
0000
,  // measure 15
0010
0000
0100
0010
0000
0100
0010
0100
,  // measure 16
0000
0001
0010
0100
1000
0000
0001
0000
,  // measure 17
1000
0000
0010
0000
0100
0001
0100
0000
,  // measure 18
0001
0000
0010
0000
0100
1000
0100
0000
,  // measure 19
2000
0000
0000
3001
,  // measure 20
0002
0000
0000
0003
,  // measure 21
0010
0000
0001
0000
0100
0001
0100
0000
,  // measure 22
0010
0000
1000
0000
0100
1000
0100
0000
,  // measure 23
1000
0000
0001
0000
0100
0010
0100
0000
,  // measure 24
0001
0010
0001
0100
,  // measure 25
0010
0000
1000
0000
0001
0010
0000
0001
,  // measure 26
0000
0000
1000
0000
0010
0100
0000
0220
,  // measure 27
0000
0000
0000
0330
,  // measure 28
2002
0000
0000
3003
,  // measure 29
1000
0100
1000
0010
,  // measure 30
0100
0001
0010
0001
,  // measure 31
1000
0001
1000
0001
,  // measure 32
0100
0010
0100
0020
0000
1000
1030
0000
,  // measure 33
0001
0000
0100
0000
0101
0000
0001
0010
,  // measure 34
0000
0100
0000
1100
0000
0000
0001
0000
,  // measure 35
0010
0000
0001
1000
0000
0010
0000
0100
,  // measure 36
0001
1000
0100
1000
,  // measure 37
0001
0000
0010
0000
0100
0000
1000
0100
,  // measure 38
0000
0010
0000
0011
0000
0000
0100
0000
,  // measure 39
0010
0000
1000
0000
0010
1000
0001
0200
,  // measure 40
0000
0000
0000
0000
0300
0010
0010
0000
,  // measure 41
1000
0000
0100
0000
1100
0000
1000
0010
,  // measure 42
0000
0100
0000
0101
0000
0000
0001
0000
,  // measure 43
0010
0000
0001
1000
0000
0010
0000
0000
,  // measure 44
0100
0001
1000
0000
0010
1000
0001
0000
,  // measure 45
1000
0000
0100
0000
1000
0010
0000
2020
,  // measure 46
0000
0000
3030
0000
0000
0100
0001
0000
,  // measure 47
0001
0000
0010
0000
0001
0000
1000
0020
,  // measure 48
0000
0000
0000
0030
,  // measure 49
0100
0000
0001
0000
0010
0000
0001
1000
,  // measure 50
0000
0010
1000
0100
0000
1000
0001
0000
,  // measure 51
0010
0000
0001
0100
0000
0010
0000
1000
,  // measure 52
0000
0100
1000
0000
0001
0000
1000
0000
,  // measure 53
0001
0000
0100
0000
0001
0010
0000
0100
,  // measure 54
0000
1000
0010
0000
0100
0000
0001
0000
,  // measure 55
0010
0000
0100
1000
0000
0001
0100
0001
,  // measure 56
0000
1000
0001
0000
1001
0000
1001
0000
,  // measure 57
0100
0000
0010
0000
0100
0010
1000
0000
,  // measure 58
1000
0000
0001
0000
1000
0100
0010
0000
,  // measure 59
0001
0000
0100
0000
0010
0100
0001
0000
,  // measure 60
0010
0000
0001
0000
1000
0100
1000
0000
,  // measure 61
0001
0000
0010
0000
0001
1000
0001
0000
,  // measure 62
1000
0000
0100
0000
1000
0001
1000
0000
,  // measure 63
0001
0000
1000
0010
0000
0100
0001
0100
,  // measure 64
0000
0001
1000
0000
0010
0000
0110
0000
,  // measure 65
0000
0000
0000
0000
0000
0010
0100
0010
,  // measure 66
1000
0000
0010
0000
1010
0000
0100
0001
,  // measure 67
0000
0010
0000
0011
0000
0000
0001
0000
,  // measure 68
1000
0000
0010
0100
0000
0110
0000
0000
,  // measure 69
1000
0001
0100
0010
,  // measure 70
0100
0000
0001
0000
0101
0000
0100
0010
,  // measure 71
0000
1000
0000
1100
0000
0000
0001
0000
,  // measure 72
1000
0010
0100
0000
0001
0100
0010
0000
,  // measure 73
2002
0000
0000
3003
0000
0010
0100
0010
,  // measure 74
1000
0000
0001
0000
1001
0000
1000
0010
,  // measure 75
0000
0100
0000
0101
0000
0000
0001
0000
,  // measure 76
0010
0000
0100
0000
1000
0001
1000
0000
,  // measure 77
0010
0100
0010
0000
1000
0010
0100
0000
,  // measure 78
0001
0000
0010
0000
0001
0010
0000
0220
,  // measure 79
0000
0000
0000
0330
0000
0000
1000
0000
,  // measure 80
0010
0000
0100
0000
0010
0100
0010
0200
,  // measure 81
0000
0000
0000
0300
,  // measure 82
0001
0000
1000
0000
0010
0000
0100
0010
,  // measure 83
0000
1000
0100
1000
0000
0001
0010
0000
,  // measure 84
0001
0000
0100
0010
0000
0100
0000
0010
,  // measure 85
0000
1000
0100
1000
0010
0000
0100
0000
,  // measure 86
0001
0000
0010
0000
0001
0100
0001
1000
,  // measure 87
0000
0010
0100
0000
0001
0000
1000
0000
,  // measure 88
1001
0000
0001
0100
0000
0010
1000
0100
,  // measure 89
0000
0010
0001
0000
0011
0000
1100
0000
;

//---------------dance-single - ----------------
#NOTES:
     dance-single:
     :
     Hard:
     15:
     0.775225,0.774734,0.385853,0.155983,0.197031,661.000000,614.000000,47.000000,19.000000,0.000000,0.000000,0.775225,0.774734,0.385853,0.155983,0.197031,661.000000,614.000000,47.000000,19.000000,0.000000,0.000000:
// measure 0
0000
0000
0000
0000
,  // measure 1
0000
0000
0000
0000
,  // measure 2
0000
0000
0000
0000
,  // measure 3
0000
0000
0000
0000
,  // measure 4
0000
0000
0000
0000
0000
0010
0010
0010
,  // measure 5
0011
0000
1100
0000
1000
0010
0100
0101
,  // measure 6
0000
1010
0000
1100
0000
0100
1000
0001
,  // measure 7
0100
0000
0010
0000
0100
0000
0010
0000
1000
0001
0010
0000
0100
0000
2000
0000
,  // measure 8
0000
0000
0000
0000
3000
0001
0001
0001
,  // measure 9
1000
0010
0100
0000
0001
1000
0100
0010
,  // measure 10
0000
0010
1000
0010
0001
0100
0010
1000
,  // measure 11
0001
0100
1000
0000
1000
0100
0010
1000
,  // measure 12
0000
1000
0001
0010
0001
0100
0100
0100
,  // measure 13
0010
1000
0200
0000
1300
0010
0100
0001
,  // measure 14
0000
0001
0010
0100
1000
0001
1001
0000
,  // measure 15
0100
0010
0100
1010
0000
0100
0001
0101
,  // measure 16
0000
0000
0001
0000
0010
0000
0100
0000
1000
0001
0100
0000
0020
0000
0000
0000
,  // measure 17
1030
0000
0100
0000
1000
0000
0001
0000
0100
0010
0100
0000
0001
0000
0010
0000
,  // measure 18
0100
0000
1000
0000
0010
0000
1000
0000
0100
1000
0010
0000
0100
0000
0001
0000
,  // measure 19
0010
0000
0100
0000
0010
0000
0001
0000
1000
0001
0010
0000
0100
0000
1000
0000
,  // measure 20
0001
0100
1000
0001
0010
1000
0200
0000
,  // measure 21
1300
0000
0001
0000
1000
0000
0010
0000
0100
0001
0010
0000
0001
0000
1000
0000
,  // measure 22
0100
0000
0010
0000
0001
0000
1000
0000
0001
0100
0010
0000
1000
0000
0001
0000
,  // measure 23
0100
0100
0110
0000
0001
0001
1001
0000
,  // measure 24
1000
0000
0001
0000
0100
0000
0010
0000
1000
0001
0010
0000
0100
0000
1000
0000
,  // measure 25
0002
0000
0010
0000
0010
0013
0000
2010
,  // measure 26
0000
0010
0010
0000
3100
0010
0000
0210
,  // measure 27
0000
1300
0100
0001
0100
1000
0000
0001
,  // measure 28
0100
0000
1000
0000
0100
0000
0010
0000
0100
0010
0100
0010
0100
0000
0000
0000
,  // measure 29
0011
0000
1000
0001
0010
0100
0000
1000
,  // measure 30
0010
0100
0010
0000
1000
0000
0001
1001
,  // measure 31
0000
0100
0010
1000
0001
0010
0100
1000
,  // measure 32
0010
0100
0001
1001
0000
0100
0100
0100
,  // measure 33
0001
0000
0010
0000
0001
0000
1000
0010
0100
0000
0010
0000
1000
0000
0100
0000
,  // measure 34
0000
1100
0000
1001
0000
0001
0100
0010
,  // measure 35
1000
0000
0001
0000
0010
0000
0001
1000
0010
0000
0100
0000
0000
0000
0100
0010
,  // measure 36
1000
0100
1000
0010
0100
0001
0010
0100
,  // measure 37
1000
0010
1010
0000
0011
0000
0001
1001
,  // measure 38
0000
0110
0000
1001
0000
0100
0001
0010
,  // measure 39
0100
0000
0010
0000
0001
0000
1000
0000
0010
0000
0100
0010
0100
0000
0002
0000
,  // measure 40
0000
0000
1000
0000
1003
0000
0000
1001
0000
0000
0010
0000
0010
0000
0010
0000
,  // measure 41
1000
0000
0010
0000
1000
0000
0100
1000
0001
0000
1000
0000
0010
0000
0100
0000
,  // measure 42
0010
0000
1000
0000
0100
0000
1000
0001
0010
0000
0002
0000
0000
0000
0103
0000
,  // measure 43
0010
0000
1000
0000
0001
0000
0010
0000
0100
1000
0001
0000
0000
0000
0001
0000
,  // measure 44
1000
0000
0010
0000
0100
0000
0001
0000
0010
0100
0010
0100
0010
0000
0000
0000
,  // measure 45
1100
0000
0001
0000
1000
0010
0100
0001
,  // measure 46
1000
0010
1000
0010
1000
0000
0001
0000
0000
0000
0001
0000
0010
0000
0000
0000
,  // measure 47
0001
0000
0100
0000
1000
0000
0100
0000
0010
0000
1000
0000
0100
0010
0100
0000
,  // measure 48
0000
0100
1000
0001
1000
0010
0110
0000
,  // measure 49
1010
0000
1100
0000
0001
0000
0010
0001
,  // measure 50
0000
0001
1000
0010
0000
0010
1000
0000
,  // measure 51
0101
0000
1000
0100
0000
0100
1000
0010
,  // measure 52
0000
0010
1000
0001
0100
0010
0110
0000
,  // measure 53
0101
0000
0011
0000
1000
0001
0010
0001
,  // measure 54
0000
0001
1000
0010
0100
0000
1010
0000
,  // measure 55
1100
0000
1000
0001
0000
0010
0001
1001
,  // measure 56
0000
0000
0100
0010
0100
0000
0000
0001
0000
0000
1000
0000
0010
0000
0010
0000
,  // measure 57
1000
0000
0011
0000
0010
0100
0100
0100
,  // measure 58
1000
0010
0100
0010
1000
0001
0001
0001
,  // measure 59
0010
0100
1000
0100
0010
0100
0100
0100
,  // measure 60
1000
0010
0100
0001
1000
0010
0010
0010
,  // measure 61
0100
0000
1010
0000
0100
0001
0001
0001
,  // measure 62
0010
0100
1000
0001
0000
0100
0100
0100
,  // measure 63
0010
1000
0001
0010
0001
1000
1000
1000
,  // measure 64
0001
0010
1000
0010
0011
0000
1100
0000
,  // measure 65
2002
0000
0000
3003
0000
0010
0010
0010
,  // measure 66
0001
0000
1000
0000
0010
0000
1000
0001
0100
0000
0010
0000
1000
0000
0100
0000
,  // measure 67
0000
0000
1001
0000
0000
0000
0010
0001
1000
0000
0010
0000
0100
0000
0001
0000
,  // measure 68
1000
0000
0010
0000
0001
0000
0010
0000
1000
0001
0100
0000
0000
0000
0100
0010
,  // measure 69
1000
0001
0010
0001
0100
0010
1000
0000
,  // measure 70
1010
0000
0000
0000
1001
0000
0000
0000
0001
0000
0100
0000
0001
0010
0100
0000
,  // measure 71
0000
0100
1000
0010
0100
0001
0002
0000
,  // measure 72
1003
0000
0010
0000
0001
0000
0010
0000
1000
0001
0100
0000
0010
0000
2000
0000
,  // measure 73
0000
0000
0000
0000
3100
0000
0000
1100
0000
0000
0001
0000
0001
0000
0001
0000
,  // measure 74
0010
0000
0001
1000
0010
0000
0100
0000
0010
1000
0100
0000
1000
0000
0001
0000
,  // measure 75
0010
0000
0001
0100
0010
0000
1000
0000
0001
0100
0010
0000
0200
0000
0000
0000
,  // measure 76
0301
0010
0001
0000
1000
0000
0010
0000
0100
0010
0100
0000
0000
0000
0100
0000
,  // measure 77
0010
0000
1000
0000
0100
0000
1000
0000
0010
0000
0100
0001
1000
0000
0000
0000
,  // measure 78
0101
0000
0010
0001
1000
0001
1000
0010
,  // measure 79
0100
0001
0100
0001
0100
0000
0000
0000
0000
0000
0010
0000
0010
0000
0000
0000
,  // measure 80
1000
0001
0100
0000
0010
0000
1000
0000
0100
0010
0001
0000
1000
0000
0010
0000
,  // measure 81
0200
0000
0000
0000
0000
0010
0310
0000
,  // measure 82
1001
0000
0011
0000
1000
0001
0001
0001
,  // measure 83
1000
0010
0100
0001
0010
0100
0100
0100
,  // measure 84
1000
0000
0010
0100
0010
0000
1000
0000
0001
0000
0010
0000
0010
0000
0010
0000
,  // measure 85
0100
0010
0001
1000
0010
0100
0100
0100
,  // measure 86
0002
0010
0010
0013
0200
1000
1000
1300
,  // measure 87
0020
0100
0100
0130
0002
1000
1000
1003
,  // measure 88
0010
0100
0010
0000
1000
0100
1000
0000
0001
0100
0001
0000
0010
0001
0010
0000
,  // measure 89
0000
0001
0100
1000
0001
0010
1000
1001
;
