#TITLE:Ensemble Forecast 3/28;
#SUBTITLE:;
#ARTIST:LekSak;
#TITLETRANSLIT:;
#SUBTITLETRANSLIT:;
#ARTISTTRANSLIT:;
#GENRE:PORTABLE POP;
#CREDIT:;
#BANNER:Ensemble_Forecast_328_banner.png;
#BACKGROUND:Ensemble_Forecast_328.png;
#LYRICSPATH:;
#CDTITLE:;
#MUSIC:Ensemble Forecast 328.ogg;
#OFFSET:-0.200000;
#SAMPLESTART:59.910000;
#SAMPLELENGTH:15.000000;
#LASTBEATHINT:392.000000;
#SELECTABLE:YES;
#BPMS:0.000000=212.000000
;
#STOPS:
;
#BGCHANGES:;
#KEYSOUNDS:;
#ATTACKS:;

//---------------dance-single - ----------------
#NOTES:
     dance-single:
     :
     Easy:
     6:
     0.267567,0.338006,0.113249,0.287479,0.000000,215.000000,202.000000,13.000000,33.000000,0.000000,0.000000,0.267567,0.338006,0.113249,0.287479,0.000000,215.000000,202.000000,13.000000,33.000000,0.000000,0.000000:
0000
0000
0000
0000
,
0000
0000
0000
0000
,
0000
0000
0000
0000
,
0000
0000
0000
0000
,
0001
0000
1000
0000
,
0001
0000
1000
0000
,
0100
0000
0010
0000
,
0220
0000
0330
0000
,
0000
1000
0000
0001
,
0000
0010
0000
0100
,
0000
0000
1000
0000
0001
0000
0000
0100
,
0000
0000
0000
0000
0100
0000
0000
0010
,
0000
0000
0010
0000
,
1000
0000
0001
0000
,
0010
0000
0001
0000
,
2000
0000
3002
0000
,
0203
0000
0310
0000
,
1010
0000
0001
0000
,
0011
0000
0100
0000
,
0020
0000
0000
0000
,
2030
0000
0000
0000
,
3002
0000
0000
0000
,
0203
0000
0000
0000
,
0301
0000
0010
0000
,
0100
0000
1000
0000
,
0010
0000
0100
0000
,
0001
0000
1000
0000
,
0001
0000
0001
1000
,
0100
0000
1000
0000
,
0010
0000
0100
0010
,
1000
0000
1001
0000
,
0010
0000
0010
0000
,
0100
0010
0100
0000
,
0001
0000
0010
0000
,
0001
1000
0100
0000
,
0020
0000
0000
0030
,
0000
0000
0000
0000
,
1000
0000
0001
0000
,
1000
0000
0001
0000
,
0110
0000
0001
0000
,
0110
0000
1000
0000
,
0100
0000
1100
0000
,
0001
0000
0011
0000
,
2000
0000
3010
0100
,
0020
0000
0130
0000
,
0002
0000
0013
0100
,
0020
0000
0130
0000
,
1000
0000
0100
1000
,
0001
0000
0100
0000
,
0010
0000
1000
0000
,
0001
0010
0100
1000
,
0010
0000
0010
0000
,
0200
0000
0300
0000
,
0020
0000
1030
0100
,
2000
0000
3001
0000
,
0020
0000
0031
1000
,
0001
0000
0110
0000
,
1000
0100
1000
0000
,
0001
0010
0001
0000
,
1000
0000
1001
0000
,
0010
0100
0001
0000
,
0020
0000
0031
1000
,
0002
0000
0103
0000
,
0020
0000
1030
0100
,
2000
0000
3010
0000
,
0100
0010
0100
0000
,
0001
1000
0001
0000
,
0010
0000
0001
0000
,
1000
0001
0010
0100
,
1000
0000
0000
0001
,
0001
0000
1000
0000
,
0010
0000
0100
0100
,
0010
0000
1000
0000
,
0001
0000
1000
0000
,
0010
0000
0020
0200
,
0330
0000
0000
0000
,
2002
0000
0000
0000
,
3003
0000
0000
0000
,
0010
0000
0010
0000
,
0010
0100
0010
0100
,
0001
0000
0001
1000
,
0200
0000
0300
0000
,
1000
0000
0010
1000
,
0020
0000
0130
0000
,
0001
0000
0001
0010
,
0100
0000
1000
0000
,
0010
0100
0001
0000
,
1000
0000
1001
0000
,
0100
0000
0010
1000
,
0020
0000
0130
0000
,
0002
0000
0013
0100
,
2000
0000
3001
0000
,
0100
0000
0001
0010
,
0001
0000
1000
0000
,
0010
1000
0100
0000
,
0010
0000
0001
0000
,
2200
0000
0000
0000
,
3300
0000
0000
0000
;

//---------------dance-single - ----------------
#NOTES:
     dance-single:
     :
     Medium:
     10:
     0.409440,0.459966,0.217787,0.200364,0.091471,329.000000,304.000000,25.000000,23.000000,0.000000,0.000000,0.409440,0.459966,0.217787,0.200364,0.091471,329.000000,304.000000,25.000000,23.000000,0.000000,0.000000:
0000
0000
0000
0000
,
0000
0000
0000
0000
,
0000
0000
0000
0000
,
0000
0000
0000
0000
,
1000
0010
1000
0010
,
0100
0001
0100
0001
,
0010
0001
0010
0001
,
2002
0000
0000
0000
0000
3003
0000
0000
,
0100
0110
0000
0011
,
1000
1100
0000
0101
,
1000
0000
0000
0001
0000
0000
0010
0000
0000
0100
0000
1000
,
0000
0000
0000
1000
0000
0000
0010
0000
0000
0100
0000
0010
,
0000
0000
0000
1000
0000
0000
0001
0000
0000
0010
0000
0001
,
0000
1000
0001
1000
,
0010
0100
0100
0000
,
1010
0000
1100
0000
,
0011
0000
0101
0000
,
1001
0000
0110
0000
,
1000
0000
0001
0000
0010
0100
0010
0000
,
0002
0000
1003
0100
,
2000
0000
3010
0000
,
0100
0010
1000
0001
,
2002
0000
3003
0000
,
0010
0100
1000
0000
,
1000
0100
0010
0000
,
0001
0100
0010
0100
,
0001
1000
1000
0000
,
0001
0000
0010
0000
0001
0000
1000
0010
,
1000
0001
1000
0100
,
0010
0000
0100
0000
1000
0001
0000
0001
,
0000
0100
0010
1000
,
0001
0000
0010
0000
0100
0000
1000
0001
,
1000
0010
0200
0300
,
0010
0000
1000
0001
0000
0000
0001
0000
,
0010
0100
1000
0001
,
2002
0000
0000
0000
,
3003
0000
0000
0000
,
0010
0010
0100
0100
,
1000
1000
0002
0003
,
1001
0000
1100
0000
,
1001
0000
0011
0000
,
0001
1000
0002
0000
,
1003
0100
0020
0000
,
0130
0000
0000
0000
0000
0000
1000
0000
0000
0010
0000
1000
,
0000
0010
0100
0000
,
0001
0010
0001
1000
,
0100
1000
0010
0000
,
0100
0000
0000
0001
0000
0000
0010
0000
0000
0001
0000
1000
,
0000
0001
0001
0000
,
1000
0100
0010
0001
,
0010
0000
0100
0000
1000
0001
1000
0000
,
0110
0000
0001
0000
,
1000
0000
0000
0000
0000
1001
0000
0000
0000
0010
0000
0000
,
0100
0001
0010
0001
,
0100
0000
0010
0000
1000
0000
0100
1000
,
0100
1000
0010
0100
,
0001
0010
0001
1000
,
0002
0010
0013
1000
,
0020
0100
0130
0000
,
0110
0000
1000
0001
,
1000
0000
0000
0100
0000
0010
0000
0000
0000
0100
0000
0000
,
1000
0000
0001
0000
0010
0000
0001
0100
,
0001
0000
1000
0000
0010
0000
1000
0100
,
1000
0000
0010
0000
0100
0000
0001
0010
,
0001
1000
0001
0010
,
0200
1000
1300
0001
,
0020
0001
0031
0000
,
1001
0000
0010
0100
,
0010
1000
0100
0010
,
0002
0000
0000
1003
,
2000
0000
0000
3010
,
0020
0000
0130
0000
,
0100
0001
1000
0000
,
0100
0000
0000
0000
0000
1000
0000
0000
0000
0000
0000
0010
,
0000
0000
0000
0000
0000
0100
0000
0000
0000
0001
0000
0000
,
0000
0000
0000
0000
,
0220
0000
0000
0000
,
0000
0000
0000
0330
,
0001
1000
0001
1000
,
0001
1000
0001
1000
0001
0000
0000
0000
,
1000
0000
0000
0010
0000
0000
1000
0000
0010
0000
0000
0010
,
0000
0100
0010
0100
,
0001
0000
0000
0010
0000
0000
0100
0000
1000
0000
0000
1000
,
0000
0010
2000
0000
,
3001
0000
0000
0010
0000
0000
0001
0000
0100
0000
0000
0100
,
0000
0010
1000
0100
,
0010
0100
1000
0001
,
0010
0000
1001
0000
,
0100
0000
0000
0001
0000
0000
0010
0000
0001
0000
0000
0001
,
0000
0010
0100
1000
,
0001
0000
0000
1000
0000
0000
0010
0000
0100
0000
0000
0100
,
0000
0001
2000
0000
,
3100
0000
0000
0000
0000
0000
0010
0000
0000
0000
0000
0000
0001
0000
0000
0100
0000
0000
0000
0000
0000
0000
0010
0000
,
0000
0100
0010
1000
,
0001
0010
0100
1000
,
0001
0000
1001
0000
,
0110
0000
0000
0000
;

//---------------dance-single - ----------------
#NOTES:
     dance-single:
     :
     Hard:
     14:
     0.664562,0.752672,0.522689,0.217787,0.753543,534.000000,474.000000,60.000000,25.000000,0.000000,0.000000,0.664562,0.752672,0.522689,0.217787,0.753543,534.000000,474.000000,60.000000,25.000000,0.000000,0.000000:
// measure 0
0000
0000
0000
0000
,  // measure 1
0000
0000
0000
0000
,  // measure 2
0000
0000
0000
0000
,  // measure 3
0000
0000
0000
0000
,  // measure 4
1000
1100
0001
0011
,  // measure 5
1000
1010
0001
0101
,  // measure 6
0001
1001
1000
1001
,  // measure 7
0220
0000
0000
0330
,  // measure 8
0001
0000
0000
0011
0000
0000
1000
0000
0001
0010
0000
0000
,  // measure 9
1000
0000
0000
1100
0000
0000
0001
0000
1000
0100
0000
0000
,  // measure 10
0010
0000
0000
0110
0000
0000
1000
0000
0001
0010
0000
0100
,  // measure 11
0000
0000
0010
0001
0000
0100
0010
0000
1000
0001
0000
0200
,  // measure 12
0000
0000
0310
1000
0000
0010
1000
0000
0001
0100
0000
0001
,  // measure 13
0000
0110
1000
0110
,  // measure 14
0001
0000
0000
1001
0000
0000
1000
0100
0010
0001
0000
0000
,  // measure 15
0101
0010
1100
0001
,  // measure 16
1010
0100
0011
1000
,  // measure 17
1100
0001
0110
1000
,  // measure 18
0001
0000
1000
0100
0000
1000
0010
0100
0001
0010
0000
0000
,  // measure 19
0002
0000
0000
0100
0000
0000
0103
0000
0010
0000
0000
0110
,  // measure 20
0000
1000
0100
1000
,  // measure 21
0020
0000
0000
1000
0000
0000
1030
0000
0001
0000
0000
0110
,  // measure 22
0000
0010
0100
0000
,  // measure 23
0102
0000
0023
0000
,  // measure 24
0130
1000
0020
0000
,  // measure 25
1030
0100
0001
0100
,  // measure 26
1000
0001
1001
0000
,  // measure 27
0110
0000
0000
0001
0000
1000
0001
0000
0010
0000
0000
0100
,  // measure 28
0000
0000
0100
0010
0000
0001
1000
0000
0000
0110
0000
0000
,  // measure 29
0001
0000
1000
0100
0000
0000
1000
0000
0010
0100
0000
0001
,  // measure 30
0000
0000
0010
0001
0000
0000
1000
0000
0000
0010
0000
0000
,  // measure 31
1000
0000
0010
0100
0000
0000
0001
0000
0010
0100
0000
0000
,  // measure 32
1000
0000
0001
0010
0000
0000
0001
0000
1000
0100
0000
0000
,  // measure 33
1000
0000
0001
0000
0000
0011
0000
0000
0000
1000
0000
0000
,  // measure 34
0010
0100
0010
0100
0000
0001
0000
0010
0100
0010
0000
0000
,  // measure 35
0220
0000
0000
0000
,  // measure 36
0000
0000
0000
0030
,  // measure 37
1000
1000
0010
0010
,  // measure 38
0001
0001
0310
0000
,  // measure 39
1001
0000
0000
0001
0010
0100
1000
0000
0000
0010
0100
0001
,  // measure 40
1000
0000
0000
0001
0010
0100
2000
0000
0000
3010
0000
0000
,  // measure 41
0110
0000
0000
1000
0100
0010
0001
0000
0000
0100
0010
1000
,  // measure 42
0001
0000
0000
0001
0100
0010
1000
0000
0000
0010
0000
1000
,  // measure 43
0000
0000
0001
0010
0000
0000
0001
0000
0100
0010
0000
0110
,  // measure 44
0000
0100
0010
1001
,  // measure 45
0010
0000
0100
1000
0000
0000
0010
0000
0100
0001
0000
0000
,  // measure 46
0001
0000
0010
0001
0000
1000
0001
0000
0010
0001
0000
1000
,  // measure 47
0000
0000
0000
1100
0000
0000
0010
0000
1000
0010
0000
0100
,  // measure 48
0000
0000
0000
0001
0010
0100
2000
0000
0000
3001
0000
0000
,  // measure 49
0001
0000
1000
0100
0000
1000
0000
0000
1000
0010
0000
1000
,  // measure 50
0001
0000
0010
0100
0000
0010
0001
0000
0000
1001
0000
0000
,  // measure 51
0010
1001
0100
0110
,  // measure 52
1000
0000
0000
0000
0001
0000
0000
0000
0000
0000
2002
0000
0000
0000
0000
3003
0000
0000
0000
0000
0000
0000
0000
0000
,  // measure 53
0100
0000
1000
0100
0000
0001
0100
0000
1000
0100
0000
0010
,  // measure 54
0000
0000
0010
1000
0000
0100
0010
0000
0100
1000
0000
0001
,  // measure 55
0000
0000
0001
0010
0000
0100
0010
0000
0001
0100
0000
0010
,  // measure 56
0000
0000
0010
0100
0010
0100
0010
0000
0000
1001
0000
0000
,  // measure 57
2000
0000
0000
3001
0010
0100
1000
0000
0000
0010
0000
0000
,  // measure 58
0010
0000
0000
1000
0100
0010
0001
0000
0000
0001
0000
0000
,  // measure 59
0100
0110
0001
1001
,  // measure 60
0010
0000
1000
0100
0000
0010
0000
0000
0000
0001
0000
0100
,  // measure 61
1000
0000
0100
0001
0000
0100
1000
0000
0100
0001
0000
0010
,  // measure 62
1000
0000
0010
0001
0000
0010
1000
0000
0010
0001
0000
1000
,  // measure 63
0010
0000
0010
0100
0000
0100
0001
0000
0001
0010
0000
0010
,  // measure 64
0100
0000
0100
1000
0000
1000
0001
0100
0001
0010
0000
0000
,  // measure 65
0100
0000
0000
1000
0001
0010
0200
0000
0000
1300
0000
0000
,  // measure 66
1010
0000
0000
0100
0010
1000
0200
0000
0000
0310
0000
0000
,  // measure 67
0001
0000
0001
1000
0000
1000
0100
0000
0100
0010
0000
0010
,  // measure 68
0100
0000
1000
0001
0000
0010
0001
1000
0001
1000
0000
0000
,  // measure 69
0220
0000
0000
0330
0000
0000
1001
0000
,  // measure 70
0220
0000
0000
0330
0000
0000
1001
0000
,  // measure 71
0011
0000
1100
0000
,  // measure 72
0001
0000
0001
1000
0000
1000
0100
0010
0001
1000
0000
0000
,  // measure 73
0001
0000
0010
0001
0000
0010
0000
0000
0100
1000
0000
0100
,  // measure 74
0000
0000
1000
0010
0000
1000
0001
1000
0001
2000
0000
0000
,  // measure 75
0000
0000
0010
3010
,  // measure 76
0102
1000
0000
1000
,  // measure 77
0000
1000
0000
1003
,  // measure 78
0220
0000
0000
0330
,  // measure 79
0010
0001
0100
1000
,  // measure 80
0001
0000
0000
1100
0000
0000
0010
0000
0001
0000
0000
1001
,  // measure 81
0000
0000
0000
1010
0000
0000
0100
0000
0010
0100
0000
0000
,  // measure 82
0010
0000
0000
0101
0000
0000
1000
0000
0100
0000
0000
0110
,  // measure 83
0000
0000
0100
1000
0000
0001
1000
0000
0000
0010
0000
0000
,  // measure 84
0100
0000
0000
0110
0000
0000
1000
0000
0001
0000
0000
0011
,  // measure 85
0000
0000
0000
1000
0000
0000
0001
0000
0010
0100
0000
0000
,  // measure 86
1000
0000
0010
1000
0000
0000
0001
0000
0100
0001
0000
0000
,  // measure 87
0010
0000
0010
0100
0000
0100
1000
0001
1000
0001
0000
0000
,  // measure 88
0010
0000
0000
0110
0000
0000
1000
0000
0001
0000
0000
0101
,  // measure 89
0000
0000
0000
0010
0000
0000
0100
0000
1000
0100
0000
0000
,  // measure 90
0010
0000
0000
1010
0000
0000
1000
0000
0100
0000
0000
0110
,  // measure 91
0000
0000
0100
0001
0000
0100
1000
0000
0000
0010
0000
0000
,  // measure 92
0100
0000
0000
0001
0000
0000
0010
0000
0001
1000
0000
0100
,  // measure 93
0000
0000
1000
0010
0000
0100
0001
0000
0000
0010
0000
0000
,  // measure 94
0001
0000
0100
0010
0000
0100
0001
0000
1000
0100
0000
1000
,  // measure 95
0010
0000
0010
0100
0000
0100
0001
0010
0100
1000
0000
0000
,  // measure 96
0110
0000
0000
0000
;
