#TITLE:円環のヴァルキュリア -lopulla tragedia-;
#SUBTITLE:;
#ARTIST:ARM×狐夢想 feat.anporin;
#TITLETRANSLIT:Enkan no valkyria -lopulla tragedia-;
#SUBTITLETRANSLIT:;
#ARTISTTRANSLIT:ARM×Komso feat.anporin;
#GENRE:;
#CREDIT:;
#BANNER:Enkan no valkyria -lopulla tragedia-_banner.png;
#BACKGROUND:Enkan no valkyria -lopulla tragedia-.png;
#LYRICSPATH:;
#CDTITLE:;
#MUSIC:Enkan no valkyria -lopulla tragedia-.ogg;
#OFFSET:-1.020000;
#SAMPLESTART:66.410004;
#SAMPLELENGTH:12.000000;
#LASTBEATHINT:378.000000;
#SELECTABLE:YES;
#BPMS:0.000000=200.000000
,284.000000=100.000000
,300.000000=200.000000
;
#STOPS:
;
#BGCHANGES:;
#KEYSOUNDS:;
#ATTACKS:;

//---------------dance-single - ----------------
#NOTES:
     dance-single:
     :
     Easy:
     7:
     0.250511,0.304846,0.105539,0.259789,0.000000,216.000000,203.000000,13.000000,32.000000,0.000000,0.000000,0.250511,0.304846,0.105539,0.259789,0.000000,216.000000,203.000000,13.000000,32.000000,0.000000,0.000000:
0000
0000
0000
0000
,
0000
0000
0000
0000
,
0000
0000
0000
0000
,
0000
0000
0000
0000
,
0001
0100
0001
0000
,
1000
0010
1000
0000
,
0001
0000
1001
0000
,
0220
0000
0330
0000
,
1000
0000
0100
0000
,
1000
0010
0100
0000
,
0001
0000
0010
0000
,
0001
0100
0010
0000
,
1000
0000
0001
0000
,
0010
0001
0100
0000
,
0001
0000
1000
0000
,
2002
0000
3003
0000
,
0100
0010
0100
0000
,
0001
0000
0010
0000
,
0001
1000
0001
0000
,
1000
0000
0100
0000
,
1000
0000
0010
0000
,
0100
0010
0100
0000
,
0002
0000
0023
0000
,
0230
0000
2300
0000
,
3010
0000
0010
0100
,
0010
0100
0010
0000
,
1000
0000
0100
1000
,
0100
1000
0100
0000
,
0010
0000
0001
0010
,
0001
0010
0001
0000
,
1000
0000
0010
0100
,
0001
1000
1001
0000
,
0200
0000
0310
0000
,
2000
0000
3100
0000
,
0010
0000
0001
0010
,
0002
0000
0000
0000
,
0003
1000
0000
0001
,
0001
0000
1001
0000
,
0110
0000
0010
0000
,
0100
0000
0100
0000
,
0001
0000
0001
0000
,
1000
0000
1000
0000
,
0001
0000
0100
0000
,
0010
0000
1000
0000
,
0100
0000
0010
0000
,
2002
0000
3003
0000
,
0100
0000
0010
1000
,
0100
0000
1000
0001
,
0020
0000
0032
0000
,
0203
0000
0320
0000
,
1030
0100
1000
0000
,
0001
0100
0001
0000
,
0100
0000
0010
0000
,
0220
0000
0330
0000
,
0000
0000
0000
0000
0000
0000
0000
1000
,
0000
0000
0100
0000
1000
0000
0000
0001
,
0000
0000
0010
0000
0001
0000
0000
0100
,
0000
0000
0200
0000
0000
0300
0000
0100
,
0000
0000
0200
0000
0000
0300
0000
0001
,
0000
0000
0010
0000
0001
0000
0000
1000
,
0000
0100
1000
0000
,
0010
0000
0110
0000
,
0100
0000
0010
0000
1000
0000
0000
0001
,
0000
0000
0010
0000
0100
0000
0000
1000
,
0000
0000
0010
0000
0100
0000
0000
0010
,
0000
0000
0020
0000
0000
0030
0000
0010
,
0000
0000
0020
0000
0000
0030
0000
1000
,
0000
0000
0001
0000
0010
0000
0000
0001
,
0000
1000
0010
0000
,
0220
0000
0000
0000
,
0330
0000
0000
0000
,
1000
0000
0100
0000
,
0010
0000
0001
0000
,
0100
0000
0010
0000
,
1000
0000
1001
0000
,
0020
0000
0000
0030
,
0200
0000
0000
0300
,
0002
0000
0000
0003
,
2000
0000
0000
3000
,
0001
0000
0100
0000
,
0010
0000
1000
0000
,
0100
0000
0010
0000
,
2002
0000
3003
0000
,
0010
0000
0100
0000
,
0001
0010
0001
0000
,
1000
0000
0010
0000
,
1000
0100
1000
0000
,
0001
0100
0001
0000
,
1000
0010
1000
0000
,
0001
0000
0101
0000
,
1000
0010
0100
0000
,
0001
0010
0100
0000
,
0010
0100
1000
0000
,
0020
0000
0000
0030
0000
0100
0000
0100
;

//---------------dance-single - ----------------
#NOTES:
     dance-single:
     :
     Medium:
     11:
     0.438394,0.495375,0.202960,0.324736,0.036533,378.000000,353.000000,25.000000,40.000000,0.000000,0.000000,0.438394,0.495375,0.202960,0.324736,0.036533,378.000000,353.000000,25.000000,40.000000,0.000000,0.000000:
// measure 0
0000
0000
0000
0000
,  // measure 1
0000
0000
0000
0000
,  // measure 2
0000
0000
0000
0000
,  // measure 3
0000
0000
0000
0000
,  // measure 4
0001
0100
0010
0100
,  // measure 5
0001
0010
0100
1000
,  // measure 6
0010
0000
0110
0000
,  // measure 7
2002
0000
3003
0000
,  // measure 8
0100
0000
0010
0100
0001
0000
0010
0000
,  // measure 9
0100
0000
1000
0010
0100
0000
0000
0000
,  // measure 10
0010
0000
0100
0001
0100
0000
0010
0000
,  // measure 11
1000
0100
1001
0000
,  // measure 12
0100
0000
0001
0010
0001
0000
1000
0000
,  // measure 13
0010
0000
0100
0010
0100
0000
0000
0000
,  // measure 14
0002
0000
1003
0000
,  // measure 15
0110
0000
1001
0000
,  // measure 16
1000
0000
0100
1000
0200
0000
0000
0000
,  // measure 17
1300
0100
0010
0001
,  // measure 18
0100
0000
0001
0010
0002
0000
0000
0000
,  // measure 19
0103
0001
0010
0100
,  // measure 20
1000
0000
0010
0100
0020
0000
0000
0000
,  // measure 21
1030
0100
0010
0001
,  // measure 22
0100
0000
0010
0100
0010
0000
1000
0000
,  // measure 23
0001
0010
0011
0000
,  // measure 24
1000
0000
0000
0010
0000
1000
0010
0000
0000
1000
0000
0000
,  // measure 25
0001
0000
0000
0100
0000
0001
0100
0000
0000
0000
0000
0000
,  // measure 26
0011
0000
0000
0100
0000
1000
0010
0000
0000
0100
0000
0000
,  // measure 27
0010
1000
2200
3300
,  // measure 28
0010
0000
0000
1000
0000
0010
1000
0000
0000
0001
0000
0000
,  // measure 29
0010
0000
0000
0001
0000
0100
0001
0000
0000
1000
0000
0000
,  // measure 30
0010
0000
0100
0010
0000
0000
0100
0000
0010
0100
0000
0000
,  // measure 31
0001
1000
2002
3003
,  // measure 32
0020
1000
0130
0000
,  // measure 33
0200
0001
0310
0000
,  // measure 34
1000
0100
0010
0001
,  // measure 35
2002
0000
0000
3003
,  // measure 36
0000
0110
0000
1001
,  // measure 37
0001
0000
0010
0000
0100
0000
2000
0000
0000
0000
0000
0000
,  // measure 38
3001
0000
0000
0100
0001
0000
0000
1000
,  // measure 39
0010
0000
0000
1000
0100
0000
0010
0000
,  // measure 40
0002
0000
0100
0203
,  // measure 41
0020
0000
0330
1000
,  // measure 42
0100
0000
0000
1000
0010
0000
0000
0100
,  // measure 43
0001
0010
0100
1000
,  // measure 44
0001
0000
1000
0010
1000
0000
0001
0000
,  // measure 45
0220
0000
0330
0000
,  // measure 46
1000
0000
0100
1000
0100
0000
1000
0001
,  // measure 47
1000
0000
0001
0010
0001
0000
0100
0000
,  // measure 48
0020
1000
0130
0100
,  // measure 49
0200
0001
0310
0010
,  // measure 50
1000
0100
0010
0000
1001
0000
0000
0000
,  // measure 51
0010
0100
0001
0000
1001
0000
0000
0000
,  // measure 52
0010
0100
0001
1000
,  // measure 53
0220
0000
0000
0000
,  // measure 54
0330
0000
0000
0000
0000
0000
0000
0001
,  // measure 55
0000
0010
0001
0000
1000
0100
0000
1000
,  // measure 56
0000
0010
0100
0000
0001
0010
0000
0001
,  // measure 57
0000
0001
0200
0000
0310
0000
1000
0100
,  // measure 58
0000
0100
0020
0000
0031
0000
1000
0010
,  // measure 59
0000
0100
0010
0000
1000
0100
0000
1000
,  // measure 60
0000
0001
0010
0000
0001
0100
0000
0000
,  // measure 61
0100
0010
0000
0000
0010
0100
0000
0001
,  // measure 62
0000
0010
0100
0000
2000
0000
0000
3001
,  // measure 63
0000
0100
0010
0000
1000
0100
0000
1000
,  // measure 64
0000
0010
0100
0000
0001
0010
0000
0001
,  // measure 65
0000
0100
0010
0000
0010
0000
0100
0001
,  // measure 66
0000
0001
0010
0000
0100
0000
1000
0010
,  // measure 67
0000
0100
0010
0000
1000
0100
0000
1000
,  // measure 68
0000
0001
0010
0000
0001
0000
0100
0000
,  // measure 69
0110
0000
0000
0001
0000
1000
0001
1000
,  // measure 70
0000
1000
0000
0001
0010
0100
1000
0000
,  // measure 71
1001
0010
0100
0001
,  // measure 72
0010
0000
0100
2000
0002
0000
3003
0000
,  // measure 73
0100
0010
1000
0100
,  // measure 74
1000
0000
0001
0020
0200
0000
0330
0000
,  // measure 75
1100
0000
1000
0000
,  // measure 76
0101
0000
0001
0000
,  // measure 77
0011
0000
0010
0000
,  // measure 78
1001
0000
1000
0000
,  // measure 79
0001
0000
0100
0010
0100
0000
0000
0000
,  // measure 80
0001
0000
1000
0100
1000
0000
0000
0000
,  // measure 81
0020
0000
0130
0001
,  // measure 82
1000
0001
2002
3003
,  // measure 83
0100
0000
0010
0000
1000
0000
0100
1000
,  // measure 84
0001
0000
0010
0000
0001
0000
0100
0010
,  // measure 85
0100
0000
0001
0010
0100
0000
0010
0000
,  // measure 86
0001
0000
1000
0010
0100
0000
0010
0000
,  // measure 87
1000
2200
0000
3300
,  // measure 88
0001
0022
0000
0033
,  // measure 89
0100
0000
0010
0100
0001
0000
0010
0000
,  // measure 90
0100
1000
0001
0000
0100
0010
1000
0000
,  // measure 91
0001
0010
0100
2000
0000
0000
3010
0000
,  // measure 92
1000
0100
0010
0002
0000
0000
0103
0000
,  // measure 93
0010
0100
0010
0100
0000
0001
1000
0100
;

//---------------dance-single - ----------------
#NOTES:
     dance-single:
     :
     Hard:
     14:
     0.691224,0.803417,0.365328,0.422157,0.312558,596.000000,551.000000,45.000000,52.000000,0.000000,0.000000,0.691224,0.803417,0.365328,0.422157,0.312558,596.000000,551.000000,45.000000,52.000000,0.000000,0.000000:
// measure 0
0000
0000
0000
0000
,  // measure 1
0000
0000
0000
0000
,  // measure 2
0000
0000
0000
0000
,  // measure 3
0000
0000
0000
0000
,  // measure 4
0001
0100
1000
0100
0001
0100
1000
0100
,  // measure 5
0010
1000
0100
0001
0100
1000
0100
0001
,  // measure 6
0100
1000
0010
0100
0001
0010
0100
1000
0100
0010
0001
0100
,  // measure 7
0020
0000
0200
0330
,  // measure 8
0011
0000
1000
0100
0010
0000
0010
0100
,  // measure 9
1000
0010
0001
0020
2000
0000
3030
0000
,  // measure 10
1001
0000
0010
0100
0001
0000
0001
0100
,  // measure 11
0010
0000
1000
0200
0020
0000
0330
0000
,  // measure 12
1100
0000
0010
0100
0001
0010
0100
1000
,  // measure 13
0010
1000
0001
0010
0100
0000
0010
0000
,  // measure 14
0011
0000
1000
0010
0100
0000
0100
0001
,  // measure 15
0010
1100
2002
3003
,  // measure 16
0110
0000
0100
0010
1000
0100
1000
0000
,  // measure 17
0001
0100
1000
0100
0001
0100
0010
0000
,  // measure 18
1100
0000
0010
0100
1000
0000
0100
0010
,  // measure 19
1000
0010
0001
0010
1000
0010
0100
0000
,  // measure 20
0011
0000
0100
0010
1000
0000
0010
0100
,  // measure 21
0001
0100
1000
0100
0001
0010
1000
0010
,  // measure 22
0002
0000
0103
0010
2000
0000
3100
0010
,  // measure 23
0001
0100
1000
0010
0001
0000
1001
0000
,  // measure 24
0100
0000
0100
0010
0000
0010
1000
0000
0100
0010
0000
0001
,  // measure 25
1000
0000
0010
0001
0000
0010
1000
0000
0000
1001
0000
0000
,  // measure 26
0001
0000
0001
0100
0010
0100
0001
0000
0001
1000
0000
1000
,  // measure 27
0100
0000
0010
0100
0000
1000
0100
0000
0000
0011
0000
0000
,  // measure 28
1000
0000
1000
0010
0000
0010
0100
0000
0001
0100
0000
1000
,  // measure 29
0100
0000
0001
0010
0000
0100
1000
0000
0000
1001
0000
0000
,  // measure 30
0010
0000
0100
0010
1000
0010
0100
0000
0001
0010
0100
0010
,  // measure 31
0001
1000
0010
1000
0001
0100
0002
0000
0000
0003
0000
0000
,  // measure 32
2010
0001
0200
3300
,  // measure 33
0102
1000
0020
0033
,  // measure 34
0100
0000
0100
0010
0000
0010
1000
0000
1000
0001
0000
0001
,  // measure 35
1000
0000
0100
0001
0000
0100
1000
0000
0001
0100
0000
1000
,  // measure 36
0100
0220
0330
1001
,  // measure 37
1010
0000
0011
0000
1100
0000
2002
0000
0000
3003
0000
0000
,  // measure 38
0020
0000
0030
0100
0020
0000
0030
0100
,  // measure 39
0020
0000
0030
0100
0001
0010
0100
1000
,  // measure 40
0002
0010
0013
1000
,  // measure 41
1200
0000
0000
0000
0310
0000
0001
0010
,  // measure 42
0200
0000
0300
0010
0200
0000
0300
0010
,  // measure 43
0200
1300
0010
0100
,  // measure 44
0001
0010
0100
1000
0010
0100
0001
0000
,  // measure 45
2002
0000
3003
0000
,  // measure 46
0110
0000
0010
1000
0100
0000
1000
0010
,  // measure 47
0100
0000
0010
1000
0100
0010
0001
0100
,  // measure 48
0010
0001
0010
1000
0100
0001
0100
0000
,  // measure 49
1000
0010
0001
0010
1000
0100
0010
0001
,  // measure 50
0100
0001
0010
0100
2000
0000
3001
0000
,  // measure 51
0001
0100
0010
1000
0002
0000
1003
0000
,  // measure 52
2001
3010
1002
0103
,  // measure 53
0010
0100
0010
0100
0001
1000
0001
1000
,  // measure 54
0020
0000
0000
0000
1030
1000
0000
1001
,  // measure 55
0000
0001
0100
0010
0100
0001
0000
0011
,  // measure 56
0000
1000
0100
0010
0100
1000
0000
1010
,  // measure 57
0000
0000
0010
0000
0100
0000
0001
0000
0010
0000
0100
1000
0001
0000
0100
0000
,  // measure 58
0000
0010
0100
0000
0001
1000
0100
1000
,  // measure 59
0000
0010
0100
0010
1000
0001
0000
0100
,  // measure 60
0010
0100
0001
0010
0100
1000
1100
0000
,  // measure 61
0001
1001
0000
0010
0100
0010
1000
0001
,  // measure 62
0000
0000
0001
0000
0100
0000
0010
0000
1000
0000
0100
0010
0100
0000
1000
0000
,  // measure 63
0000
0010
0100
0001
0100
0010
0000
1100
,  // measure 64
0000
0001
0010
0100
0010
0001
1000
0010
,  // measure 65
0000
0000
0100
0000
0110
0000
0000
0000
0001
0000
1000
0100
1000
0000
0010
0000
,  // measure 66
0000
0100
0110
0000
0001
0010
0100
0010
,  // measure 67
0000
0010
0100
1000
0010
0100
0000
0100
,  // measure 68
0001
1000
0100
0010
0001
1000
1001
0000
,  // measure 69
0110
0000
0000
1001
0000
1000
0001
0100
,  // measure 70
0001
0010
1000
0001
0100
1000
0010
0100
,  // measure 71
0002
0010
2003
0100
,  // measure 72
3020
0000
0130
0001
2002
0000
3000
0000
,  // measure 73
0203
1000
0320
0001
,  // measure 74
2030
0000
3100
0020
0002
0000
0033
0000
,  // measure 75
0101
0000
0010
0100
1000
0010
0100
1000
,  // measure 76
0100
0010
0001
1000
0100
0010
1000
0000
,  // measure 77
0001
0010
0100
0001
0100
0010
0001
1000
,  // measure 78
0010
0100
1000
0100
0010
1000
0001
0000
,  // measure 79
1000
0010
0001
0010
2000
0000
0001
0000
,  // measure 80
3001
0010
1000
0010
0002
0000
1003
0000
,  // measure 81
0110
0000
0000
0001
0100
0000
0000
1000
,  // measure 82
0100
0010
2002
3003
,  // measure 83
0010
0000
0010
0100
0000
0100
0001
0000
0001
0010
0000
0010
,  // measure 84
0100
0000
1000
0100
0000
0010
0100
0000
1000
0100
0000
0010
,  // measure 85
0001
0000
0100
0010
0000
0100
0001
0000
0010
0100
0000
1000
,  // measure 86
0010
0000
0100
0010
0000
1000
0100
0010
0001
0100
0000
0000
,  // measure 87
0010
0100
0001
2000
0000
0000
0010
0000
0000
3010
0000
0000
,  // measure 88
0000
0000
0000
0000
0000
0000
0100
0000
0000
0000
0000
0000
0000
0000
0000
0110
0000
0000
0000
0000
0000
0000
0000
0000
0001
0000
0000
0000
0010
0000
0000
0000
0100
0000
0000
0000
1000
0000
0000
0000
0100
0000
0000
0000
0010
0000
0000
0000
,  // measure 89
0002
0010
1003
0001
,  // measure 90
1000
0000
1000
0010
0000
0010
0100
0010
0100
0001
0000
0000
,  // measure 91
1000
0010
0001
0010
0100
0000
0110
0000
,  // measure 92
0001
0010
1000
0010
0100
0000
0110
0000
,  // measure 93
0001
0100
0010
1000
0000
0100
0010
2002
,  // measure 94
0000
3003
0000
0000
;
