#TITLE:Elisha;
#SUBTITLE:;
#ARTIST:DJ YOSHITAKA;
#TITLETRANSLIT:;
#SUBTITLETRANSLIT:;
#ARTISTTRANSLIT:;
#GENRE:TRANCE CORE;
#CREDIT:;
#BANNER:Elisha_banner.png;
#BACKGROUND:Elisha.png;
#LYRICSPATH:;
#CDTITLE:;
#MUSIC:Elisha.ogg;
#OFFSET:0.760000;
#SAMPLESTART:78.360001;
#SAMPLELENGTH:15.000000;
#SELECTABLE:YES;
#DISPLAYBPM:185.000000;
#BPMS:0.000000=185.000000
,228.000000=23.125000
,228.500000=46.250000
,229.000000=92.500000
,230.000000=185.000000
,232.000000=277.500000
,233.500000=370.000000
,236.500000=740.000000
,242.000000=86.000000
,243.000000=185.000000
;
#STOPS:
;
#BGCHANGES:;
#KEYSOUNDS:;
#ATTACKS:;

//---------------dance-single - ----------------
#NOTES:
     dance-single:
     :
     Easy:
     7:
     0.242907,0.365063,0.102336,0.369983,0.000000,216.000000,203.000000,13.000000,47.000000,0.000000,0.000000,0.242907,0.365063,0.102336,0.369983,0.000000,216.000000,203.000000,13.000000,47.000000,0.000000,0.000000:
0000
0000
0000
0000
,
0000
0000
0000
0000
,
0000
0000
0000
0000
,
0000
0000
0000
0000
,
0000
0000
0000
0000
,
0001
1000
0001
0001
,
1000
0001
0200
0000
,
0310
0100
0010
0010
,
2020
0000
3030
0000
,
0100
0001
0100
0100
,
0001
0100
0002
0000
,
0013
0100
0010
0010
,
0100
0010
0220
0330
,
1000
0100
0100
1000
,
0010
1000
1000
0010
,
0100
0000
0000
0001
0000
1000
0000
0001
,
0020
0000
0000
0030
,
0002
0000
0000
0000
,
0203
0000
0000
0000
,
0320
0000
0000
0000
,
2030
0000
0000
3000
,
0200
0000
0000
0000
,
2300
0000
0000
0000
,
3002
0000
0000
0000
,
0023
0000
0000
0030
,
0022
0000
0030
0000
,
2003
0000
0000
0000
,
3020
0000
0000
0000
,
0230
0000
0000
0300
,
0220
0000
0300
0000
,
2030
0000
0000
0000
,
3002
0000
0000
0000
,
0023
0000
0030
0000
,
0001
0100
0001
0010
,
0001
0100
0001
0000
,
1000
0010
0100
0010
,
1000
0100
0010
0000
,
0001
1000
0100
1000
,
0010
0100
0001
0000
,
1000
0100
0010
0001
,
0010
0100
1000
0000
,
0010
0000
0010
0100
,
0010
1000
1000
0000
,
0001
0000
0010
0001
,
0100
0001
0010
0000
,
0100
0000
1000
0010
,
0100
0010
1000
0000
,
0001
0000
1000
0001
,
1002
0000
0103
0000
,
0220
0000
0000
0000
,
0000
0000
0330
0000
,
2000
0000
3000
0000
,
0002
0000
0003
0000
,
1000
0000
0001
0000
,
1000
0000
0001
0000
,
0100
0010
0100
0010
,
1000
0001
1000
0001
,
0220
0000
0000
0000
,
0000
0000
0000
0000
,
0000
0000
0000
0000
,
0000
0000
0330
1000
,
0000
0001
0010
0001
,
0100
0100
0000
0010
,
0000
1000
0100
1000
,
0001
0001
0000
0010
,
0000
0001
0100
0001
,
1000
1000
0000
0010
,
0000
0100
0010
1000
,
0001
2002
3003
0010
,
0100
1000
0100
0010
,
0100
1000
0000
0100
,
0001
0010
0001
0100
,
0001
0010
0000
0100
,
1000
0001
1000
0100
,
1000
0001
0000
0010
,
0001
1000
0001
0202
,
0000
0303
0000
0010
,
0000
0010
1000
0100
,
1000
0010
0000
0100
,
0001
0010
0001
1000
,
0001
0010
0000
0101
,
0000
0010
0000
1100
,
0000
0010
0000
1000
,
0000
0010
0000
0100
0000
0010
0200
0000
,
0000
0301
0000
2002
,
0000
0003
0000
3200
,
0000
0000
0000
0320
,
0000
0000
0000
0032
,
0000
0000
0003
2002
,
0000
3000
0000
0203
,
0000
0000
0000
0320
,
0000
0000
0000
2030
,
0000
0000
0000
3000
;

//---------------dance-single - ----------------
#NOTES:
     dance-single:
     :
     Medium:
     11:
     0.452076,0.584100,0.259775,0.362111,0.047232,402.000000,369.000000,33.000000,46.000000,0.000000,0.000000,0.452076,0.584100,0.259775,0.362111,0.047232,402.000000,369.000000,33.000000,46.000000,0.000000,0.000000:
0000
0000
0000
0000
,
1000
0001
0200
0000
0320
0000
1030
0100
,
1000
0001
0010
0000
0110
0000
1100
0000
,
0010
0100
0002
0000
2003
0000
3100
0010
,
0001
1000
0001
0010
0100
0000
0110
0000
,
0001
0010
0002
0000
2003
0000
3010
0100
,
0010
1000
0100
0000
1000
0100
0020
0000
,
0031
0100
0020
0000
0230
0000
0301
1000
,
0001
0000
1010
0000
0100
0010
1000
0001
,
1000
0100
2000
0000
3020
0000
1030
0100
,
1000
0010
1000
0000
1100
0000
1001
0000
,
0001
0010
0002
0000
0203
0000
0301
0010
,
0001
0000
0101
0000
0010
1000
0001
0000
,
1000
0010
0200
0000
0302
0000
0013
0100
,
1000
0000
1100
0000
0001
0001
1000
1000
,
0010
0000
0100
0010
0000
1010
0000
0101
,
0002
0000
0000
0000
1003
0100
0010
0000
,
0200
0000
0000
0000
,
2300
0000
0000
0000
,
3020
0000
0000
0000
,
0230
0000
0000
0300
,
0202
0000
0300
0000
,
0020
0000
0003
0000
,
0200
0000
0030
0000
,
2000
0000
0000
0000
0000
3300
0000
0000
,
2020
0000
3000
0000
,
0200
0000
0030
0000
,
0002
0000
0300
0000
,
0020
0000
0000
0000
0000
0033
0000
0000
,
2002
0000
0003
0000
,
0020
0000
3000
0000
,
0002
0000
0030
0000
,
0023
0000
1030
0000
,
0000
0001
0000
0010
0001
0000
1001
0000
,
0100
0000
0010
1000
0000
1100
0000
0010
,
1000
0100
0000
1000
0010
0000
0101
0000
,
0010
0000
0100
0001
0000
0011
0000
1000
,
0100
1000
0000
0100
0010
0000
0011
0000
,
1000
0000
0001
0100
0000
0110
0000
0010
,
1000
0100
0000
0010
0001
0000
1001
0000
,
0010
0000
0001
0100
0000
0010
0000
1000
,
0100
1000
0000
0001
0010
0000
0101
0000
,
0010
0000
1000
0001
0000
0010
0000
0100
,
1000
0010
0000
0100
0010
0000
1010
0000
,
0001
0000
1000
0001
0000
0100
0000
0010
,
1000
0100
0000
0010
0001
0000
1001
0000
,
0100
0000
0010
0100
0000
0001
0000
0010
,
0001
1000
0000
0001
0010
0000
0101
0000
,
0010
0000
1000
0100
1000
0010
0100
0000
,
0002
0000
0000
0000
,
0000
0000
0000
0000
,
0000
1000
1000
0000
1000
0000
0000
0000
,
0000
0100
0100
0000
0103
0000
0000
0000
,
0010
0000
0100
0010
1000
0000
0001
0010
,
0100
0000
0010
0100
1000
0000
0010
1000
,
0100
1000
0010
0100
0001
0010
0001
0000
,
0010
0001
0100
0010
1000
0100
0010
0000
,
2200
0000
0000
0000
,
0000
0000
0000
0300
0000
0000
0000
0000
,
0000
0000
0000
0000
,
0000
0000
0000
0000
3001
0000
0010
0100
,
0000
0001
0010
0000
0011
0000
1000
0000
,
0010
1000
0000
0100
0000
1000
0010
0100
,
0000
0001
0100
0000
0110
0000
1000
0000
,
0001
1000
0000
0100
0000
1000
0010
0100
,
0000
0001
0010
0000
1001
0000
1000
0000
,
0010
0100
0000
0010
0000
1000
0100
1000
,
0010
1000
0100
0000
0101
0000
0010
0100
,
0010
1000
0000
1000
0000
0001
0010
0001
,
0100
0001
0010
0000
0110
0000
1000
0000
,
0010
0100
0000
0010
1000
0100
1000
0010
,
1000
0100
1000
0000
0110
0000
0001
0010
,
0100
1000
0000
0010
0000
0100
0010
1000
,
0100
0010
0001
0000
1001
0000
0100
0010
,
0100
1000
0000
0100
0000
0001
0010
0001
,
1000
0001
0010
0000
0101
0000
0010
0000
,
0100
1000
0001
0010
0100
0000
0010
0001
,
0000
0001
0000
0000
1000
0000
0000
0100
0000
0000
1000
0000
0010
0000
0000
0100
,
0000
0000
0010
0000
1000
0000
0000
0001
0000
0000
0010
0000
0001
0000
0000
0100
,
0000
0000
0001
0000
0010
0000
0000
0100
0000
0000
1000
0000
0010
0000
0000
1000
,
0000
0000
0010
0000
0000
0001
0000
0000
0010
0000
0100
0000
0010
0000
0000
1000
,
0000
0000
0100
0000
0000
0010
0000
0000
0001
0000
0100
0000
0001
0000
0000
1000
,
0000
0000
0100
0000
0000
1000
0000
0000
0010
0000
0100
0000
0010
0000
1000
0000
,
0010
0100
0000
0001
0000
0010
0001
0100
,
0010
1000
0100
0010
0001
0000
2000
0000
,
0000
0000
0000
0200
,
0000
3000
0000
0002
,
0000
0300
0000
0200
,
0000
0000
0303
2000
,
0000
0000
0000
0020
,
0000
3000
0000
0002
,
0000
0030
0000
2000
,
0000
0000
0000
3003
;

//---------------dance-single - ----------------
#NOTES:
     dance-single:
     :
     Hard:
     15:
     0.664619,0.912657,0.267647,0.369983,0.409342,591.000000,557.000000,34.000000,47.000000,0.000000,0.000000,0.664619,0.912657,0.267647,0.369983,0.409342,591.000000,557.000000,34.000000,47.000000,0.000000,0.000000:
// measure 0
0000
0000
0000
0000
,  // measure 1
1000
0001
0010
0010
0001
0100
0100
0010
,  // measure 2
1000
1000
0100
1000
0001
0010
0101
0000
,  // measure 3
0010
1000
1000
0010
0100
0100
0001
0010
,  // measure 4
0001
0000
1000
0000
0001
0010
0100
1000
0010
0000
0100
0000
1001
0000
0000
0000
,  // measure 5
0100
0010
0010
1000
0001
0001
0010
0001
,  // measure 6
0100
0000
0100
0000
0010
0000
0100
0000
0001
0100
0010
1000
0100
0000
0010
0000
,  // measure 7
0001
0001
1000
0001
0010
0010
0100
0010
,  // measure 8
0001
0000
1000
0000
1001
0000
0000
0000
0010
0100
0001
1000
0010
0100
0001
1000
,  // measure 9
0010
1000
0010
0010
0001
0010
0010
1000
,  // measure 10
0010
0001
0010
0010
0100
0010
1010
0000
,  // measure 11
1000
0100
0100
0001
0100
0100
1000
0100
,  // measure 12
1100
0000
0000
0000
0101
0000
0000
0000
0010
0100
0001
0010
0001
0000
1000
0000
,  // measure 13
0010
1000
1000
0001
1000
1000
0010
1000
,  // measure 14
0001
0001
0010
0001
0100
0100
0010
0010
,  // measure 15
1010
0000
0001
0011
0000
0110
0000
1100
,  // measure 16
1000
0000
0001
0000
0101
0000
0000
0000
0010
1000
0001
0100
0010
0000
0000
0000
,  // measure 17
2200
0000
3000
0000
,  // measure 18
0002
0000
0300
0000
,  // measure 19
0020
0000
0003
0000
,  // measure 20
2000
0000
0000
0000
0000
3030
0000
0000
,  // measure 21
0202
0000
0003
0000
,  // measure 22
2000
0000
0300
0000
,  // measure 23
0020
0000
3000
0000
,  // measure 24
0002
0000
0033
0000
,  // measure 25
2002
0000
3000
0000
,  // measure 26
0020
0000
0003
0000
,  // measure 27
2000
0000
0030
0000
,  // measure 28
0020
0000
3030
0000
,  // measure 29
0022
0000
0030
0000
,  // measure 30
0200
0000
0003
0000
,  // measure 31
2000
0000
3000
0000
,  // measure 32
0301
0000
1001
0000
,  // measure 33
0010
0000
0100
0000
0100
0000
0010
0000
0100
0000
0001
0010
0000
0001
0010
0000
,  // measure 34
0001
0000
1000
0000
1000
0000
0100
0000
1000
0000
0010
0100
0000
0010
0100
0000
,  // measure 35
0001
0000
0010
0000
0010
0000
0001
0000
1000
0000
0100
1000
0000
0100
1000
0000
,  // measure 36
0010
0000
0100
0000
0100
0000
0010
0000
1000
0000
0001
0010
0000
0001
0010
0000
,  // measure 37
0100
0000
1000
0000
1000
0000
0010
0000
0100
0000
0001
1000
0000
0001
1000
0000
,  // measure 38
0100
0000
0010
0000
0010
0000
0001
0000
1000
0000
0001
0100
0000
0001
0100
0000
,  // measure 39
0010
0000
1000
0000
1000
0000
0100
0000
1000
0000
0100
1000
0000
0001
1000
0000
,  // measure 40
0010
0000
0100
0000
0100
0000
0001
0000
0010
0000
0001
0100
0000
0001
1000
0000
,  // measure 41
0010
0000
0100
0000
0001
0000
0010
0000
0001
0000
1000
0100
0000
1000
0010
0000
,  // measure 42
0100
0000
0010
0000
1000
0000
0001
0000
1000
0000
0100
0010
0000
0001
0010
0000
,  // measure 43
0001
0000
1000
0000
0100
0000
1000
0000
0010
0000
1000
0001
0000
0010
0100
0000
,  // measure 44
1000
0000
0001
0000
0100
0000
0010
0000
1000
0000
0100
1000
0000
0010
0100
0000
,  // measure 45
0001
0000
0010
0000
0020
0000
0031
0000
1000
0000
0010
0100
0000
0010
0200
0000
,  // measure 46
0310
0000
1000
0000
2000
0000
3100
0000
0010
0000
0001
0100
0000
0001
0200
0000
,  // measure 47
0310
0000
1000
0000
2000
0000
3001
0000
0010
0000
0001
0100
0000
0010
0100
0000
,  // measure 48
0001
0000
0010
0000
0100
0000
1000
0000
0001
1000
0100
0010
0001
0000
0000
0000
,  // measure 49
1002
0000
0000
0000
,  // measure 50
0000
0000
0000
0000
,  // measure 51
0000
0000
0010
0000
0010
0000
0000
0000
0100
0000
0000
0100
0000
0000
0100
0000
,  // measure 52
0000
0000
1000
0000
1000
0000
0000
0000
0013
0000
0000
0010
0000
0000
0010
0000
,  // measure 53
0001
0000
0100
0010
0000
0100
0001
0000
1000
0000
0100
0010
0000
0100
1000
0000
,  // measure 54
0010
0000
0100
0001
0000
0100
0010
0000
1000
0000
0010
0100
0000
0010
1000
0000
,  // measure 55
0001
0100
0001
0100
0001
0000
0010
0000
1000
0100
1000
0000
0001
0000
0010
0000
,  // measure 56
0001
0000
1000
0100
1000
0100
1000
0000
0010
0000
0100
0000
0110
0000
0000
0000
,  // measure 57
2002
0000
0000
0000
,  // measure 58
0000
0000
0000
0000
,  // measure 59
0000
0000
0000
3003
,  // measure 60
0000
0000
0000
0000
0110
1001
0100
0010
,  // measure 61
1000
0001
0010
0001
0101
0000
1000
0010
,  // measure 62
0100
0110
0000
1010
0000
0100
0001
0010
,  // measure 63
0100
1000
1100
0000
0101
0000
0010
1000
,  // measure 64
0001
0011
0000
1001
0000
0100
0010
1000
,  // measure 65
0001
0000
0010
0000
0100
0000
1000
0001
1000
0000
0010
0000
0100
0000
0001
0000
,  // measure 66
1000
1010
0000
0101
0000
0001
0010
0100
,  // measure 67
1000
0000
0010
0000
1000
0000
0001
0010
0100
0000
0010
0000
0001
0000
1000
0000
,  // measure 68
0100
0000
1000
0000
0010
0000
0100
0010
1000
0000
0001
0000
1000
0000
0010
0000
,  // measure 69
0010
0000
0100
0000
0001
0000
0010
0001
0000
0100
0001
0000
1000
0000
0010
0000
,  // measure 70
0010
0000
0100
0000
0001
0000
1000
0100
0000
1000
0001
0000
0010
0000
0100
0000
,  // measure 71
1000
0000
0001
0000
0100
0000
0010
1000
0000
0010
0100
0000
0001
0000
0010
0000
,  // measure 72
0001
0000
0100
0000
0010
0000
1000
0001
0000
0010
0001
0000
0100
0000
0010
0000
,  // measure 73
1000
0000
0100
0000
1000
0000
0001
0010
0100
0000
1000
0000
0010
0000
0100
0000
,  // measure 74
0001
0000
1000
0000
0010
0000
1000
0100
0010
0000
0001
0000
0100
0000
0010
0000
,  // measure 75
1000
0000
0001
0000
0010
0000
0010
0000
0001
0010
0100
1000
0020
0000
0100
0000
,  // measure 76
0130
0000
0000
0000
0001
1000
0100
0010
0002
0000
0000
0000
1003
0000
0100
0000
,  // measure 77
0000
1000
0010
0000
0100
0000
0010
1000
0000
0001
0010
0000
0001
0000
1000
0100
,  // measure 78
0000
1000
0010
0000
1000
0000
0010
0100
0000
0001
0010
0000
0001
0000
0010
0100
,  // measure 79
0000
1000
0010
0000
0100
0000
0001
0010
0000
0100
1000
0000
0010
0000
1000
0010
,  // measure 80
0000
0001
0010
0000
0100
1000
0000
0100
0001
0000
0100
0000
0102
0000
0000
0023
,  // measure 81
0000
0000
0230
0000
0000
2300
0000
0000
3010
0100
0010
0000
2010
0000
0000
3200
,  // measure 82
0000
0000
0320
0000
0000
0032
0000
0000
1003
0010
1000
0000
0001
0100
0001
0100
,  // measure 83
0001
0000
1000
0010
1000
0010
1000
0000
0010
0100
0010
0000
1000
0000
0100
0000
,  // measure 84
0001
0000
0100
0000
1000
0001
0010
0100
1000
0000
0000
0000
0220
0000
0000
0000
,  // measure 85
0000
0300
0000
2000
,  // measure 86
0000
0030
0000
0200
,  // measure 87
0000
3000
0000
0002
,  // measure 88
0000
0000
0303
2020
,  // measure 89
0000
3000
0000
0002
,  // measure 90
0000
0030
0000
0200
,  // measure 91
0000
0003
0000
2000
,  // measure 92
0000
0000
0000
3300
;
