#TITLE:Element of SPADA;
#SUBTITLE:;
#ARTIST:猫叉Master feat.霜月はるか;
#TITLETRANSLIT:;
#SUBTITLETRANSLIT:;
#ARTISTTRANSLIT:Nekomata Master feat.Haruka Shimotsuki;
#GENRE:HEALING POP;
#CREDIT:;
#BANNER:Element_of_SPADA_banner.png;
#BACKGROUND:Element_of_SPADA.png;
#LYRICSPATH:;
#CDTITLE:;
#MUSIC:Element of SPADA.ogg;
#OFFSET:-0.600000;
#SAMPLESTART:80.339996;
#SAMPLELENGTH:16.900000;
#SELECTABLE:YES;
#BPMS:0.000000=170.000000
;
#STOPS:
;
#BGCHANGES:;
#KEYSOUNDS:;
#ATTACKS:;

//---------------dance-single - ----------------
#NOTES:
     dance-single:
     :
     Easy:
     5:
     0.204445,0.306470,0.046667,0.225556,0.000000,184.000000,178.000000,6.000000,29.000000,0.000000,0.000000,0.204445,0.306470,0.046667,0.225556,0.000000,184.000000,178.000000,6.000000,29.000000,0.000000,0.000000:
// measure 0
0000
0000
0000
0000
,  // measure 1
0000
0000
0000
0000
,  // measure 2
0000
0000
0000
0000
,  // measure 3
0010
0000
0000
1000
,  // measure 4
0000
0000
0001
0000
,  // measure 5
0000
0100
0000
0000
,  // measure 6
0001
0000
0000
1000
,  // measure 7
0000
0000
0010
0000
,  // measure 8
0000
0100
0000
0000
,  // measure 9
0020
0000
0000
1030
,  // measure 10
0000
0000
1000
0000
,  // measure 11
0000
0200
0000
0000
,  // measure 12
0310
0000
0001
1000
,  // measure 13
0000
0010
0100
0000
,  // measure 14
0001
1000
0000
0100
,  // measure 15
2000
0000
0000
3001
,  // measure 16
0000
0100
0010
0000
,  // measure 17
0010
0100
0000
0001
,  // measure 18
1000
0000
0010
0100
,  // measure 19
0000
0001
1000
0000
,  // measure 20
0000
0000
2002
0000
0000
3003
0000
0000
,  // measure 21
1000
0000
0100
1000
,  // measure 22
0000
0001
0100
0000
,  // measure 23
0010
0010
0000
0000
,  // measure 24
2000
0000
0000
3002
,  // measure 25
0000
0000
0103
0000
,  // measure 26
0010
0100
0000
0000
,  // measure 27
0001
0000
1000
0010
,  // measure 28
0000
0100
0001
0000
,  // measure 29
0001
0010
0000
0100
,  // measure 30
1000
0000
0010
0100
,  // measure 31
0000
0100
0010
0000
,  // measure 32
1000
0001
0000
0000
,  // measure 33
0200
0000
0310
0010
,  // measure 34
0000
1000
0100
0000
,  // measure 35
1000
0001
0000
0010
,  // measure 36
0001
0000
0100
0010
,  // measure 37
0000
1000
0010
0000
,  // measure 38
0100
0002
0000
0003
,  // measure 39
0010
0000
0100
0010
,  // measure 40
0000
0001
1000
0000
,  // measure 41
1000
0010
0000
0000
,  // measure 42
0100
0000
0000
0010
,  // measure 43
0000
1000
0001
0000
,  // measure 44
0100
0020
0000
0030
,  // measure 45
2000
0000
0000
0000
,  // measure 46
0000
0000
3000
0000
,  // measure 47
0001
0010
0001
1000
,  // measure 48
0020
0000
0000
0000
,  // measure 49
0000
0000
0030
0000
,  // measure 50
0100
0001
1000
0010
,  // measure 51
0100
0200
0000
0000
,  // measure 52
0300
0001
1000
0000
,  // measure 53
1000
0001
0000
0100
,  // measure 54
0010
0000
1000
0100
,  // measure 55
0010
0001
1000
0000
,  // measure 56
0001
0200
0000
0000
,  // measure 57
0310
1000
0010
0100
,  // measure 58
0000
0010
1000
0001
,  // measure 59
0100
0010
0000
0100
,  // measure 60
0001
0020
0000
0000
,  // measure 61
0031
0001
1000
0200
,  // measure 62
0000
0300
0000
1000
,  // measure 63
0010
0000
0010
0100
,  // measure 64
0000
0100
0001
0000
,  // measure 65
0001
1000
0100
0010
,  // measure 66
0002
0000
0000
2003
,  // measure 67
0000
0000
3010
0100
,  // measure 68
0010
1000
0000
0000
,  // measure 69
0010
0001
1000
0010
,  // measure 70
0000
0100
0010
1000
,  // measure 71
0001
0100
0010
0000
,  // measure 72
2020
0000
0000
3030
,  // measure 73
0000
0000
0202
0000
,  // measure 74
0000
0303
0000
0000
,  // measure 75
0010
1000
0100
1000
,  // measure 76
0000
0001
0010
0100
,  // measure 77
0010
0001
0000
0100
,  // measure 78
0010
0220
0000
0000
,  // measure 79
0330
0000
2002
0000
,  // measure 80
0000
3003
0000
0100
,  // measure 81
0020
0000
0000
2030
,  // measure 82
0000
0000
3001
0000
,  // measure 83
0000
0100
0000
0000
,  // measure 84
1001
0000
0000
0000
,  // measure 85
0000
0000
0010
0000
,  // measure 86
0000
0000
0200
0000
,  // measure 87
0000
0000
0000
0000
0000
0000
0000
0000
0000
0300
0000
0000
0000
0000
0000
0000
;

//---------------dance-single - ----------------
#NOTES:
     dance-single:
     :
     Medium:
     8:
     0.300001,0.340603,0.116667,0.287779,0.011667,270.000000,255.000000,15.000000,37.000000,0.000000,0.000000,0.300001,0.340603,0.116667,0.287779,0.011667,270.000000,255.000000,15.000000,37.000000,0.000000,0.000000:
0000
0000
0000
0000
,
0000
0000
0000
0000
,
0000
0000
0000
0000
,
1002
0000
0000
0203
,
0000
0000
0320
0000
,
0000
2030
0000
3000
,
0201
0000
0000
0320
,
0000
0000
2030
0000
,
0000
3002
0000
0003
,
0010
0001
0010
0200
,
0000
0000
0300
1000
,
0010
0100
0000
0001
,
0010
0100
1000
0010
,
0100
0010
1000
0000
,
0001
0010
0000
1001
,
2000
0000
0000
3020
,
0000
0000
0030
0100
,
0001
1000
0000
0010
,
0100
0000
0001
1000
,
0000
0010
0220
0330
,
0000
2002
0000
3003
,
1000
0100
0010
0001
,
0000
0001
0100
0000
,
0010
1000
0000
0010
,
0100
0000
0001
0010
,
0000
0001
1000
0000
,
0100
1000
0010
0100
,
0001
0010
0001
1000
,
0000
0010
1000
0000
,
0001
0100
0000
0010
,
0100
0000
0001
1000
,
0100
1000
0010
0000
,
0100
0001
1000
0010
,
0100
0001
0100
0010
,
0100
0001
2000
0000
,
3010
0020
0000
0130
,
0110
0000
0001
1000
,
0010
1000
0001
0100
,
0010
1000
0100
1000
,
0010
0100
0001
1000
,
0000
0010
0100
0000
,
0001
0010
0000
0100
,
1000
0001
0100
0010
,
0000
1000
2002
3003
,
0000
0220
0000
0330
,
0010
1000
0010
0100
,
0010
1000
0001
0100
,
0010
1000
0100
0010
,
0100
1000
0001
0010
,
0001
0100
0010
0100
,
0001
1000
1000
0010
,
0100
0001
1000
0010
,
1000
0001
0020
0000
,
0031
1000
0100
1000
,
0020
1000
1030
0001
,
0100
0010
0110
0000
,
0001
1000
0100
0010
,
0001
0100
0010
0100
,
0010
1000
0100
1000
,
0010
0100
0002
0000
,
0013
0210
0000
0000
,
1300
0001
0010
0021
,
0000
0030
0100
1000
,
0020
0000
0130
0001
,
1000
0010
0200
0001
,
0301
1000
0010
0001
,
0100
0010
1000
0100
,
1000
0001
0010
0100
,
1000
0010
0100
0001
,
0010
0001
1000
0100
,
1000
0010
0100
0010
,
1000
0001
1001
0000
,
0100
0220
0000
0330
,
0001
0010
0100
2002
,
0000
3003
1000
0010
,
0200
0001
0301
1000
,
0010
0100
0001
0010
,
0001
1000
0001
0100
,
0010
0100
0020
0000
0000
0000
0000
0000
,
0000
0030
1000
0001
,
0100
0010
0100
0001
,
2001
0000
0000
3020
,
0000
0000
0130
0001
,
1000
0010
0100
0001
,
0010
0200
0000
0000
,
0300
0000
0000
1000
,
0000
0000
0000
0000
0001
0000
0000
0000
0000
0000
0000
0000
0000
0000
0000
0000
0000
0000
0000
0000
0000
0000
0000
0000
1000
0000
0000
0000
0000
0000
0000
0000
0000
0000
0000
0000
0000
0000
0000
0000
0000
0000
0000
0000
0000
0010
0000
0000
,
0000
0000
0000
0000
0000
0000
0000
0100
0000
0000
0000
0000
;

//---------------dance-single - ----------------
#NOTES:
     dance-single:
     :
     Hard:
     12:
     0.586669,0.579025,0.513335,0.334446,0.011667,528.000000,462.000000,66.000000,43.000000,0.000000,0.000000,0.586669,0.579025,0.513335,0.334446,0.011667,528.000000,462.000000,66.000000,43.000000,0.000000,0.000000:
0000
0000
0000
0000
,
0000
0000
0000
0000
,
0000
0000
0000
0000
,
1001
0000
0010
0001
0010
0000
1001
0000
,
0100
1000
0100
0000
1010
0000
0100
0001
,
0100
0000
0011
0000
1000
0010
1000
0000
,
0110
0000
0001
1000
0010
0000
1100
0000
,
1000
0001
0010
0000
0001
0100
0010
1000
,
0100
0000
1000
0001
0010
1000
0010
0001
,
0200
0010
0301
1020
,
0100
1030
0001
0012
,
1000
0103
0010
1010
,
2001
0100
3010
0210
,
0001
0310
1002
0010
,
1003
2010
0001
3100
,
0120
1000
0130
0201
,
0010
0000
0301
0000
1000
0100
0010
0100
,
1000
0000
0001
0100
0010
0100
0001
0000
,
1010
0000
0100
0010
0100
0000
0101
0000
,
0001
0010
0001
0000
1100
0000
1000
0010
,
0100
0000
0202
0000
0000
0303
0000
0000
,
0020
1030
0100
2100
,
3002
0000
0103
0000
0120
0000
1030
0100
,
1000
0000
1001
0000
0001
0010
0001
0000
,
0110
0000
0010
1000
0010
0000
0101
0000
,
0001
1000
0100
0000
1010
0000
0100
0001
,
0100
0000
0001
1000
0100
0001
0100
1000
,
0020
0000
0130
0001
0100
0000
0120
0000
,
1030
0100
1000
0000
1002
0000
0013
0100
,
1000
0000
1020
0000
0130
0010
0001
0000
,
0210
0000
0301
0000
1000
0010
0100
0000
,
0001
1000
0100
0010
0100
0000
1000
0001
,
1000
0010
0100
0000
0110
0000
1001
0000
,
0110
0000
0001
0010
0100
1000
0100
0000
,
1000
0010
0100
0001
0010
0000
0001
1000
,
0100
0010
0100
0000
1000
0001
0100
0010
,
0100
0000
0101
0000
0010
1000
0001
0000
,
0100
0010
1000
0000
0002
0000
0010
0000
,
1003
2010
0001
3010
,
0110
0000
1000
0001
0010
0100
1000
0000
,
0001
1000
0100
0010
0001
0000
0100
0010
,
1000
0001
0010
0000
0001
1000
0100
0000
,
1020
0230
0301
0012
,
2003
0000
3100
0000
1010
0000
0000
0101
,
0000
2002
0000
3003
,
0010
1000
0010
0100
0010
0000
0100
0001
,
0100
0010
0100
0000
0001
0010
0100
0010
,
0001
0000
1000
0010
0100
0010
1000
0000
,
0001
0100
0010
0100
0001
0000
1000
0100
,
0010
0100
1000
0000
0010
1000
0001
1000
,
0010
0000
0100
0001
1000
0001
0100
0010
,
1000
0100
1000
0010
0100
0000
0001
0100
,
0010
0100
0001
0000
0012
0000
1000
0000
,
0103
2010
0001
3100
,
0101
1100
1010
0011
,
1001
0000
0110
0000
1000
0100
0010
0100
,
1000
0001
0100
0010
1000
0100
0010
0001
,
1000
0000
1010
0000
0011
0000
1000
0010
,
0100
0010
0001
0010
1000
0000
0101
0000
,
0011
0000
0001
0010
1000
0010
0001
0000
,
0100
0010
0200
0000
0301
1000
0100
1000
,
0010
0100
0001
1000
0100
0001
0100
1000
,
0001
0010
1000
0010
0001
0100
0010
0000
,
1010
0000
1000
0100
0001
0100
1000
0100
,
0010
0001
0100
0010
1000
0100
0010
0000
,
0001
0100
0010
0000
1010
0000
0101
0000
,
2001
0010
3001
0012
,
1000
0000
0103
0000
0010
1000
0100
1000
,
0001
0010
0100
0010
0001
0100
1000
0100
,
0010
0000
1010
0000
0011
0000
0100
0010
,
0100
0000
0110
0000
1000
0010
1000
0000
,
1001
0000
0001
0100
0002
0000
1003
0010
,
0100
0010
2000
0000
0100
0000
3002
0000
,
0100
0000
1003
0000
0010
0100
0010
1000
,
0001
0100
1000
0100
0010
1000
0100
1000
,
0002
0010
1003
0200
,
0010
1300
0012
1000
,
0103
2010
0001
3100
,
0010
0100
0010
0000
0001
1000
0010
0100
,
0010
1000
0001
0100
0010
1000
0100
0010
,
0001
0100
0010
1000
0001
1000
0100
0010
,
0002
0100
0103
2010
,
0100
0000
3100
1000
0010
0000
0100
0000
,
0110
0000
1001
0000
0100
0000
0001
0010
,
0100
1000
0020
0000
0000
0000
0130
0000
,
0001
1000
0100
0001
,
0000
0000
0000
0000
1000
0000
0000
0000
0000
0000
0000
0000
0000
0000
0000
0000
0000
0000
0000
0000
0000
0000
0000
0000
0010
0000
0000
0000
0000
0000
0000
0000
0000
0000
0000
0000
0000
0000
0000
0000
0000
0000
0000
0000
0000
0100
0000
0000
,
0000
0000
0000
0000
0000
0000
0000
1000
0000
0000
0000
0000
;
