#TITLE:Einherjar;
#SUBTITLE:;
#ARTIST:植松伸夫とわんにゃん☆パニックス;
#TITLETRANSLIT:;
#SUBTITLETRANSLIT:;
#ARTISTTRANSLIT:Nobuo Uematsu to Wannyan☆Panics;
#GENRE:;
#CREDIT:;
#BANNER:Einherjar_banner.png;
#BACKGROUND:Einherjar.png;
#LYRICSPATH:;
#CDTITLE:;
#MUSIC:Einherjar.ogg;
#OFFSET:-0.310000;
#SAMPLESTART:74.389999;
#SAMPLELENGTH:12.000000;
#LASTBEATHINT:389.000000;
#SELECTABLE:YES;
#BPMS:0.000000=230.000000
;
#STOPS:
;
#BGCHANGES:;
#KEYSOUNDS:;
#ATTACKS:;

//---------------dance-single - ----------------
#NOTES:
     dance-single:
     :
     Easy:
     9:
     0.308719,0.457685,0.160426,0.264231,0.000000,229.000000,212.000000,17.000000,28.000000,0.000000,0.000000,0.308719,0.457685,0.160426,0.264231,0.000000,229.000000,212.000000,17.000000,28.000000,0.000000,0.000000:
0000
0000
0000
0000
,
0000
0000
0000
0000
,
0000
0000
0000
0000
,
0010
0100
1000
0001
,
2002
0000
0000
0000
0000
3003
0000
0000
,
0100
0000
0000
0000
,
0010
0000
0100
0000
,
0001
0010
0100
1000
,
0001
1000
0100
0010
,
2002
0000
0000
0000
,
0000
0000
3003
0000
,
0100
0000
0000
0100
0000
0000
0000
0000
,
0010
0000
0000
0010
0000
0000
0000
0000
,
1000
0000
0000
1000
0000
0000
0000
0000
,
0001
0000
0000
0001
0000
0000
0000
0000
,
0010
0000
0000
0001
0000
0000
0000
0000
,
1000
0000
0000
0100
0000
0000
0000
0000
,
1000
0000
0000
1001
0000
0000
0000
0000
,
0010
0000
0000
0110
0000
0000
0000
0000
,
0001
0000
0000
0010
0000
0000
0001
0000
,
1000
0000
0000
0010
0000
0000
0000
0000
,
1000
0000
0000
0100
0000
0000
1000
0000
,
0001
0000
0000
0010
0000
0000
0000
0000
,
0001
0000
0000
0100
0000
0000
0001
0000
,
0010
0000
0100
0000
,
2000
0000
3000
0000
,
0001
0000
0000
1001
0000
0000
0000
0000
,
0100
0000
0000
0010
0000
0000
0100
0000
,
0001
0000
0000
1000
0000
0000
0000
0000
,
0100
0000
0000
1000
0000
0000
0001
0000
,
0010
0000
0000
0001
0000
0000
0000
0000
,
0010
0000
0000
0001
0000
0000
1000
0000
,
0010
0000
0100
0000
,
0010
0000
0000
1000
0000
0000
0001
0000
,
1000
0000
1100
0000
,
0010
0000
0000
0001
0000
0000
0100
0000
,
0001
0000
1000
0000
,
0010
0000
0000
1000
0000
0000
0000
0000
,
0100
0000
0010
0000
,
0022
0000
0000
0033
,
0000
0000
0001
0000
,
2200
0000
0000
0000
,
3300
0000
0000
0000
,
0010
0000
0000
0100
0000
0000
0001
0000
,
0010
0000
0001
0000
,
1000
0000
0001
0000
,
0010
0000
0100
0000
,
2002
0000
0000
3003
,
0000
0000
1000
0010
,
0200
0000
0300
0000
,
0002
0000
0003
0000
,
0220
0000
0000
0000
,
0330
0000
0000
0000
,
1000
2000
0000
0000
,
3000
0000
0000
0000
,
0001
0000
0000
0010
0000
0000
0001
0000
,
0000
0010
0000
0000
0001
0000
1000
0000
,
0010
0000
0000
1000
0000
0000
0010
0000
,
0000
1000
0000
0000
0100
0000
1000
0000
,
0100
0000
0000
0010
0000
0000
0100
0000
,
0000
0010
0000
0000
0100
0000
0010
0000
,
0001
0000
0000
1000
0000
0000
0001
0000
,
0000
1000
0000
0000
0020
0000
0000
0000
,
1030
0000
0000
0100
0000
0000
0010
0000
,
0000
0100
0000
0000
1000
0000
0001
0000
,
0100
0000
0000
0010
0000
0000
0100
0000
,
0000
0001
0000
0000
0010
0000
0001
0000
,
2002
0000
0000
0000
,
3003
0000
0000
0000
,
0220
0000
0330
0000
,
2020
0000
3030
0000
,
0100
0001
0010
0001
,
1000
0010
0100
0000
,
0001
0010
0100
1000
,
0001
0100
0010
0000
,
1000
0100
0010
0100
,
1000
0001
0100
0000
,
0010
1000
0010
0100
,
0001
0000
0010
0001
,
1000
0001
0010
0001
,
1000
0010
0100
0000
,
0010
0100
0001
0010
,
0100
1000
0010
0000
,
1000
0100
1000
0010
,
0100
0001
0010
0000
,
0001
0000
1100
0000
,
0010
0000
0101
0000
,
2002
0000
0000
0000
,
3003
0000
0000
0000
,
0100
0010
0000
0000
0000
0000
0000
0000
,
0010
0001
0100
1000
,
0220
0000
0000
0000
,
0330
0000
0000
0000
,
0100
1000
0100
0001
,
0100
0010
0001
0000
,
1000
0000
0001
1000
0000
0010
0000
0010
,
0200
0000
0000
0000
,
0300
0000
0000
0000
;

//---------------dance-single - ----------------
#NOTES:
     dance-single:
     :
     Medium:
     13:
     0.590475,0.732297,0.254794,0.235920,0.037747,438.000000,411.000000,27.000000,25.000000,0.000000,0.000000,0.590475,0.732297,0.254794,0.235920,0.037747,438.000000,411.000000,27.000000,25.000000,0.000000,0.000000:
0000
0000
0000
0000
,
0000
0000
0000
0000
,
0000
0000
0000
0000
,
1010
0100
0001
1001
,
0022
0000
0033
0000
,
1000
2200
0000
0000
3300
0000
0000
0000
,
0010
1000
0100
1000
0010
0100
0001
0000
,
0010
0001
0010
0100
1000
0001
0100
0000
,
0010
1000
0100
0010
0001
1000
0001
0000
,
0220
0000
0000
0000
,
0000
0000
0330
0000
,
1000
0000
0100
1000
0000
0000
1000
0000
,
0001
0000
0010
0001
0000
0000
0001
0000
,
0101
0000
0010
0100
0000
0000
0010
0000
,
1010
0000
1000
0100
0000
0000
0010
0000
,
0100
0000
1000
0001
0000
0000
0010
0000
,
0001
0000
1000
0001
0000
0000
0100
0000
,
0110
0000
0000
1001
0000
0000
0100
0000
,
1001
0000
0010
0001
0000
1000
0001
0000
,
1000
0100
0010
0100
0000
1000
0001
0000
,
0100
0000
0000
0010
0000
0000
0100
0000
,
0001
0000
0000
0010
0000
0000
0100
0000
,
1000
0000
0001
0000
0100
0010
1000
0000
,
0100
0000
0000
1000
0000
0000
0001
0000
,
0010
0000
0001
0000
1000
0010
0100
0000
,
0201
0000
0000
0301
0000
0000
0000
0000
,
0010
0001
0100
1000
,
0010
1000
0100
0010
0000
0001
0010
0000
,
0001
0000
0000
0100
0000
0000
0010
0000
,
1000
0000
0000
0100
0000
0000
0010
0000
,
0100
1000
0001
0000
1000
0001
0100
0000
,
0010
0000
0000
1000
0000
0000
0001
0000
,
0010
0100
1000
0001
,
2002
0000
0000
3003
,
0100
1000
0010
0001
,
1000
0000
0001
0010
0000
0001
0000
0100
,
0010
0000
0000
1000
0000
0000
0100
0000
,
1000
0000
0010
0100
0000
0001
1000
0000
,
0100
0001
0100
1000
,
0020
0100
0000
0130
,
0001
0010
0100
1000
,
2002
0000
0000
3003
,
0100
0001
0010
1000
,
0010
0000
0001
1000
0000
0010
1000
0000
,
0001
0000
1000
0100
0000
0000
1000
0000
,
1010
0000
0000
0100
0000
0000
0001
0000
,
1000
0000
0100
0000
0010
0100
0010
0000
,
0022
0000
0000
0033
,
0000
1000
0010
0100
,
2020
0000
0000
3030
,
0100
0001
0010
1000
,
0220
0000
0000
0000
,
0000
0000
0330
0000
,
1000
0001
1000
0001
0000
0010
0000
0000
,
0002
0000
0000
0000
1003
0100
0000
0000
,
0010
0001
1000
0001
0000
1000
0010
0000
,
0100
0010
0000
0010
1000
0000
0101
0000
,
1000
0000
0100
1000
0000
0010
1000
0000
,
0001
0010
0000
0010
0001
0000
1001
0000
,
0100
0000
0001
0010
0000
0100
1000
0000
,
0010
1000
0000
0001
0100
0000
0101
0000
,
0010
0000
1000
0100
0000
0010
0001
0000
,
0100
0001
0000
1000
0010
0000
0110
0000
,
0100
0001
1000
0010
0000
1000
0100
0000
,
1000
0010
0000
0100
0001
0100
0010
0000
,
1000
0010
1000
0100
0000
0010
0001
0000
,
1000
0001
0000
0010
0001
1000
0001
0000
,
2002
0000
0000
0000
,
0000
0000
0000
0000
0000
3003
0000
0000
,
0100
0000
0010
0100
0000
0010
0100
0000
,
0001
0010
0100
0010
0000
0010
0100
0000
,
2000
0000
3100
0010
0100
1000
0100
0000
,
0010
0001
0100
0001
0010
0001
0100
0000
,
0010
1000
0100
1000
0010
1000
0100
0000
,
0010
0001
1000
0001
1000
0010
0100
0000
,
0001
0100
0001
0100
0010
1000
0001
0000
,
0010
0001
0010
0001
1000
0010
0100
0000
,
0001
1000
0001
1000
0100
0010
0100
0000
,
0010
0100
0000
1000
0001
0000
1001
0000
,
1000
0010
0100
0010
1000
0001
0010
0000
,
0100
1000
0001
1000
0010
0100
0010
0000
,
1000
0100
0010
0100
1000
0001
0100
0000
,
0010
1000
0100
1000
0010
1000
0100
0000
,
0010
0001
0010
0100
0010
0001
0100
0000
,
0001
1000
0010
1000
0100
0010
0001
0000
,
0100
0000
0010
0000
1000
0000
0001
0000
0010
0000
0100
0000
,
0010
0000
0010
0000
0010
0000
0100
0000
0100
0000
0100
0000
,
0220
0000
0000
0000
,
0000
0000
0000
0330
,
0001
1001
0000
0000
0000
0000
0000
0000
,
1100
0001
0110
1000
,
0001
0100
0001
0010
0000
0010
0100
0000
,
1000
0010
0100
0010
0000
0100
0001
0000
,
1000
0001
0010
0100
0010
0001
1000
0000
,
0010
1000
0001
0100
0001
1000
0010
0000
,
1000
0010
0001
0010
0000
0100
0001
1000
,
0200
0000
0000
0000
,
0300
0000
0000
0000
;

//---------------dance-single - ----------------
#NOTES:
     dance-single:
     :
     Hard:
     16:
     0.835832,1.006908,0.613393,0.377472,0.127397,620.000000,555.000000,65.000000,40.000000,0.000000,0.000000,0.835832,1.006908,0.613393,0.377472,0.127397,620.000000,555.000000,65.000000,40.000000,0.000000,0.000000:
// measure 0
0000
0000
0000
0000
,  // measure 1
0000
0000
0000
0000
,  // measure 2
0000
0000
0000
0000
,  // measure 3
1010
1100
0011
1001
,  // measure 4
0010
1000
0100
0010
0000
0001
0100
0000
,  // measure 5
0010
0000
1000
0000
0001
0000
0100
0000
0000
0000
0010
0000
1000
0000
0001
1000
,  // measure 6
0001
0010
1000
0010
0001
1000
0010
0001
,  // measure 7
0010
1000
0001
0000
0010
0001
1000
0000
0100
0001
1000
0000
0100
1000
0001
0000
,  // measure 8
0101
1010
1100
0011
,  // measure 9
2002
0000
0000
0000
,  // measure 10
0000
0000
0000
0000
0000
3003
0000
0000
,  // measure 11
0001
0100
1000
0100
0000
1000
0100
0001
,  // measure 12
0100
1000
0100
0001
0000
1000
0010
0001
,  // measure 13
0010
1000
0010
0001
0000
0001
0010
1000
,  // measure 14
0010
1000
0100
0001
0000
0001
0101
0000
,  // measure 15
0100
1000
0010
0100
0000
0100
0010
0100
,  // measure 16
0001
0010
0100
0010
0000
0001
1001
0000
,  // measure 17
1000
0010
0001
0010
0000
0100
1000
0100
,  // measure 18
0001
0100
0001
0010
0100
1000
1001
0000
,  // measure 19
0010
1000
0100
0002
0000
0203
0000
1300
,  // measure 20
0010
1000
0001
0010
0000
0010
0100
1000
,  // measure 21
0100
0001
0100
1000
0000
0010
0100
0000
,  // measure 22
0001
0100
0010
0000
1000
0100
0010
0000
,  // measure 23
0011
0000
1000
0010
0000
0100
0010
1000
,  // measure 24
0001
1000
0010
0000
1000
0001
0100
0000
,  // measure 25
0220
0330
0000
2020
3030
0000
0101
0000
,  // measure 26
1000
0001
0010
0100
1000
0001
1001
0000
,  // measure 27
0100
0001
0010
2000
0000
3020
0000
0031
,  // measure 28
0100
0001
1000
0100
0000
0100
0010
0001
,  // measure 29
0010
1000
0010
0001
0000
0100
0010
0000
,  // measure 30
1000
0010
0100
0000
0001
0010
0100
0000
,  // measure 31
1100
0000
0001
0100
0000
0010
0100
0001
,  // measure 32
1000
0001
0100
0000
0001
1000
0010
0000
,  // measure 33
0220
0330
0000
0202
0303
0000
1010
0000
,  // measure 34
0001
1000
0100
0010
0001
1000
1001
0000
,  // measure 35
0010
0001
0010
2000
0000
3200
0000
0310
,  // measure 36
0001
0010
0100
2000
0000
3010
0100
0001
,  // measure 37
0020
0000
0031
0200
0000
0310
1000
0001
,  // measure 38
1000
0010
0100
0001
0010
0100
0010
0000
,  // measure 39
2200
0000
0000
3300
,  // measure 40
0000
1000
0001
0010
0100
0000
0001
0000
,  // measure 41
2002
0000
0000
3003
,  // measure 42
0100
0010
0110
0000
1000
0001
1001
0000
,  // measure 43
1000
0010
0001
0020
0000
0130
0001
0010
,  // measure 44
0100
1000
0100
0002
0000
0103
1000
0000
,  // measure 45
1002
0000
0103
0020
0000
1030
0001
0010
,  // measure 46
0001
0010
0100
1000
0010
0001
0010
0000
,  // measure 47
2020
0000
0000
3030
,  // measure 48
0000
0001
0100
0010
1000
0000
0100
0000
,  // measure 49
0022
0000
0000
0033
,  // measure 50
1000
0001
0010
0001
1000
0010
0100
0000
,  // measure 51
0220
0000
0000
0000
,  // measure 52
0330
0000
0000
0000
0001
1000
1001
0000
,  // measure 53
0100
0010
0100
0010
0000
1000
0000
0001
,  // measure 54
0010
0001
0000
1000
0010
0100
0010
0000
,  // measure 55
1010
0000
0100
0110
0000
0001
0011
0000
,  // measure 56
1000
1100
0000
0001
0101
0000
1001
0000
,  // measure 57
0011
0000
0100
0110
0000
0010
1010
0000
,  // measure 58
1000
1100
0000
0001
1001
0000
0110
0000
,  // measure 59
1010
0000
1000
1100
0000
0001
0101
0000
,  // measure 60
0010
0011
0000
1000
1010
0000
0101
0000
,  // measure 61
0011
0000
1000
1100
0000
0010
1010
0000
,  // measure 62
0100
0101
0000
0001
0011
0000
1001
0000
,  // measure 63
0100
0001
0001
0100
1000
1000
0100
0001
,  // measure 64
0001
0000
0010
0000
1000
0000
1000
0000
0010
0100
0010
0000
0100
0010
0100
0000
,  // measure 65
0010
0001
0001
0010
1000
1000
0010
0001
,  // measure 66
0001
0000
1000
0000
0010
0000
0010
0000
0100
0010
0100
0010
0100
0010
0100
0010
,  // measure 67
0200
0000
0000
0000
,  // measure 68
0000
0000
0000
0300
,  // measure 69
0001
0100
1000
0001
0010
1000
0100
0000
,  // measure 70
1000
0010
1000
0010
1000
0000
0001
0010
0001
0010
0001
0000
0200
0000
0000
0000
,  // measure 71
0301
0010
1000
0010
0001
1000
0001
0100
,  // measure 72
0010
1000
0100
0001
1000
0010
0001
0010
,  // measure 73
0001
0100
0010
1000
0001
0100
1000
0100
,  // measure 74
0010
1000
0100
0001
0100
1000
0020
0000
,  // measure 75
1030
0100
0001
1000
0010
0001
0010
1000
,  // measure 76
0001
0100
1000
0001
0010
1000
0010
0001
,  // measure 77
1000
0010
0001
1000
0100
0001
1000
0010
,  // measure 78
0100
0110
0000
0001
0011
0000
1100
0000
,  // measure 79
0010
0001
0100
0001
0010
0100
1000
0010
,  // measure 80
0100
1000
0010
1000
0100
0001
0020
0000
,  // measure 81
0130
1000
0010
1000
0100
0010
0001
0100
,  // measure 82
0010
0001
0100
0001
0010
1000
0002
0000
,  // measure 83
1003
0010
0001
1000
0100
0001
0010
1000
,  // measure 84
0010
0001
1000
0100
0001
1000
0010
0001
,  // measure 85
1000
0000
1010
0000
0100
0000
0001
0000
0011
0000
0100
0000
,  // measure 86
0010
0000
1000
0000
0010
0000
0001
0000
1000
0010
0100
0001
0010
0100
1000
0001
,  // measure 87
0200
0000
0000
0000
,  // measure 88
0000
0000
0000
0300
,  // measure 89
0010
0110
0000
0000
0000
0000
0001
0000
,  // measure 90
0011
1100
1010
0101
,  // measure 91
1000
0010
0001
0010
0000
0100
0010
0000
,  // measure 92
1000
0100
0001
0100
0000
0010
0100
0000
,  // measure 93
1000
0010
0001
1000
0100
0001
0010
1000
,  // measure 94
0001
0000
0100
0000
1000
0000
0010
0000
0100
0001
0100
0001
1000
0010
1000
0010
,  // measure 95
0100
1000
0100
0001
0000
0010
0001
0100
,  // measure 96
2000
0000
0000
0000
,  // measure 97
3000
0000
0000
0000
;
