#TITLE:永遠に続く道;
#SUBTITLE:;
#ARTIST:kanone feat. せんざい;
#TITLETRANSLIT:Eien ni tsuzuku michi;
#SUBTITLETRANSLIT:;
#ARTISTTRANSLIT:kanone feat. Sennzai;
#GENRE:;
#CREDIT:;
#BANNER:Eien_ni_tsuzuku_michi_banner.png;
#BACKGROUND:Eien_ni_tsuzuku_michi.png;
#LYRICSPATH:;
#CDTITLE:;
#MUSIC:Eien ni tsuzuku michi.ogg;
#OFFSET:-0.580000;
#SAMPLESTART:39.740002;
#SAMPLELENGTH:15.000000;
#LASTBEATHINT:371.000000;
#SELECTABLE:YES;
#BPMS:0.000000=203.000000
;
#STOPS:
;
#BGCHANGES:;
#KEYSOUNDS:;
#ATTACKS:;

//---------------dance-single - ----------------
#NOTES:
     dance-single:
     :
     Easy:
     7:
     0.230064,0.280263,0.098416,0.223674,0.000000,180.000000,169.000000,11.000000,25.000000,0.000000,0.000000,0.230064,0.280263,0.098416,0.223674,0.000000,180.000000,169.000000,11.000000,25.000000,0.000000,0.000000:
0000
0000
0000
0000
,
0100
0000
0010
0100
,
0000
0001
0010
0000
,
0100
1000
0000
0010
,
1000
0000
0001
0010
,
0000
0001
0100
0000
,
0010
2000
0000
3000
,
0010
0000
1000
0100
,
0000
1000
0001
0000
,
0010
0001
0000
1000
,
0010
0000
1000
0100
,
0000
0010
0001
0000
,
1000
0001
0000
0000
,
0220
0330
0000
0010
,
0000
0000
1000
0000
,
0000
0001
0000
0000
,
0010
0000
0000
0001
,
0000
0000
1000
0000
,
0000
0100
0000
0000
,
0110
0000
0000
1000
,
0000
0000
0100
0000
,
0000
0010
0000
0000
,
0001
0000
0000
0100
,
0000
0000
0010
0000
,
0000
1000
0000
0000
,
2002
3003
0000
0010
,
0000
0000
0010
0000
,
0000
0100
0000
0000
,
0100
0000
0000
0001
,
0000
0000
0001
0000
,
0000
1000
0000
0000
,
1000
0000
0000
0220
,
0000
0000
0330
0000
,
0000
0100
0000
0010
,
0100
0000
0001
0010
,
0000
0001
1000
0000
,
0100
2000
0000
3010
,
0200
0000
0301
0010
,
0000
0001
1000
0000
,
0000
0110
0000
0010
,
1000
0000
0001
0010
,
0000
0001
1000
0000
,
0100
1000
0000
0010
,
0100
0000
0001
0010
,
0000
0000
0000
0000
2002
0000
0000
3003
,
0000
0100
0000
0000
,
0100
0000
0000
0010
,
0000
0000
0010
0000
,
0000
1000
0000
0000
,
1000
0000
0000
0001
,
0000
0000
0001
0000
,
0000
0010
0000
0001
,
0100
0000
0010
0100
,
0000
0001
0010
0000
,
0000
0100
0000
1000
,
0010
0000
1000
0100
,
0000
1000
0001
0000
,
0000
0100
0000
0010
,
0100
0000
0001
0010
,
0000
0001
1000
0000
,
0000
1100
0000
0000
,
0001
0000
0000
0011
,
0000
0000
2002
3003
,
0000
0010
0000
1000
,
0100
0000
0010
0001
,
0000
0000
2002
3003
,
0000
0020
0000
0130
,
0010
0000
1000
0200
,
0000
1300
0010
0000
,
0100
0002
0000
0013
,
0100
0000
1000
0001
,
0000
0000
1001
0000
,
0000
0020
0000
1030
,
0002
0000
0013
0100
,
0000
1000
0010
0000
,
1000
0001
0000
0010
,
0001
0000
1000
0001
,
0000
1000
0020
0000
,
0030
1000
0000
0000
,
0001
0000
0000
0010
,
0000
0000
0100
0000
,
0000
1000
0000
0000
,
0010
0000
0000
0001
,
0000
0000
0100
0000
,
0000
0002
0000
0000
,
0013
0000
0000
0200
,
0000
0000
1300
0000
,
0000
2000
0000
0000
,
3010
0000
0000
0200
,
0000
0000
0301
0000
;

//---------------dance-single - ----------------
#NOTES:
     dance-single:
     :
     Medium:
     10:
     0.348931,0.360338,0.062629,0.518923,0.000000,273.000000,266.000000,7.000000,58.000000,0.000000,0.000000,0.348931,0.360338,0.062629,0.518923,0.000000,273.000000,266.000000,7.000000,58.000000,0.000000,0.000000:
// measure 0
0000
0000
0000
0000
,  // measure 1
1000
0100
1000
0010
,  // measure 2
0200
0000
0310
1000
,  // measure 3
0001
0020
0000
0031
,  // measure 4
0200
0000
0310
1000
,  // measure 5
0100
0010
0001
0010
,  // measure 6
0100
2000
0000
3001
,  // measure 7
0100
0010
0100
0002
,  // measure 8
0000
0013
0100
1000
,  // measure 9
0010
2000
0000
3001
,  // measure 10
0020
0000
0031
1000
,  // measure 11
0010
0100
0001
0010
,  // measure 12
0100
1000
0000
0000
,  // measure 13
2002
0000
0000
3003
0000
0000
0010
0000
,  // measure 14
0100
0010
1000
0100
,  // measure 15
0000
0010
0001
0100
,  // measure 16
0001
0000
0010
0100
,  // measure 17
1000
0010
0100
0010
,  // measure 18
0000
1000
0001
0010
,  // measure 19
0100
0000
0010
0001
,  // measure 20
1000
0010
0100
0010
,  // measure 21
0000
1000
0100
0010
,  // measure 22
0001
0000
0010
0001
,  // measure 23
1000
0001
0100
0010
,  // measure 24
0000
0010
0100
0001
,  // measure 25
0022
0033
0000
1000
,  // measure 26
0100
0010
0100
1000
,  // measure 27
0000
0002
0000
0103
,  // measure 28
0020
0000
0030
1000
,  // measure 29
0001
0010
0001
1000
,  // measure 30
0010
0100
1000
0100
,  // measure 31
0002
0000
0000
1003
,  // measure 32
0000
0000
0000
0000
,  // measure 33
0000
0010
1000
0100
,  // measure 34
0010
0100
0000
1000
,  // measure 35
0001
0010
0200
0000
,  // measure 36
0310
0001
1000
0010
,  // measure 37
0100
0020
0000
1030
,  // measure 38
0001
0010
0100
0000
,  // measure 39
0100
0010
0001
1000
,  // measure 40
0010
0200
0000
0310
,  // measure 41
1000
0001
2002
3003
,  // measure 42
0000
0100
0001
0010
,  // measure 43
0100
1000
0000
0010
,  // measure 44
1000
0001
0220
0330
,  // measure 45
0000
2000
0000
0000
,  // measure 46
3200
0000
0000
0310
,  // measure 47
0001
1000
0020
0000
,  // measure 48
0000
0130
0000
0001
,  // measure 49
0020
0000
0031
1000
,  // measure 50
0100
0010
0002
0000
,  // measure 51
0000
1003
0010
0100
,  // measure 52
0010
2000
0000
3100
,  // measure 53
0010
0100
2000
0000
,  // measure 54
3001
0200
0000
0000
,  // measure 55
0320
0000
0000
1030
,  // measure 56
0001
0010
0200
0000
,  // measure 57
0300
1000
0001
0010
,  // measure 58
0001
1000
0000
0010
,  // measure 59
0100
0001
0200
0000
,  // measure 60
0310
1000
0100
0010
,  // measure 61
0001
0200
0000
0301
,  // measure 62
0010
0100
2000
0000
,  // measure 63
3001
0100
0010
0100
,  // measure 64
0001
1000
0000
0010
,  // measure 65
0100
0001
2002
3003
,  // measure 66
0000
0200
0000
0310
,  // measure 67
2000
0000
3100
0010
,  // measure 68
0100
1000
0002
0000
,  // measure 69
0103
0020
0000
1030
,  // measure 70
0001
1000
0100
0010
,  // measure 71
0100
1000
2002
3003
,  // measure 72
0000
0020
0000
1030
,  // measure 73
0002
0000
0013
0100
,  // measure 74
1000
0010
0200
0000
,  // measure 75
0301
2000
0000
3010
,  // measure 76
0100
0010
1000
0001
,  // measure 77
0000
0010
0000
0000
0220
0000
0330
0000
,  // measure 78
0000
2000
0000
3200
,  // measure 79
0320
0000
0031
0010
,  // measure 80
1000
0010
0002
0000
,  // measure 81
1003
0020
0000
0230
,  // measure 82
0302
0000
1003
0100
,  // measure 83
0001
0100
2000
0000
,  // measure 84
0000
3010
0100
0010
,  // measure 85
2000
0000
3001
0010
,  // measure 86
0100
0010
0002
0000
,  // measure 87
0000
1003
0100
0010
,  // measure 88
0001
0010
0100
1000
,  // measure 89
0010
0100
0001
0000
;

//---------------dance-single - ----------------
#NOTES:
     dance-single:
     :
     Hard:
     13:
     0.627564,0.640601,0.277355,0.501029,0.000000,491.000000,460.000000,31.000000,56.000000,0.000000,0.000000,0.627564,0.640601,0.277355,0.501029,0.000000,491.000000,460.000000,31.000000,56.000000,0.000000,0.000000:
// measure 0
0000
0000
0000
0000
,  // measure 1
0110
0000
1000
0001
0010
0000
0001
1000
,  // measure 2
0010
0000
0200
0000
0320
0000
1030
0100
,  // measure 3
0010
0000
0001
0000
0100
0001
0010
0100
,  // measure 4
1000
0000
0010
1000
0100
0000
0010
0000
,  // measure 5
0001
0100
0010
0000
1000
0000
0001
0010
,  // measure 6
0100
0000
0010
0001
0100
0010
1000
0010
,  // measure 7
0200
0000
0301
0010
0100
0000
1000
0010
,  // measure 8
0200
0000
0320
0000
1030
0000
0001
1000
,  // measure 9
0100
0000
0020
0000
0130
1000
0010
1000
,  // measure 10
0001
0010
0001
1000
0010
0000
0100
0001
,  // measure 11
1000
0001
0010
0000
0001
0100
0010
1000
,  // measure 12
0001
0000
0220
0000
0000
0330
0000
0000
,  // measure 13
2002
0000
0000
3003
0000
0000
0110
0000
,  // measure 14
1000
0100
0010
0100
1000
0000
1010
0000
,  // measure 15
0000
0100
0001
0000
0010
0001
1000
0001
,  // measure 16
0010
0000
0001
0100
0010
1000
0100
0000
,  // measure 17
1000
0010
0100
0001
0010
0000
1001
0000
,  // measure 18
0010
0100
0001
0000
1000
0100
0010
0000
,  // measure 19
2200
0000
3300
0000
0001
0100
0010
0000
,  // measure 20
1000
0001
0010
0100
1000
0000
1001
0000
,  // measure 21
0100
0010
1000
0000
0001
0010
0100
0000
,  // measure 22
2002
0000
3003
0000
0100
0010
0100
0000
,  // measure 23
0001
0010
0100
1000
0010
0000
0110
0000
,  // measure 24
1000
0100
0010
0000
0100
1000
0001
0000
,  // measure 25
0022
0000
0000
0033
0000
0000
0010
0100
,  // measure 26
0002
0010
2003
3100
,  // measure 27
0010
0001
0200
0000
0000
0000
0310
1000
,  // measure 28
0100
0000
0010
0001
0100
0000
1001
0000
,  // measure 29
0010
0100
0001
0000
0010
0100
1000
0000
,  // measure 30
0010
1000
0001
1000
0100
0010
0001
0000
,  // measure 31
0220
0000
0000
0330
0000
0000
1001
0000
,  // measure 32
0000
0000
0000
0000
,  // measure 33
0000
0010
0100
0000
0001
0010
0100
1000
,  // measure 34
0010
0000
1001
0000
0100
0010
1000
0000
,  // measure 35
0010
0100
0001
0010
0200
0000
1000
0000
,  // measure 36
1300
0010
0100
0000
0101
0000
0010
0001
,  // measure 37
1000
0000
1010
0000
0100
0001
1000
0100
,  // measure 38
1000
0001
0220
0330
,  // measure 39
1000
0100
1000
0000
0001
0100
0010
0100
,  // measure 40
0001
0000
1001
0000
0010
0100
1000
0000
,  // measure 41
0010
0100
0010
0100
0001
0000
0010
0000
,  // measure 42
0001
1000
0100
0000
1000
0010
0100
0001
,  // measure 43
0010
0000
0001
0000
0100
1000
0100
0000
,  // measure 44
0001
0010
0001
0000
2002
0000
0000
3003
,  // measure 45
0000
0210
0000
0301
,  // measure 46
0012
0000
1003
1200
,  // measure 47
0302
0000
0103
1000
0020
0000
0000
0000
,  // measure 48
0130
0000
0001
0010
0100
0010
0001
0000
,  // measure 49
1000
0010
0100
0010
1000
0000
0001
1000
,  // measure 50
0100
0010
0001
0100
0010
0100
0001
1000
,  // measure 51
0100
0000
1010
0000
0100
0010
1000
0000
,  // measure 52
0001
0000
0011
0000
0100
0010
1000
0000
,  // measure 53
0001
0010
0100
1000
0002
0000
0000
0000
,  // measure 54
0103
0010
0200
0000
0001
0000
0001
0000
,  // measure 55
0010
0010
0001
0302
,  // measure 56
0023
2030
3020
0000
,  // measure 57
0031
0100
0010
0000
1000
0100
0010
0000
,  // measure 58
0001
0000
0110
0000
1000
0100
0010
0000
,  // measure 59
0100
1000
0001
1000
0010
0000
0000
0000
,  // measure 60
1000
0100
0001
0000
0001
0100
1000
0001
,  // measure 61
0100
1000
0100
0000
0010
1000
0001
0000
,  // measure 62
0010
1000
0010
0001
0200
0000
0300
0000
,  // measure 63
0010
0100
0002
0000
2003
0000
3020
0000
,  // measure 64
0032
0000
2003
0000
3100
0010
1000
0000
,  // measure 65
0001
0010
0100
0000
2200
0000
3300
0000
,  // measure 66
0000
0000
0001
0100
0010
0100
0001
0000
,  // measure 67
1000
0100
0010
0100
1000
0000
0010
0100
,  // measure 68
0002
0000
0013
0100
2000
0000
0000
0000
,  // measure 69
3010
0000
0100
0001
0100
1000
0100
0000
,  // measure 70
0010
0001
0010
1000
0010
0000
1000
0100
,  // measure 71
0010
0001
2200
3300
,  // measure 72
0000
0000
0010
1000
0100
0010
0001
0000
,  // measure 73
0100
0010
1000
0001
0010
0000
0001
0100
,  // measure 74
1000
0000
1000
0100
0002
0000
0000
0000
,  // measure 75
0013
0000
0100
1000
0100
0001
0100
0000
,  // measure 76
1000
0010
0001
0010
1000
0000
0001
0000
,  // measure 77
0010
0100
0000
1000
0010
0000
1000
0001
,  // measure 78
0010
0100
1000
0001
0100
0000
0010
0000
,  // measure 79
0200
0000
0310
1000
,  // measure 80
0001
0010
0001
0000
2002
0000
3003
0000
,  // measure 81
0000
0000
0100
0010
1000
0010
0100
0000
,  // measure 82
0001
0010
0100
0010
0001
0000
1000
0000
,  // measure 83
0010
0000
0001
0000
0220
0000
0000
0330
,  // measure 84
0000
0000
0001
0010
0100
1000
0010
0000
,  // measure 85
1000
0100
0010
0001
0100
0000
0010
1000
,  // measure 86
0001
0010
0001
1000
0200
0000
0000
0000
,  // measure 87
0310
0000
0100
1000
0001
0100
0010
0000
,  // measure 88
1000
0001
0100
0001
1000
0000
0010
0000
,  // measure 89
0100
0001
1001
0000
;
