#TITLE:EROICA;
#SUBTITLE:;
#ARTIST:BEMANI Sound Team "HERO";
#TITLETRANSLIT:;
#SUBTITLETRANSLIT:;
#ARTISTTRANSLIT:;
#GENRE:VERSE;
#CREDIT:;
#BANNER:EROICA_banner.png;
#BACKGROUND:EROICA.png;
#LYRICSPATH:;
#CDTITLE:;
#MUSIC:EROICA.ogg;
#OFFSET:-0.390000;
#SAMPLESTART:73.589996;
#SAMPLELENGTH:15.000000;
#LASTBEATHINT:390.000000;
#SELECTABLE:YES;
#DISPLAYBPM:200.000000;
#BPMS:0.000000=200.000000
,241.000000=400.000000
,243.000000=200.000000
,388.000000=50.000000
;
#STOPS:241.000000=0.299995
;
#BGCHANGES:;
#KEYSOUNDS:;
#ATTACKS:;

//---------------dance-single - ----------------
#NOTES:
     dance-single:
     :
     Easy:
     7:
     0.297875,0.318083,0.057239,0.376140,0.000000,255.000000,248.000000,7.000000,46.000000,0.000000,0.000000,0.297875,0.318083,0.057239,0.376140,0.000000,255.000000,248.000000,7.000000,46.000000,0.000000,0.000000:
// measure 0
0000
0000
0000
0000
,  // measure 1
0000
0000
0000
0000
,  // measure 2
0000
0000
0000
0000
,  // measure 3
0000
0000
0000
0000
,  // measure 4
1000
0000
0001
0010
,  // measure 5
0000
0001
0100
0000
,  // measure 6
0010
1000
0100
1000
,  // measure 7
0001
0000
1000
0010
,  // measure 8
0000
1000
0100
0000
,  // measure 9
0010
0001
0000
0100
,  // measure 10
0002
0000
1003
0100
,  // measure 11
0000
1000
0010
0000
,  // measure 12
0100
0220
0330
0000
,  // measure 13
1000
0000
0001
0010
,  // measure 14
0000
0001
0200
0000
,  // measure 15
0000
0310
0100
0010
,  // measure 16
1000
0000
0001
1000
,  // measure 17
0100
0010
0002
0000
,  // measure 18
0003
1000
0000
0010
,  // measure 19
1000
0000
0001
0010
,  // measure 20
0000
0001
0200
0000
,  // measure 21
0000
0000
0000
0300
,  // measure 22
0010
0000
1000
0100
,  // measure 23
1000
0001
0200
0000
,  // measure 24
0000
0310
1000
0001
,  // measure 25
0020
0000
0031
0010
,  // measure 26
0000
0001
0200
0000
,  // measure 27
0310
0100
0000
0010
,  // measure 28
2000
0000
3100
1000
,  // measure 29
0000
0001
0020
0000
,  // measure 30
0031
1000
0000
0100
,  // measure 31
0020
0000
0030
0020
,  // measure 32
0000
0030
0010
0001
,  // measure 33
1000
0020
0000
0030
,  // measure 34
0200
0000
0301
0200
,  // measure 35
0000
0310
1000
0001
,  // measure 36
1000
2002
0000
3003
,  // measure 37
0200
0000
0310
0200
,  // measure 38
0000
0310
2000
0000
,  // measure 39
3100
2000
0000
3001
,  // measure 40
0020
0000
0031
0020
,  // measure 41
0000
0130
2000
0000
,  // measure 42
3001
0010
0100
1000
,  // measure 43
0002
0000
0003
2002
,  // measure 44
0000
3003
2020
0000
,  // measure 45
3030
0200
0000
0300
,  // measure 46
0010
0000
0010
1000
,  // measure 47
0100
0010
0002
0000
,  // measure 48
0003
1000
0001
1000
,  // measure 49
0010
0100
0010
1000
,  // measure 50
0000
0100
1000
0100
,  // measure 51
1000
0001
0000
0010
,  // measure 52
0001
0100
0001
0010
,  // measure 53
0000
0001
1000
0010
,  // measure 54
0100
0010
0000
0010
,  // measure 55
1000
0001
0010
0001
,  // measure 56
0000
1000
0001
0010
,  // measure 57
0100
1000
0000
0001
,  // measure 58
1000
0010
0100
0001
,  // measure 59
0000
0001
0010
0100
,  // measure 60
1000
0001
0000
0000
,  // measure 61
0100
0000
0010
1000
,  // measure 62
0000
0001
0020
0000
,  // measure 63
0000
0130
1000
0001
,  // measure 64
0100
0000
0010
1000
,  // measure 65
0001
0010
0002
0000
,  // measure 66
0000
1003
0100
1000
,  // measure 67
0010
0000
0100
0001
,  // measure 68
0000
1000
0200
0000
,  // measure 69
0000
1300
0010
1000
,  // measure 70
0002
0000
0013
0001
,  // measure 71
0000
1000
0020
0000
,  // measure 72
0000
1000
1000
1030
,  // measure 73
0001
0000
0000
0010
0000
0000
0100
0000
,  // measure 74
0000
1000
0000
0000
2002
0000
0000
0000
,  // measure 75
0000
0000
0000
3003
,  // measure 76
0010
0000
1000
0010
,  // measure 77
0100
0001
0020
0000
,  // measure 78
0000
0001
0001
0031
,  // measure 79
1000
0000
0000
0001
0000
0000
0010
0000
,  // measure 80
0000
0100
0000
0000
2002
0000
0000
0000
,  // measure 81
0000
0000
0000
3003
,  // measure 82
0100
0000
0001
0010
,  // measure 83
0100
1000
0002
0000
,  // measure 84
0000
0100
0100
0103
,  // measure 85
0010
0000
0010
1000
,  // measure 86
0100
0010
0200
0000
,  // measure 87
0000
1000
1000
1300
,  // measure 88
0001
0000
0010
0001
,  // measure 89
0000
1000
0100
0000
,  // measure 90
1000
0001
0000
0010
,  // measure 91
0100
0000
0010
0001
,  // measure 92
0000
1000
0010
0000
,  // measure 93
1000
0100
0000
1000
,  // measure 94
0001
0000
0010
0100
,  // measure 95
0000
1000
0010
0000
,  // measure 96
0100
0001
0000
0010
,  // measure 97
0220
0330
0000
0000
;

//---------------dance-single - ----------------
#NOTES:
     dance-single:
     :
     Medium:
     13:
     0.560705,0.596406,0.318901,0.834049,0.000000,480.000000,441.000000,39.000000,102.000000,0.000000,0.000000,0.560705,0.596406,0.318901,0.834049,0.000000,480.000000,441.000000,39.000000,102.000000,0.000000,0.000000:
// measure 0
0000
0000
0000
0000
,  // measure 1
0000
0000
0000
0000
,  // measure 2
0000
0000
0000
0000
,  // measure 3
0000
0000
0000
0000
,  // measure 4
0000
0000
0000
0000
,  // measure 5
0000
0000
0000
0000
,  // measure 6
0000
0000
0000
0000
,  // measure 7
0001
0000
0100
0010
1000
0000
0100
0000
,  // measure 8
1000
0010
0100
0000
0001
0000
0010
0001
,  // measure 9
1000
0010
0100
0110
,  // measure 10
1000
0000
0001
0100
0010
0000
1000
0000
,  // measure 11
0100
1000
0010
0000
0100
0000
0001
0010
,  // measure 12
0100
1000
0001
1001
,  // measure 13
0020
0000
0130
0020
0000
0000
1030
0000
,  // measure 14
0001
0020
0000
0130
2000
0000
0000
0000
,  // measure 15
0010
3010
0110
0001
,  // measure 16
0010
0000
0001
1000
0010
0000
2000
0000
,  // measure 17
3200
0302
0203
0000
,  // measure 18
0010
1000
1300
0001
,  // measure 19
0110
0000
0001
2000
0000
0000
3010
0000
,  // measure 20
0100
0001
0010
0000
0002
0000
0000
0000
,  // measure 21
1000
0010
0010
0013
,  // measure 22
1001
0000
0100
0020
0000
0000
2030
0000
,  // measure 23
3020
0032
0023
0000
,  // measure 24
1000
0100
0130
0110
,  // measure 25
0001
0000
0010
0001
1000
0000
0010
0000
,  // measure 26
1000
0100
0010
0000
0100
0000
1000
0001
,  // measure 27
0100
0000
0010
0000
1000
0001
0010
0000
,  // measure 28
0200
0000
1300
0010
0100
0000
0020
0000
,  // measure 29
1030
0001
0100
0000
0002
0000
0013
0100
,  // measure 30
1000
0000
0200
0000
1300
0010
0100
0000
,  // measure 31
0102
0000
0000
1003
,  // measure 32
0010
1000
2001
0000
,  // measure 33
3100
0000
0220
0000
0000
0330
0000
0000
,  // measure 34
0001
0000
0100
0010
0100
0000
0002
0000
,  // measure 35
0203
0000
0320
0000
1030
0000
0100
1000
,  // measure 36
0010
0000
0100
0001
1000
0001
0100
0000
,  // measure 37
0010
0000
1000
0100
0010
0000
0100
0000
,  // measure 38
1000
0001
0100
0000
0010
0000
0100
0001
,  // measure 39
0010
0000
0001
0000
1000
0010
0100
0000
,  // measure 40
0120
0000
1030
0001
0100
0000
0021
0000
,  // measure 41
0130
1000
0001
0000
2001
0000
3010
0100
,  // measure 42
0001
0000
1002
0000
0013
0100
1000
0000
,  // measure 43
1020
0000
0130
0210
,  // measure 44
0000
0301
0012
0000
,  // measure 45
1003
2001
0000
3000
,  // measure 46
0210
0000
0301
2000
,  // measure 47
3002
0000
0023
0000
0130
0000
1000
0001
,  // measure 48
0010
0000
0001
0010
0100
0010
0001
0000
,  // measure 49
1000
0010
1000
0010
1000
0000
0001
0000
,  // measure 50
1000
0000
0101
0000
0010
1000
0010
1000
,  // measure 51
0010
1000
0100
0110
,  // measure 52
0010
0001
0010
0001
0010
0000
0001
0000
,  // measure 53
1000
0000
1100
0000
0010
0100
0010
0100
,  // measure 54
0010
1000
0001
0011
,  // measure 55
1000
0100
1000
0100
1000
0000
0010
0000
,  // measure 56
0100
0000
0101
0000
0001
1000
0001
1000
,  // measure 57
0001
0010
0100
1100
,  // measure 58
0001
0100
0001
0100
0001
0000
1000
0000
,  // measure 59
0001
0000
0011
0000
1000
0001
0100
0010
,  // measure 60
1000
0001
0200
0300
0000
0000
0000
0000
,  // measure 61
1100
0000
0001
0020
0000
0130
0020
0000
,  // measure 62
0031
2000
0000
3010
0200
0000
0301
0010
,  // measure 63
0100
1000
0001
0010
0100
1000
0001
0000
,  // measure 64
1001
0000
0100
0020
0000
0130
0002
0000
,  // measure 65
2003
3200
2300
0000
,  // measure 66
3010
0000
1000
0001
0010
0100
1000
0000
,  // measure 67
1001
0000
0010
2000
0000
3100
2000
0000
,  // measure 68
3010
0200
0000
0301
0020
0000
0130
1000
,  // measure 69
0001
0010
0100
1000
0001
1000
0010
0000
,  // measure 70
1001
0000
0100
0020
0000
1030
0200
0000
,  // measure 71
2300
3001
0220
0000
,  // measure 72
0330
0000
1000
0001
0010
0001
1000
0000
,  // measure 73
1002
0000
0103
0020
0000
0130
0002
0000
,  // measure 74
0013
0200
0000
1300
0020
0000
1030
0001
,  // measure 75
0010
0100
1000
0001
0010
0100
1000
0000
,  // measure 76
1001
0000
0010
0002
0000
0103
0020
0000
,  // measure 77
2030
0000
3002
0000
0013
0000
0100
1000
,  // measure 78
0001
0010
0100
1000
0001
0010
0100
0000
,  // measure 79
1200
0000
1300
0020
0000
0130
0002
0000
,  // measure 80
0013
0002
0000
1003
0010
0000
0200
0302
,  // measure 81
2003
3020
0230
0302
2003
3020
1030
0000
,  // measure 82
1001
0000
0010
0200
0000
1300
0020
0000
,  // measure 83
2030
0000
3200
0000
1300
0000
0001
0010
,  // measure 84
0100
1000
0001
0010
0100
1000
0001
0000
,  // measure 85
0100
0000
0010
2000
0000
3010
0200
0000
,  // measure 86
0302
0000
0023
0000
0130
0000
1000
0100
,  // measure 87
0010
0001
1000
0100
0010
0001
0100
0000
,  // measure 88
0110
0000
0001
0010
0100
0000
2000
0000
,  // measure 89
3020
0000
0032
0000
0013
0000
1000
0001
,  // measure 90
0010
0200
2300
3001
,  // measure 91
0110
0000
0001
0100
1000
0000
0200
0000
,  // measure 92
0302
0000
2003
0000
3100
0000
0010
0100
,  // measure 93
1000
0002
0023
1030
,  // measure 94
0110
0000
0001
1000
0100
0000
2000
0000
,  // measure 95
3020
0000
0130
0000
1001
0000
0010
0100
,  // measure 96
1000
0002
0023
1030
,  // measure 97
0220
0330
0000
0000
;

//---------------dance-single - ----------------
#NOTES:
     dance-single:
     :
     Hard:
     17:
     0.816527,0.955477,0.400671,1.864344,0.363874,699.000000,650.000000,49.000000,228.000000,0.000000,0.000000,0.816527,0.955477,0.400671,1.864344,0.363874,699.000000,650.000000,49.000000,228.000000,0.000000,0.000000:
// measure 0
0000
0000
0000
0000
,  // measure 1
0000
0000
0000
0000
,  // measure 2
0000
0000
0000
0000
,  // measure 3
0000
0000
0000
0000
,  // measure 4
0000
0000
0000
0000
,  // measure 5
0000
0000
0000
0000
,  // measure 6
0000
0000
0000
0000
,  // measure 7
1001
0000
0010
0100
0001
0000
0100
0001
,  // measure 8
0010
0100
1000
0010
0110
0000
1000
0001
,  // measure 9
0010
0001
0010
1000
0010
0100
1000
0001
,  // measure 10
0101
0000
0010
1000
0001
0000
0010
0100
,  // measure 11
1000
0100
0001
0100
1000
0100
0001
1000
,  // measure 12
0010
0001
0100
1000
0001
0010
1000
0001
,  // measure 13
0200
0000
0010
0310
0000
0200
0002
0300
,  // measure 14
2003
3200
0000
0302
0203
0000
1000
1000
,  // measure 15
1000
0001
0010
0301
,  // measure 16
0110
0000
0001
0020
0000
0031
0200
1300
,  // measure 17
0200
0310
0200
0301
0020
0000
0001
0001
,  // measure 18
0000
1000
1000
0000
0001
0000
1030
0000
,  // measure 19
1001
0000
0100
0020
0000
1030
0020
0000
,  // measure 20
0230
0302
0000
1003
0200
0000
0010
0010
,  // measure 21
0010
1000
0001
1300
,  // measure 22
1001
0000
0010
0002
0000
1003
0200
1300
,  // measure 23
0020
0130
0002
1003
0020
0000
1000
1000
,  // measure 24
0000
1000
1000
0000
0001
0000
1030
0000
,  // measure 25
0210
0000
0010
1300
0010
0000
0012
0000
,  // measure 26
1000
0103
1000
0000
1020
0000
0100
0031
,  // measure 27
0100
0000
2001
0000
0100
3010
0100
0000
,  // measure 28
1002
0000
0010
0103
0010
0000
0210
0000
,  // measure 29
1000
0301
1000
0000
2001
0000
0010
3200
,  // measure 30
0001
0310
0001
0100
1000
0100
0010
0000
,  // measure 31
2010
0100
3001
0102
,  // measure 32
0010
0000
1003
0000
0110
0000
0010
1000
,  // measure 33
0001
1000
2100
0000
0000
0000
3001
0000
,  // measure 34
0012
1000
0013
1200
,  // measure 35
0320
0000
0031
0000
1000
0001
0010
0001
,  // measure 36
1000
0010
0100
0001
0010
0100
1000
0000
,  // measure 37
0201
0000
0310
0001
0010
0000
0120
0000
,  // measure 38
1030
0100
1000
0000
2100
0000
3001
0100
,  // measure 39
0001
0000
1002
0000
0013
1000
0010
0000
,  // measure 40
0201
0000
0310
1000
0010
0000
1200
0000
,  // measure 41
0310
0001
0010
0000
2001
0000
3010
0100
,  // measure 42
0010
1000
0100
0010
0100
1000
0001
0000
,  // measure 43
0201
0000
1000
0302
,  // measure 44
0023
0130
1200
0000
,  // measure 45
0010
1000
0000
1300
,  // measure 46
1002
0000
0010
0103
0010
0000
0011
0000
,  // measure 47
0110
0000
1100
0000
0001
1000
0001
0100
,  // measure 48
0010
0000
1000
0000
0001
0100
0001
0100
0010
1000
0010
1000
0200
0000
0000
0000
,  // measure 49
1300
0000
0010
0000
0100
0000
1000
0000
0100
0000
0001
0010
0001
0000
0010
0000
,  // measure 50
0100
0000
1000
0000
0010
0000
0100
0010
1000
0000
0001
0000
1000
0000
0100
0000
,  // measure 51
0010
0000
0100
1000
0001
0000
0010
0000
0100
0000
1000
0000
2002
0000
3003
0000
,  // measure 52
0100
0000
0010
0000
1000
0000
0001
0000
0100
0000
0010
1000
0001
0000
0010
0000
,  // measure 53
1000
0000
0010
0000
0001
0000
1000
0100
0010
0000
0100
0000
1000
0000
0001
0000
,  // measure 54
0010
0000
0100
1000
0001
0000
0010
0000
0100
0000
1000
0000
2002
0000
3003
0000
,  // measure 55
0010
0000
0100
0000
0001
0000
0010
0100
1000
0000
0010
0000
1000
0000
0001
0100
,  // measure 56
0010
0000
1000
0000
0010
0000
1000
0100
0010
0000
0001
0000
1000
0000
0001
0100
,  // measure 57
0010
0000
1000
0000
0010
0100
0010
0000
1000
0000
0001
0000
2002
0000
3003
0000
,  // measure 58
0010
0100
1000
0000
0010
0000
0100
0001
0010
0000
0001
0000
1000
0000
0010
0100
,  // measure 59
0010
0000
1000
0001
0100
0000
0010
0000
1000
0010
1000
0000
0010
0000
0100
0001
,  // measure 60
1000
0100
0010
0001
0200
0300
0000
0000
0000
0000
0000
0000
0000
0000
0000
0000
,  // measure 61
1001
0000
0010
0100
0002
0103
2000
3100
,  // measure 62
0020
0000
1030
0000
0200
0000
0310
0000
0001
0000
0000
0000
2000
3020
0230
0300
,  // measure 63
0002
0023
0230
0300
2000
3020
2030
3020
0230
0302
0203
0302
1003
0000
0000
0000
,  // measure 64
1001
0000
0010
0100
1000
0100
0002
0013
,  // measure 65
0200
0000
1300
0000
0020
0000
0130
0000
0020
0000
0000
0000
2030
3002
0203
0300
,  // measure 66
0002
2003
3200
0300
0020
0032
0023
0032
2003
3200
2300
3200
0310
0000
0000
0000
,  // measure 67
0110
0000
0001
2000
3010
0200
0310
0002
,  // measure 68
0013
0000
2000
0000
3002
0000
0103
0000
0001
0000
0000
0000
2000
3200
0320
0030
,  // measure 69
0200
0320
0032
0003
2000
3002
2003
3002
0023
0230
0320
0230
1300
0000
0000
0000
,  // measure 70
1001
0000
0010
1000
0200
0310
0200
1300
,  // measure 71
0002
0103
0020
0130
0002
0000
0100
0000
,  // measure 72
0010
0000
0000
0000
0103
0000
0000
0000
1000
0100
0010
0001
1000
0100
0010
0001
,  // measure 73
2000
0010
3002
0010
2003
0100
3002
0100
,  // measure 74
1003
0000
0002
0000
0100
0000
2003
0000
3200
0000
0000
0000
0302
0023
0032
0023
,  // measure 75
0230
2300
3200
2300
3002
0023
0230
2300
3002
0023
0230
2300
3010
0000
0000
0000
,  // measure 76
0110
0000
1000
0001
0010
0100
0020
0031
,  // measure 77
2000
0000
3010
0000
0200
0000
0301
0000
0020
0000
0000
0000
0230
2300
3200
2300
,  // measure 78
3002
0023
0032
0023
0032
0203
0320
2030
3002
0203
0320
2030
3100
0000
0000
0000
,  // measure 79
0020
0001
2030
0100
3020
1000
0032
0100
,  // measure 80
0013
0000
0200
0000
1000
0000
0320
0000
2030
0000
0000
0000
3002
0203
0302
0203
,  // measure 81
0320
2030
3020
2030
3002
0203
0320
2030
3002
0203
0320
2030
3100
0000
0000
0000
,  // measure 82
0110
0000
0001
1000
0100
0010
0200
1300
,  // measure 83
0002
0000
0103
0000
0020
0000
1030
0000
0200
0000
0000
0000
0320
0032
0023
0032
,  // measure 84
2003
3200
2300
3200
2300
3020
0230
0302
2003
3020
0230
0302
0013
0000
0000
0000
,  // measure 85
1001
0000
0200
2300
3020
0230
0301
0020
,  // measure 86
0130
0000
0020
0000
0031
0000
1000
0000
0020
0000
0030
0000
0200
0302
2003
0000
,  // measure 87
3020
0230
0302
0000
0023
0230
2300
3002
0023
0230
2300
3002
2003
3200
0320
0032
,  // measure 88
1003
0000
0100
0001
0100
1000
0100
0000
,  // measure 89
0010
0000
0011
0000
0001
0000
0100
1000
,  // measure 90
0100
0001
0100
0000
0010
0000
1010
0000
,  // measure 91
0100
0000
0001
0010
1000
0010
0001
0000
,  // measure 92
0100
0000
1001
0000
0010
0000
1000
0010
,  // measure 93
0001
0000
0010
0000
1000
0000
0000
0000
0001
0000
0000
0000
0100
0010
1000
0010
,  // measure 94
0100
0000
0001
0010
0100
0010
0001
0000
,  // measure 95
1100
0000
1001
0000
0110
0000
1000
0001
,  // measure 96
0010
0000
0001
0000
1000
0000
0000
0000
0110
0000
0000
0000
0010
0100
1000
0001
,  // measure 97
0200
0000
0000
0300
0000
0000
0000
0000
;
