#TITLE:ECHIDNA;
#SUBTITLE:;
#ARTIST:HuΣeR;
#TITLETRANSLIT:;
#SUBTITLETRANSLIT:;
#ARTISTTRANSLIT:HuMeR;
#GENRE:HYBRID BUCHIAGE TRANCE;
#CREDIT:;
#BANNER:ECHIDNA_banner.png;
#BACKGROUND:ECHIDNA.png;
#LYRICSPATH:;
#CDTITLE:;
#MUSIC:ECHIDNA.ogg;
#OFFSET:-0.400000;
#SAMPLESTART:54.639999;
#SAMPLELENGTH:13.000000;
#LASTBEATHINT:284.000000;
#SELECTABLE:YES;
#BPMS:0.000000=146.000000
;
#STOPS:
;
#BGCHANGES:;
#KEYSOUNDS:;
#ATTACKS:;

//---------------dance-single - ----------------
#NOTES:
     dance-single:
     :
     Easy:
     6:
     0.247769,0.322915,0.091283,0.207462,0.000000,209.000000,198.000000,11.000000,25.000000,0.000000,0.000000,0.247769,0.322915,0.091283,0.207462,0.000000,209.000000,198.000000,11.000000,25.000000,0.000000,0.000000:
0000
0000
0000
0000
,
0000
0000
0000
0000
,
0000
0000
0000
0000
,
0000
0000
0000
0000
,
0000
0000
0000
0000
,
0100
0000
1100
0000
,
0001
0000
0011
0000
,
2000
0000
3010
0000
,
0100
0001
0010
1000
,
0010
0001
1000
0010
,
0100
0001
0100
0000
,
0010
1000
0010
0001
,
0100
0001
1000
0000
,
0010
1000
0100
0001
,
0010
0100
1000
0000
,
0100
0001
0010
1000
,
0100
0001
0010
0000
,
2002
0000
0000
0000
,
0000
0000
0000
0000
0000
3003
0000
0000
,
0100
0010
1000
0010
,
0100
0001
0010
0000
,
0220
0000
0030
0000
,
2000
0000
0000
3300
,
0001
0010
1000
0010
,
0100
0001
0010
0000
,
0001
0100
0010
0100
,
0001
0100
0010
0000
,
1000
0100
0010
0100
,
1000
0100
0010
0000
,
0001
0100
0010
1000
,
0100
1000
0010
0001
,
0010
0100
0010
1000
,
0002
0000
0013
0010
,
0200
0010
0000
0301
,
0002
1000
2003
0010
,
3200
0000
0010
0310
,
0002
0000
0103
0010
,
1000
0010
0001
0100
,
0010
1000
0100
0001
,
0010
1000
0100
0001
,
0010
0100
1000
0000
,
0220
0000
0000
0000
,
0000
0000
0000
0000
0000
0330
0000
0000
,
0001
0000
0010
0001
,
0100
0000
0010
1000
,
1100
0000
0101
0000
,
0010
1000
0001
0100
,
0012
0000
1003
0000
,
0100
0010
1000
0100
,
2000
0000
3010
0100
,
0002
0000
0013
0100
,
2000
0000
0000
0010
,
3020
0000
0000
0100
,
0230
0000
0000
0001
,
0302
0000
1003
0000
,
0010
0000
1000
0000
0010
0100
0010
0000
,
0100
0000
0001
0000
0010
0001
0010
0000
,
0100
1000
0010
0001
,
1000
0001
1001
0000
,
0100
0010
1000
0010
,
0100
0001
0010
0000
,
0001
1000
0100
0010
,
1000
0010
0001
0000
,
0100
0001
0010
1000
,
0010
0001
0100
0000
,
0010
1000
0100
0001
,
0100
1000
0010
0000
,
0201
0000
0310
1000
,
0002
0010
1000
0103
,
0220
0000
0000
0000
,
0000
0000
0000
0330
;

//---------------dance-single - ----------------
#NOTES:
     dance-single:
     :
     Medium:
     11:
     0.413738,0.470524,0.041492,0.331939,0.091283,349.000000,344.000000,5.000000,40.000000,0.000000,0.000000,0.413738,0.470524,0.041492,0.331939,0.091283,349.000000,344.000000,5.000000,40.000000,0.000000,0.000000:
0000
0000
0000
0000
,
0000
0000
0000
0000
,
0000
0000
0000
0000
,
0000
0000
0000
0000
,
0000
0000
0000
0000
,
1002
0000
0010
0000
,
0000
0100
0000
0000
1000
0000
0003
0000
,
2010
0000
0001
0000
,
0000
0010
0000
0000
3001
0100
0010
1000
,
0100
1000
0100
0010
,
0001
0000
0100
0000
0010
1000
0010
0000
,
0100
0000
0001
0000
0010
0001
0010
0000
,
0100
1000
0100
0000
1000
0010
0001
0010
,
0100
0001
0100
0001
1000
0010
1000
0000
,
0001
0100
0001
0100
0010
1000
0010
0000
,
1000
0100
0001
0100
1000
0100
1000
0000
,
0001
0010
0100
0010
0001
1000
0001
0000
,
0200
0000
0000
0000
0000
0000
0000
0000
0000
0000
0320
0000
0000
2030
0000
0000
,
3002
0000
0000
0023
0000
0000
0230
0000
0000
2300
0000
0000
0000
0000
0000
0000
,
3001
0100
0010
0100
0001
0100
0010
0000
,
1000
0100
0010
0100
1000
0100
0010
0000
,
0002
0000
0000
0000
0000
0000
0000
0000
0000
0000
0203
0000
0000
2300
0000
0000
,
3200
0000
0000
0320
0000
0000
0032
0000
0000
0023
0000
0000
0000
0000
0000
0000
,
1030
0100
1000
0010
0100
0001
0010
0000
,
0001
0100
0010
1000
0100
1000
0001
0000
,
1000
0010
1000
0000
0010
0100
0010
0000
,
0100
0001
0100
0000
0001
0010
0001
0000
,
0100
0010
0100
0000
0010
1000
0010
0000
,
1000
0100
1000
0000
0001
0010
1000
0010
,
0001
1000
0100
0000
1000
0001
0010
0000
,
0001
0100
0010
0000
1000
0001
0100
0000
,
0010
0100
0010
0100
0001
1000
0001
0000
,
1000
0010
0100
0001
1000
0100
0001
0100
,
2000
0010
0010
3010
,
0200
0301
0020
0001
,
0032
1000
1000
1003
,
0200
0000
0010
0000
0310
1000
0010
0100
,
0002
0010
1000
0013
,
2000
0010
0001
3010
,
0100
0001
0100
0001
1000
0010
1000
0010
,
1000
0100
0010
0001
0100
0010
1000
0000
,
0002
0000
0000
0000
,
2000
0000
0000
3003
,
0120
0000
1030
0100
,
1000
0000
0000
0000
0000
0000
0000
0000
0000
0010
0000
0000
0000
0000
0000
0000
0100
0000
0000
0000
0000
0000
0000
0000
0001
0000
0000
0000
0000
0000
0000
0000
0000
0000
0000
0000
1000
0000
0000
0000
0000
0000
0000
0000
0000
0000
0000
0000
,
0001
0000
0000
0000
0000
0000
0000
0000
0000
0000
0000
0000
0000
0000
0000
0000
0000
0000
0000
0000
0010
0000
0000
0000
0100
0000
0000
0000
0000
0000
0000
0000
0000
1000
0000
0000
0000
0000
0000
0000
0001
0000
0000
0000
0000
0000
0000
0000
,
0100
0000
0010
0000
0100
0000
0020
0000
0000
1030
0000
0000
,
0201
0000
0000
0000
0000
0000
0310
0000
1000
0000
0010
0000
,
1000
0000
0001
0000
0100
0000
0020
0000
0000
0000
0000
0000
,
1030
0000
0000
1000
0000
0001
0100
0000
0010
0000
0100
0000
,
0001
0000
0010
0000
0001
0000
0200
0000
0000
0000
0000
0000
,
0320
1000
1000
1030
,
0200
0001
0001
0301
,
2000
3001
0002
1003
,
0010
0100
0010
0000
1000
0001
1000
0000
,
0001
0100
0001
0000
1000
0010
1000
0000
,
0100
0010
0100
0000
1000
0001
1000
0000
,
0001
0010
0100
1000
0001
0010
0100
1000
,
0010
0100
0001
1000
0200
0000
0000
0000
,
1300
0000
1000
0001
0010
0100
0010
0000
,
0001
0100
0010
0100
0001
1000
0100
0000
,
1000
0010
0100
0010
1000
0001
0010
0000
,
0100
1000
0010
0100
0001
0010
0001
0000
,
1000
0100
0001
0100
1000
0100
0001
0000
,
1000
0010
0001
0010
1000
0010
0001
0000
,
0100
1000
0100
0001
0100
0010
0100
0000
,
0010
1000
0010
0100
0001
0010
0001
0000
,
1002
0203
0320
2030
,
3100
0010
0001
1000
0100
0010
0001
0100
,
0020
0000
0000
0000
,
0000
0000
0000
0000
0000
0000
0000
0030
;

//---------------dance-single - ----------------
#NOTES:
     dance-single:
     :
     Hard:
     15:
     0.622386,0.852824,0.149373,0.448118,0.721968,525.000000,507.000000,18.000000,54.000000,0.000000,0.000000,0.622386,0.852824,0.149373,0.448118,0.721968,525.000000,507.000000,18.000000,54.000000,0.000000,0.000000:
0000
0000
0000
0000
,
0000
0000
0000
0000
,
0000
0000
0000
0000
,
0000
0000
0000
0000
,
0000
0000
0000
0000
,
0120
0000
1000
0000
,
0000
0000
0100
0000
0000
0100
0000
0000
0130
0000
0000
0000
0000
0001
0100
0001
,
2000
0000
0010
0000
,
0000
0000
0001
0000
0000
0001
0000
0000
3001
0000
0100
0000
0010
1000
0010
1000
,
0001
0010
0001
0010
0100
1000
0100
1000
,
0010
0000
0100
0000
0010
0000
0100
0010
1000
0000
0001
0000
0200
0000
0000
0000
,
0310
0000
1000
0000
0001
0000
1000
0100
1000
0000
0001
0000
0010
0000
0001
0100
,
0001
0000
1000
0000
0010
0000
0100
0001
0100
0000
0010
0000
0110
0000
0000
0000
,
1000
0000
0010
0000
1000
0010
1000
0000
0001
0000
0010
0000
0001
0010
0001
0000
,
0100
0000
0001
0000
0100
0001
0100
0000
0010
0000
1000
0000
0010
1000
0010
0000
,
1000
0001
1000
0001
1000
0001
1000
0001
0100
0010
0100
0010
0100
0010
0100
0010
,
1000
0100
1000
0000
0001
0010
0001
0000
2002
0000
0000
0000
3003
0000
0000
0000
,
0020
0000
0000
0000
0100
0000
0000
0000
0130
0000
0200
0000
0000
0302
0000
0000
,
0023
0000
0000
2030
0000
0000
3200
0000
0000
0020
0000
0000
0030
0000
0000
0000
,
1300
0000
0010
0000
0100
0001
0100
0001
0100
0000
0010
0000
1000
0010
1000
0010
,
1000
0000
0001
0000
0100
0001
0100
0001
0100
0000
0010
0000
0200
0000
0000
0000
,
0002
0000
0000
0000
0300
0000
0000
0000
0000
0000
0023
0000
0000
0230
0000
0000
,
2300
0000
0000
3020
0000
0000
0032
0000
0000
0020
0000
0000
0003
0000
0000
0000
,
1030
0000
0001
0000
1000
0100
1000
0100
1000
0000
0001
0000
0010
0001
0010
0001
,
0010
0000
0001
0000
0100
0010
0100
0010
0100
0000
0001
0000
0010
0000
1000
0000
,
0100
0000
1000
0100
0000
1000
0000
0100
0010
0000
0001
0010
0000
0001
0000
0010
,
0001
0000
1000
0010
0000
1000
0000
0010
0100
0000
0001
0100
0000
0001
0000
0100
,
0010
0000
1000
0001
0000
1000
0000
0010
0100
0000
0001
1000
0000
0100
0000
0010
,
0001
0000
1000
0100
0000
1000
0000
0010
0100
0000
0001
0010
0000
0100
0000
0010
,
0001
0000
1000
0100
0000
0010
0000
0100
1000
0000
0001
0100
0000
0010
0000
0100
,
0001
0000
0100
1000
0000
0100
0000
0001
1000
0000
0010
0001
0000
0010
0000
1000
,
0001
0000
0010
0001
0000
0100
0000
0010
1000
0000
0100
0010
0000
0100
0000
1000
,
0010
0100
0010
0000
1000
0001
1000
0000
2002
0000
0000
0000
3003
0000
0000
0000
,
1020
0100
1000
0031
,
0201
1000
0320
1030
,
0021
1000
0100
0031
,
2100
0000
0000
0000
3001
0000
0000
0000
0100
0001
0100
0010
0000
0010
0000
0010
,
1000
0000
0100
0000
1000
0000
0010
0000
0100
0000
0001
0010
0001
0000
1000
0000
,
0010
0100
1000
0100
0010
0100
0002
0000
,
0013
0100
0010
0100
0010
0000
0001
1000
0001
1000
0001
0000
1000
0000
0010
0000
,
0100
0010
0100
0010
0100
0000
0010
0000
1000
0100
0010
0001
0010
0100
1000
0000
,
0002
0203
0320
2030
,
3200
0320
0032
0000
,
1003
0000
0000
0010
0100
0010
0100
0000
0001
0000
1000
0000
,
0010
0000
0100
0000
0001
0000
0012
0000
0000
0003
0100
1000
,
0200
0000
0000
0310
1000
0010
0100
0000
0001
0000
0010
0000
,
0001
0000
1000
0000
1100
0000
1002
0000
0000
0103
0010
0100
,
0002
0000
0000
1003
0010
1000
0001
0000
0100
0000
0010
1000
,
0010
0000
0100
0000
0001
0000
1001
0000
0010
0000
0010
0100
,
0020
0000
0000
1030
0100
0010
0001
0000
1000
0000
0001
0000
,
0100
0000
0001
1000
0000
0010
2000
0000
0000
3001
0010
0100
,
0210
0000
0000
0000
0001
0000
0000
0001
0000
0000
0010
0000
0310
0000
0000
0000
,
0120
0000
0000
0000
1000
0000
0000
1000
0000
0000
0100
0000
0130
0000
0000
0000
,
0001
0000
0010
0000
0100
0000
1000
0010
0000
0100
0001
0000
1000
0000
0100
0000
,
1000
0000
0010
0000
0100
0000
0001
0010
0000
0100
1000
0000
0002
0000
0000
0000
,
0103
0010
0100
0010
0200
0000
0000
0000
0301
0010
0001
0010
0002
0000
0000
0000
,
1003
0010
1000
0010
2000
0000
0000
0000
3001
0100
0001
0100
0002
0000
0000
0000
,
1003
0000
0010
0100
0000
0010
0000
0100
0001
0000
0010
0100
0000
0010
0000
0100
,
1000
0100
1000
0100
0010
0001
0010
0001
2000
0000
0000
0000
3001
0000
0000
0000
,
0100
0000
0001
0000
0010
0000
0001
0100
0010
0000
1000
0000
0100
0000
1000
0000
,
0010
0000
0100
0000
0001
0000
1000
0010
0100
0000
0001
0000
2000
0000
0000
0000
,
3010
0000
0100
0000
0001
0000
1000
0001
0010
0000
0001
0000
0100
0000
0010
0000
,
1000
0000
0100
0000
0010
0000
0001
1000
0100
0000
0020
0100
0000
0100
0000
0130
,
1000
0000
0001
0000
0010
0000
0001
0100
0001
0000
0010
0000
0100
0000
1000
0000
,
0010
0000
1000
0000
0100
0000
1000
0001
1000
0000
0010
0000
0100
0000
0010
0000
,
1000
0010
0110
0000
0001
0010
0110
0000
,
1002
0100
2003
0010
,
3001
0000
0000
0000
0110
0000
0000
0000
1000
0000
0000
0001
0000
0000
1000
0000
,
0010
0100
0010
0100
0010
0000
1000
0000
0001
1000
0100
0010
0100
1000
0001
0100
,
0020
0000
0000
0000
,
0000
0000
0000
0000
0000
0000
0000
0030
;

//---------------dance-single - ----------------
#NOTES:
     dance-single:
     :
     Challenge:
     17:
     0.904534,1.090005,0.248954,0.763460,1.423189,763.000000,733.000000,30.000000,92.000000,0.000000,0.000000,0.904534,1.090005,0.248954,0.763460,1.423189,763.000000,733.000000,30.000000,92.000000,0.000000,0.000000:
0000
0000
0000
0000
,
0000
0000
0000
0000
,
0000
0000
0000
0000
,
0000
0000
0000
0000
,
0000
0000
0000
0000
0000
0000
0000
0000
0000
0000
0000
0000
0001
0010
0100
1000
0010
0100
0001
0010
0100
1000
0001
1000
,
0020
0000
0000
0000
0130
0000
0001
1000
0002
0000
0000
0000
0013
0000
0100
1000
,
0020
0000
1000
0000
1030
0001
0000
1000
0002
0000
0010
0000
0013
0100
1000
0001
,
0200
0000
0000
0000
0310
0000
0100
0001
2000
0000
0010
0000
3010
0000
0100
0001
,
2000
0000
0000
0000
0000
0000
0010
0000
0000
0000
0000
0000
0000
0000
0000
3010
0000
0000
0100
0000
0000
0001
0000
0000
0100
0000
0010
0000
1000
0000
0100
0000
0010
0000
0001
0000
1000
0000
0001
0000
0010
0000
0100
0000
0000
0000
0000
0000
,
1000
0000
0010
0000
1000
0000
0001
0010
0100
0000
1000
0000
0010
0000
0100
0001
,
0010
0000
0001
0000
1000
0000
0001
0100
0010
0000
1000
0000
0001
0010
0100
1000
,
0010
0000
0100
0000
0001
0000
0010
0001
1000
0000
0010
0000
0100
0001
1000
0000
,
0010
0000
1000
0000
0001
0010
0100
0010
0001
0000
1000
0010
0000
1000
0010
0100
,
0001
0100
0010
0000
0010
0100
0001
0100
0001
0010
0001
0000
0001
0010
0001
0100
,
0010
1000
0100
0000
0100
1000
0010
1000
0100
1000
0010
0000
0010
0100
1000
0100
,
0010
1000
0100
0010
0100
1000
0001
0100
0010
0100
0001
0010
0100
0010
0001
1000
,
0001
1000
0001
1000
0001
1000
0010
0100
0010
0100
0010
0100
0002
0000
0000
0000
0000
0000
0023
0000
0000
0000
0000
0000
,
0130
1000
0010
0100
0001
0010
0100
1000
0002
0000
0020
0003
0000
2030
0000
0000
,
3002
0000
0000
0200
0003
0000
0020
0000
0030
2000
0000
0000
0300
0000
0000
0000
,
3001
0100
0001
0000
1000
0010
0100
0001
0010
0100
1000
0000
0001
1000
0010
0100
,
0001
0100
0010
0000
1000
0100
0010
0001
0100
0010
1000
0001
0000
0100
0001
0100
,
0010
0000
1000
0010
1000
0001
0010
0001
1000
0000
0020
0000
0000
0002
0030
0000
,
0020
0003
0000
0200
0000
0030
0302
0000
0000
0020
0000
0000
0000
0030
0000
0000
,
1003
0010
0100
0000
0001
0010
0100
1000
0010
0100
0010
0000
1000
0001
0010
0100
,
0010
0000
0000
0001
0000
0000
1000
0000
0000
0000
0000
0000
0010
0000
0000
0100
0000
0000
0001
0000
0000
0010
0000
0000
0001
0000
0010
0000
0100
0000
1000
0000
0001
0000
0010
0000
0100
0000
1000
0000
0010
0000
0100
0000
0001
0000
0000
0000
,
2000
0000
3010
0100
0000
0101
0000
0001
0020
0000
0130
1000
0000
1001
0000
0010
,
0200
0000
0301
1000
0000
1010
0000
0100
0002
0000
0013
0001
0000
1001
0000
0010
,
0200
0000
0310
1000
0000
0011
0000
1000
0200
0000
1300
0010
0000
1100
0000
0001
,
0020
0000
0031
0100
0000
0110
0000
1000
0001
0100
1000
0100
0000
0100
0010
0100
,
0001
0010
0001
2000
0000
3010
0100
0010
1000
0100
0010
0200
0000
1300
0010
1000
,
0001
0010
0001
2000
0000
3010
0100
0010
1000
0100
0010
0200
0000
1300
0001
1000
,
0010
0100
0001
0200
0000
0301
0010
0001
1000
0010
0100
0020
0000
1030
0100
1000
,
0001
0010
0100
1000
0001
0010
0100
1000
1002
0000
0003
0000
0210
0000
0000
0000
,
0301
0010
0001
0200
0000
0310
1000
0010
1000
0100
0010
0200
0000
1300
0010
1000
,
0001
0010
0100
0020
0000
0031
1000
0001
0100
0010
1000
0001
0010
0100
2000
0000
,
3010
0100
0010
2000
0000
3100
0010
0001
0100
0010
0100
0002
0000
0013
0100
0010
,
0001
1000
0001
0000
1000
0010
1000
0000
0001
1000
0100
0010
0000
0210
0000
0310
,
0001
0000
1000
0000
0010
0000
1000
0000
0001
0000
0100
0010
0001
0000
0010
0000
,
1000
0000
0100
0000
0010
0000
0001
0000
1000
0010
0100
0010
0002
0000
0000
0000
,
0013
0100
0010
0100
0020
0000
1030
0001
1000
0001
0020
0000
0031
1000
0001
0000
,
0100
0000
0000
0010
0000
0000
0100
0000
0000
0010
0000
0000
0100
0000
0000
0010
0000
0000
0100
0000
0000
0001
0000
0000
1000
0000
0010
0000
1000
0000
0010
0000
1000
0000
0010
0000
0100
0000
0001
0000
0100
0000
0001
0000
0100
0000
0001
0000
,
1000
0001
1000
0001
1000
0010
1000
0010
0100
0001
0100
0001
0010
0001
0010
0001
,
2000
3002
2003
3002
2003
3002
0023
0230
2300
3200
0320
0031
,
2001
0000
0000
3100
0010
0100
2100
0000
3010
0000
0102
0000
,
0013
0000
1100
0000
0101
0000
0120
0000
1000
0030
1000
0100
,
0120
0000
0001
0030
0001
0100
0120
0000
1030
0000
2100
0000
,
3001
0000
0110
0000
1000
0001
0010
0001
0100
0010
1000
0100
,
0210
0000
0000
1300
0001
1000
1020
0000
0130
0001
1000
0001
,
0010
0000
1100
0000
0101
0000
0210
0000
0301
0010
0001
1000
,
1020
0000
0000
0130
0001
1000
0200
0000
0001
0000
1300
0001
,
1000
0000
0001
0100
0000
0001
0020
0000
0000
0130
0001
0100
,
2000
0000
0010
0000
0010
0000
0000
0100
0000
3010
0000
0100
1000
0000
0020
0000
,
0100
0000
0001
0000
0001
0000
0000
1000
0000
0130
0000
1000
0010
0000
0200
0000
,
0001
0000
0010
0000
0010
0000
0000
1000
0000
0310
0000
1000
0100
0000
0001
0000
,
0020
0000
0000
0000
0000
0000
0001
0000
0000
0000
0000
0000
0001
0000
0000
0000
0000
0000
0000
0000
0000
0130
0000
0000
1000
0000
0001
0000
1000
0000
0001
0000
1000
0000
0001
0000
2000
0000
0000
0000
0000
0000
0000
0000
0000
0000
0000
0000
,
3001
0010
0100
1000
0002
0000
0000
0000
1003
0010
0100
0001
0020
0000
0000
0000
,
0031
0100
1000
0100
0002
0000
0000
0000
1003
0010
0001
0010
2000
0000
0000
0000
,
3010
0000
0100
0001
0000
0010
0001
1000
0010
0000
1000
0010
0000
1000
0100
0010
,
0001
0100
0001
0100
0010
1000
0010
1000
0010
0000
1000
0000
0210
0000
0000
0000
,
0301
0010
0001
0000
1000
0100
0010
0001
1000
0000
0010
1000
0000
0001
0010
0001
,
0100
0001
0100
0000
0010
0100
0010
0000
1000
0001
0010
0100
0010
0001
1000
0000
,
0010
0100
0001
0000
0010
0100
1000
0000
0010
0000
0100
0010
0000
1000
0001
1000
,
0100
0010
0100
0000
0010
0100
1000
0000
0001
1000
0010
0100
0000
0012
0000
1003
,
0100
0000
0001
0000
0100
0000
1000
0010
1000
0000
0001
0000
0010
0000
0100
0000
,
0010
0000
0001
1000
0000
0010
1000
0010
0200
0000
0302
0000
0023
0000
2030
0000
,
3010
0000
0001
0000
1001
0000
0000
0000
0010
0000
0100
0010
0000
1000
0100
1000
,
0010
0100
0001
0000
0010
0100
1000
0000
0001
1000
0100
0010
0001
1000
0100
0010
,
0002
0000
0100
0000
0200
0000
0003
0000
2000
0300
0000
3010
0000
0000
0110
0000
,
1000
0000
0000
0010
0000
0000
0100
0000
0000
0001
0000
0000
0010
0000
0000
0100
0000
0000
1000
0000
0000
0000
0000
0000
0010
0000
0100
0000
0010
0000
1000
0000
0100
0000
0010
0000
0001
0000
1000
0000
0100
0000
0010
0000
0001
0000
2000
0000
,
0020
0000
0000
3000
,
0002
0000
0000
0000
,
0033
0000
0000
0000
;

//---------------dance-double - ----------------
#NOTES:
     dance-double:
     :
     Hard:
     15:
     0.605789,0.823417,0.149373,0.456416,0.684625,511.000000,493.000000,18.000000,55.000000,0.000000,0.000000,0.605789,0.823417,0.149373,0.456416,0.684625,511.000000,493.000000,18.000000,55.000000,0.000000,0.000000:
00000000
00000000
00000000
00000000
,
00000000
00000000
00000000
00000000
,
00000000
00000000
00000000
00000000
,
00000000
00000000
00000000
00000000
,
00000000
00000000
00000000
00000000
,
00021000
00000000
00000020
00030000
,
00000000
00000000
00001000
00000000
00000000
00001000
00000000
00000000
00000130
00000000
00000000
00000000
00000000
00000001
00000010
00000100
,
00002000
00000000
00000020
00003000
,
00000000
00000000
00010000
00000000
00000000
00010000
00000000
00000000
00001030
00000000
00000100
00000000
00010000
00001000
00010000
00000000
,
00001000
00000000
01000000
00000000
00010000
00000000
00100000
00010000
10000000
00000000
00100000
00000000
01000000
00000000
00010000
10000000
,
01000000
00000000
10000000
00000000
00010000
00000000
00100000
00001000
00010000
00000000
00001000
00000000
00011000
00000000
00000000
00000000
,
00010000
00000000
00000010
00000000
00000100
00000000
00000001
00001000
00000010
00000000
00000100
00000000
00000001
00000000
00000010
00000001
,
00001000
00000000
00000100
00000000
00010000
00000000
00000010
00010000
00001000
00000000
00010000
00000000
00001000
00100000
00001000
00000000
,
00010000
00000000
00001000
00000000
01000000
00000000
00010000
00100000
00010000
00000000
10000000
00000000
00100000
00000000
10000000
01000000
,
10000000
00000000
00010000
00000000
00100000
00000000
00001000
00010000
00001000
00000000
00010000
00000000
00000010
00000000
00000100
00000000
,
00000001
00000010
00000001
00000010
00000001
00000010
00000001
00000010
00000100
00001000
00000100
00001000
00000100
00001000
00000100
00001000
,
00000100
00010000
00001000
00000000
00100000
00001000
00010000
00000000
00022000
00000000
00000000
00000000
00030000
00000000
00000000
00000000
,
00200000
00000000
00000000
00000000
00003000
00000000
00000000
00000000
00000000
00000000
00320000
00000000
00000000
20030000
00000000
00000000
,
30200000
00000000
00000000
00320000
00000000
00000000
00002000
00030000
00000000
00000200
00000000
00000000
00003000
00000000
00000000
00000000
,
00000301
00000000
00000010
00000000
00000001
00001000
00000010
00001000
00000100
00000000
00010000
00000000
00001000
00100000
00001000
00100000
,
00010000
00000000
10000000
00000000
00010000
01000000
00010000
01000000
00100000
00000000
10000000
00000000
11000000
00000000
00000000
00000000
,
20200000
00000000
00000000
00000000
00000000
00000000
30000000
00000000
00000000
00000000
00320000
00000000
00000000
00032000
00000000
00000000
,
00003200
00000000
00000000
00000302
00000000
00000000
00000023
00000000
00000000
00002000
00000000
00000000
00000030
00000000
00000000
00000000
,
00013000
00000000
00000010
00000000
00010000
00000100
00010000
00000100
00001000
00000000
00000001
00000000
00000010
00000001
00000010
00000001
,
00001000
00000000
00000010
00000000
00010000
00001000
00010000
00001000
00200000
00000000
00000000
00000000
02300000
00000000
00000000
00000000
,
13000000
00000000
00100000
10000000
00000000
00010000
00000000
00100000
00010000
00000000
01000000
10000000
00000000
01000000
00000000
00010000
,
00100000
00000000
00001000
00010000
00000000
00000100
00000000
00010000
00001000
00000000
01000000
00001000
00000000
00010000
00000000
00000010
,
00001000
00000000
00000001
00000010
00000000
00000001
00000000
00000100
00000010
00000000
00001000
00000100
00000000
00000001
00000000
00000100
,
00001000
00000000
00000010
00010000
00000000
00001000
00000000
00100000
00001000
00010000
00001000
00100000
00000000
00100000
00000000
00001000
,
00010000
00000000
00001000
01000000
00000000
00010000
00000000
00100000
00010000
00000000
10000000
01000000
00000000
10000000
00000000
00100000
,
01000000
00000000
00010000
00100000
00000000
00001000
00000000
00010000
00000100
00000000
00001000
00000010
00000000
00001000
00000000
00000001
,
00000010
00000000
00000001
00000100
00000000
00000001
00000000
00001000
00000010
00000000
00010000
00000100
00000000
00010000
00000000
00001000
,
00010000
00000100
00010000
00000000
00001000
01000000
00001000
00000000
00022000
00000000
00000000
00000000
00030000
00000000
00000000
00000000
,
00203000
00010000
10000000
01000000
,
00302000
00010000
00000100
00013000
,
00010020
00000100
00001000
00010030
,
00010200
00000000
00000000
00000000
00000001
00000000
00000000
00000000
00001300
00000001
00001000
00000010
00000000
00000010
00000000
00000010
,
00010000
00000000
00000100
00000000
00010000
00000000
00001000
00000000
00100000
00000000
00010000
10000000
00020000
00000000
00000000
00000000
,
01030000
00000000
00100000
00000000
10000000
00000000
00010000
00000000
00100000
00000000
00001000
00010000
00002000
00000000
00000000
00000000
,
00013000
00000100
00010000
00000100
00010000
00000000
00001000
01000000
00001000
01000000
00001000
00000000
00010000
00000010
00010000
00000000
,
00000010
00001000
00000100
00010000
00021000
00000000
00000000
00000000
,
00030020
00000230
00000302
00000023
,
00002030
00023000
02030000
00000000
,
13000000
00000000
00000000
00100000
01000000
00100000
10000000
00000000
00010000
00000000
00100000
00000000
,
00001000
00000000
00010000
00000000
01000000
00000000
02100000
00000000
00000000
03000000
00100000
00001000
,
00100000
00000000
00000000
00001000
00010000
00000100
00010000
00000000
00000010
00000000
00001000
00000000
,
00000001
00000000
00000010
00000000
00000100
00000000
00002002
00000000
00000000
00003003
00000000
00000000
,
00000110
00000000
00000000
00001000
00000100
00001000
00000010
00000000
00010000
00000000
00001000
00000000
,
00100000
00000000
00010000
00000000
10000000
00000000
10010000
00000000
00000000
01000000
00100000
01000000
,
00020000
00000000
00000000
00130000
00001000
00100000
00000100
00000000
00001000
00000000
00000001
00000000
,
00000100
00000000
00000010
00000100
00000000
00000001
00000100
00000000
00000000
00001010
00000000
00000000
,
00000210
00000000
00000000
00000000
00000001
00000000
00000000
00000001
00000000
00000000
00000010
00000000
00000310
00000000
00000000
00000000
,
00002010
00000000
00000000
00000000
00000100
00000000
00000000
00000100
00000000
00000000
00000001
00000000
00003001
00000000
00000000
00000000
,
00010000
00000000
00000010
00000000
00010000
00000000
00000100
00010000
00000000
00001000
00010000
00000000
00001000
00000000
00010000
00000000
,
00001000
00000000
00100000
00000000
00001000
00000000
01000000
00010000
20000000
00000000
00000000
00000000
00000000
00000000
00000000
00000000
,
30100000
01000000
00100000
01000000
00200000
00000000
00000000
00000000
10300000
01000000
10000000
01000000
20000000
00000000
00000000
00000000
,
30010000
00100000
00010000
00100000
00020000
00000000
00000000
00000000
01030000
00001000
01000000
00001000
02000000
00000000
00000000
00000000
,
03001000
00000000
00010000
00000010
00000000
00010000
00000000
00001000
00010000
00000000
00000010
00000100
00000000
00000001
00000000
00000010
,
00000001
00001000
00000100
00000000
00010000
00000010
00001000
00000000
00000200
00000000
00000000
00000000
00001000
00000000
00000000
00000000
,
00010300
00000000
00001000
00000000
00100000
00000000
00001000
00010000
00001000
00000000
00100000
00000000
01000000
00000000
10000000
00000000
,
00010000
00000000
10000000
00000000
00100000
00000000
01000000
00001000
00100000
00000000
00010000
00000000
00200000
00000000
00000000
00000000
,
00301000
00000000
00010000
00000000
00000010
00000000
00001000
00000001
00000010
00000000
00000001
00000000
00000100
00000000
00000010
00000000
,
00001000
00000000
00000100
00000000
00010000
00000000
00001000
00000000
00100000
00000000
00001000
00010000
00000000
00010000
00000000
00010000
,
00001000
00000000
00100000
00000000
00010000
00000000
10000000
00010000
10000000
00000000
00100000
00000000
01000000
00000000
00010000
00000000
,
00100000
00000000
00001000
00000000
00010000
00000000
00000010
00000100
00000010
00000000
00001000
00000000
00000100
00000000
00000010
00000000
,
00000001
00001000
00001010
00000000
00000100
00000010
00010010
00000000
,
00010000
00000000
00000100
00000000
00001000
00000000
00000100
00000000
00010000
00001000
00010000
00001000
00010000
00000000
00000000
00000000
,
00002000
00000000
00000000
00000000
02003000
00000000
00000000
00000000
03100000
00000000
00000000
10000000
00000000
00000000
01000000
00000000
,
00100000
00001000
00010000
00001000
00010000
00000000
00000010
00000000
00001000
00000001
00000010
00000100
00001000
00000010
00010000
00001000
,
00200000
00000000
00000000
00000000
,
00000000
00000000
00000000
00000000
00000000
00000000
00000000
00300000
;

//---------------dance-double - ----------------
#NOTES:
     dance-double:
     :
     Challenge:
     17:
     0.878453,1.031086,0.199164,0.605789,1.373398,741.000000,717.000000,24.000000,73.000000,0.000000,0.000000,0.878453,1.031086,0.199164,0.605789,1.373398,741.000000,717.000000,24.000000,73.000000,0.000000,0.000000:
// measure 0
00000000
00000000
00000000
00000000
,  // measure 1
00000000
00000000
00000000
00000000
,  // measure 2
00000000
00000000
00000000
00000000
,  // measure 3
00000000
00000000
00000000
00000000
,  // measure 4
00000000
00000000
00000000
00000000
00000000
00000000
00000000
00000000
00000000
00000000
00000000
00000000
00100000
00001000
00010000
01000000
00100000
10000000
01000000
00100000
00010000
00100000
01000000
10000000
,  // measure 5
00020000
00000000
00000000
00000000
01030000
00000000
00100000
10000000
00020000
00000000
00000000
00000000
00130000
00000000
00001000
00010000
,  // measure 6
00000010
00000000
00001000
00000000
00000100
00001000
00000000
00000001
00000100
00000000
00000010
00000000
00001000
00000001
00000010
00000100
,  // measure 7
00002000
00000000
00000000
00000000
00003010
00000000
00010000
00000100
00002000
00000000
00000000
00000000
00003001
00000000
00000010
00001000
,  // measure 8
00010000
00000000
00000000
00000000
00000000
00000000
00001000
00000000
00000000
00000000
00000000
00000000
00100000
00000000
00000000
00010000
00000000
00000000
00000000
00000000
00000000
10000000
00000000
00000000
00100000
00000000
10000000
00000000
00010000
00000000
10000000
00000000
01000000
00000000
00100000
00000000
00010000
00000000
00100000
00000000
01000000
00000000
10000000
00000000
00010000
00000000
00000000
00000000
,  // measure 9
01000000
00000000
00010000
00000000
00100000
00000000
00001000
00010000
00000100
00000000
00010000
00000000
00000100
00000000
00001000
00000001
,  // measure 10
00000100
00000000
00000010
00000000
00001000
00000000
00000001
00000010
00000100
00000000
00010000
00000000
00000100
00001000
00000100
00010000
,  // measure 11
00001000
00000000
01000000
00000000
00010000
00000000
10000000
00100000
01000000
00000000
00010000
00000000
00100000
00000000
00001000
00010000
,  // measure 12
00000100
00000000
00010000
00000000
00000010
00000000
00001000
00000001
00001000
00000000
00000010
00000100
00000000
00000010
00001000
00000001
,  // measure 13
00000010
00000000
00000100
00000000
00001000
00000010
00010000
00000100
00001000
00000000
00000100
00000000
00010000
00001000
00100000
00001000
,  // measure 14
00010000
00000000
00000010
00000000
00001000
00000100
00010000
00001000
01000000
00000000
00001000
00000000
00100000
00010000
10000000
00010000
,  // measure 15
01000000
00100000
10000000
01000000
10000000
00010000
00100000
00010000
01000000
00001000
00010000
00000100
00001000
00000010
00000100
00000001
,  // measure 16
00000010
00000001
00001000
00000001
00001000
00000010
00001000
00000001
00000010
00000100
00001000
00000001
00000020
00000000
00000000
00000000
00000000
00000000
00000000
00000000
00000000
00000000
00000000
00000000
,  // measure 17
00000031
00001000
00000001
00000100
00000010
00001000
00000100
00010000
00001000
00000000
00200000
00000000
00000000
00320000
00000000
00000000
,  // measure 18
20030000
00000000
00000000
30020000
00000000
00000000
00030200
00000000
00000000
00000020
00000000
00000000
00000000
00000000
00000300
00000000
,  // measure 19
00001030
00000001
00000100
00000000
00000010
00010000
00000100
00010000
00001000
00100000
00001000
00000000
01000000
00100000
10000000
00010000
,  // measure 20
00100000
01000000
10000000
00000000
00010000
00100000
00001000
00010000
00000100
00010000
00000100
00001000
00000000
00000001
00000010
00000001
,  // measure 21
00000100
00000000
00000010
00001000
00000100
00010000
00001000
00100000
02000000
00000000
23000000
00000000
00000000
30200000
00000000
00000000
,  // measure 22
00302000
00000000
00000000
00003020
00000000
00000000
00002030
00000000
00000000
00020000
00000000
00000000
00003000
00000000
00000000
00000000
,  // measure 23
00130000
01000000
00100000
00000000
10000000
00010000
00100000
00001000
00010000
00000100
00010000
00000000
00000010
00000100
00000001
00001000
,  // measure 24
00000001
00000000
00000000
00000010
00000000
00000000
00000100
00000000
00000000
00000000
00000000
00000000
00010000
00000000
00000000
00000100
00000000
00000000
00010000
00000000
00000000
00001000
00000000
00000000
00100000
00000000
00010000
00000000
10000000
00000000
00010000
00000000
00100000
00000000
01000000
00000000
10000000
00000000
00010000
00000000
10000000
00000000
00100000
00000000
00000000
00000000
00000000
00000000
,  // measure 25
02000000
00000000
03001000
00010000
00000000
00010100
00000000
00001000
00000020
00000000
00000130
00000001
00000000
00000101
00000000
00001000
,  // measure 26
00000020
00000000
00010030
00000100
00000000
00010100
00000000
00100000
00002000
00000000
00013000
00100000
00000000
01100000
00000000
10000000
,  // measure 27
00010000
00000000
10000000
00100000
00000000
02100000
00000000
03010000
00100000
00000000
00001000
01000000
00000000
01002000
00000000
00013000
,  // measure 28
00000100
00000000
00010000
00000010
00000000
00010200
00000000
00001300
00000001
00000010
00000100
00001000
00000000
00000110
00000000
00000010
,  // measure 29
00010000
00001000
00100000
00002000
00000000
00013000
00000100
00010000
00001000
01000000
00010000
02000000
00000000
03100000
10000000
00010000
,  // measure 30
00100000
01000000
10000000
00020000
00000000
01030000
00001000
01000000
00010000
00100000
00001000
00020000
00000000
00030100
00001000
00000001
,  // measure 31
00000100
00000010
00000100
00000002
00000000
00000013
00000100
00001000
00000010
00010000
00000100
00020000
00000000
00031000
00100000
00001000
,  // measure 32
01000000
00010000
10000000
00100000
01000000
00010000
10000000
00100000
02100000
00000000
03000000
00000000
00202000
00000000
00300000
00000000
,  // measure 33
00013000
00000010
00010000
00000100
00000000
00001000
00000001
00001000
00000010
00000100
00000001
00010000
00000000
00000010
00001000
00000010
,  // measure 34
00010000
00000100
00100000
00001000
00000000
00010000
00001000
00010000
00100000
01000000
10000000
00100000
01000000
00010000
00100000
00000000
,  // measure 35
00001000
01000000
00010000
01000000
00000000
00100000
10000000
00100000
01000000
00010000
00100000
00001000
00000000
00010000
00000100
00010000
,  // measure 36
00000010
00001000
00000001
00000000
00000010
00000100
00001000
00000000
00000001
00001000
00000100
00010000
00000000
00012000
00000000
00013000
,  // measure 37
00000010
00000000
00000100
00000000
00000001
00000000
00001000
00000000
00000100
00000000
00010000
00001000
01000000
00000000
00010000
00000000
,  // measure 38
10000000
00000000
00100000
00000000
01000000
00000000
00010000
00000000
00100000
00001000
00100000
00010000
00100000
00000000
00000000
00000000
,  // measure 39
00001000
00100000
00010000
01000000
00010000
00000000
00100000
00001000
00010000
00000100
00010000
00000000
00000010
00001000
00000010
00000000
,  // measure 40
00000100
00000000
00000000
00000001
00000000
00000000
00000010
00000000
00000000
00000100
00000000
00000000
00001000
00000000
00000000
00000000
00000000
00000000
00000020
00000000
00000000
00000000
00000000
00000000
00010030
00000000
00001000
00000000
00100000
00000000
00001000
00000000
00100000
00000000
00010000
00000000
10000000
00000000
00010000
00000000
10000000
00000000
01000000
00000000
00000000
00000000
00000000
00000000
,  // measure 41
10000000
00100000
01000000
00010000
00100000
00001000
00010000
00000100
00001000
00000010
00000100
00000001
00000010
00000100
00010000
00001000
,  // measure 42
00200000
02300000
23000000
30020000
00230000
00302000
00023000
00030200
00020300
00032000
00203000
00301000
,  // measure 43
00021000
00000000
00000000
00030010
00000100
00000010
00001000
00000000
00001002
00000000
00000013
00000100
,  // measure 44
00010000
00000000
00001000
00000000
00100000
00000000
00102000
00000000
00013000
00000000
00000010
00010000
,  // measure 45
00002000
00000000
00103000
00010000
10000000
00100000
01000000
00000000
01100000
00000000
00010000
00100000
,  // measure 46
00001000
00000000
00010100
00000000
00001000
00100000
01000000
10000000
00010000
00100000
00001000
00010000
,  // measure 47
00021000
00000000
00000000
00030100
00001000
00000001
00000100
00000000
00000110
00000000
00000010
00010000
,  // measure 48
00000100
00000000
00001001
00000000
00000010
00000000
00020100
00000000
00001000
00000000
00030100
00001000
,  // measure 49
00000020
00000000
00001000
00010030
00001000
00010000
00000200
00000000
00020300
00000000
01030000
10000000
,  // measure 50
00100000
00000000
10000000
00100000
00000000
00010000
00100000
00000000
01000000
00010000
00100000
00001000
,  // measure 51
00020000
00000000
01000000
00000000
01000000
00000000
00000000
10000000
00000000
10030000
00000000
10000000
00010000
00000000
00001000
00000000
,  // measure 52
00020000
00000000
00000010
00000000
00000010
00000000
00000000
00000100
00000000
00030100
00000000
00000100
00001000
00000000
00000001
00000000
,  // measure 53
00000100
00000000
00000010
00000000
00000100
00000000
00001000
00000100
00000000
00000001
00000000
00000010
00000001
00000000
00010000
00000000
,  // measure 54
00000010
00000000
00000000
00000000
00000000
00000000
00001000
00000000
00000000
00000000
00000000
00000000
00000100
00000000
00000000
00000000
00000000
00000000
00010000
00000000
00000000
00001000
00000000
00000000
00010000
00000000
00000100
00000000
00001000
00000000
00000100
00000000
00010000
00000000
00001000
00000000
00200000
00000000
00000000
00000000
00000000
00000000
00000000
00000000
00000000
00000000
00000000
00000000
,  // measure 55
00310000
10000000
01000000
10000000
00020000
00000000
00000000
00000000
00130000
00000100
00001000
00000100
00200000
00000000
00000000
00000000
,  // measure 56
00300010
00010000
00001000
00010000
00000200
00000000
00000000
00000000
00001300
00000010
00000001
00000010
00002000
00000000
00000000
00000000
,  // measure 57
00003100
00010000
00000100
00001000
00000000
00000010
00000000
00000100
00000001
00000010
00000001
00001000
00000000
00000100
00000000
00010000
,  // measure 58
00001000
00100000
00010000
01000000
00100000
10000000
01000000
00010000
01000000
00000000
00100000
00000000
01100000
00000000
00000000
00000000
,  // measure 59
00001000
01000000
00001000
00000000
00010000
00000000
00000010
00000100
00000001
00000000
00000010
00000001
00000000
00001000
00000100
00010000
,  // measure 60
00001000
00100000
00001000
00000000
01000000
00010000
00100000
01000000
10000000
00000000
00010000
00000000
00100000
01000000
10000000
00010000
,  // measure 61
00100000
00001000
00100000
00000000
00010000
00000100
00001000
00000100
00010000
00000000
00000010
00000100
00000000
00000001
00000100
00000010
,  // measure 62
00001000
00000100
00010000
00000000
00000010
00000100
00000001
00000000
00000010
00000100
00001000
00000100
00000000
00011000
00000000
00010000
,  // measure 63
00001000
00000000
00100000
00000000
00010000
00000000
10000000
00100000
10000000
00000000
00010000
00000000
00200000
00000000
00300020
00000000
,  // measure 64
00001030
00000000
00000001
00000010
00000000
00000001
00001000
00000010
00010000
00000000
00001000
00000000
00100000
00000000
00010000
00000000
,  // measure 65
10000000
00000000
00010000
00000000
01200000
00000000
00000000
00000000
00301000
00000000
00010000
00000010
00000000
00001000
00000001
00001000
,  // measure 66
00000200
00010000
00001000
00010300
00002000
01000000
00010000
01003000
,  // measure 67
02001000
00000000
00000000
00000000
00020000
00000000
03000000
00000000
00030020
00000000
00000000
00001000
00010030
00000000
00000010
00000000
,  // measure 68
00000100
00000000
00000000
00000001
00000000
00000000
00001000
00000000
00000000
00000100
00000000
00000000
00010000
00001000
00100000
00010000
10000000
01000000
00100000
00010000
10000000
00100000
01000000
00001000
,  // measure 69
00020000
00000000
00000000
00000000
,  // measure 70
00000002
00000000
00000000
00000000
,  // measure 71
00030003
00000000
00000000
00000000
;
