#TITLE:Dynamite;
#SUBTITLE:;
#ARTIST:USAO;
#TITLETRANSLIT:;
#SUBTITLETRANSLIT:;
#ARTISTTRANSLIT:;
#GENRE:HYBRID TWERK;
#CREDIT:;
#BANNER:Dynamite_banner.png;
#BACKGROUND:Dynamite.png;
#LYRICSPATH:;
#CDTITLE:;
#MUSIC:Dynamite.ogg;
#OFFSET:0.220000;
#SAMPLESTART:21.370001;
#SAMPLELENGTH:18.000000;
#LASTBEATHINT:268.979980;
#SELECTABLE:YES;
#BPMS:0.000000=100.000000
,123.000000=200.000000
,252.000000=100.000000
;
#STOPS:123.000000=0.300000
;
#BGCHANGES:;
#KEYSOUNDS:;
#ATTACKS:;

//---------------dance-single - BASIC----------------
#NOTES:
     dance-single:
     BASIC:
     Easy:
     6:
     0.242628,0.256728,0.146016,0.153701,0.000000,221.000000,202.000000,19.000000,20.000000,0.000000,0.000000,0.242628,0.256728,0.146016,0.153701,0.000000,221.000000,202.000000,19.000000,20.000000,0.000000,0.000000:
0000
0000
0000
0000
,
1000
0100
1000
0000
,
0001
0010
0001
0000
,
1000
0100
0010
0001
,
0100
0010
1000
0001
,
1001
0010
0000
0100
,
0000
1000
0000
0001
,
1000
0100
1000
0000
,
0001
0010
0001
0000
,
0220
0000
0330
0000
,
2002
0000
0000
3003
,
1000
0100
2000
3000
,
0001
0100
0002
0003
,
1000
0010
2000
3000
,
0001
0010
0002
0003
,
1000
0001
1000
0001
,
1000
0001
1000
0001
,
0100
0010
0100
0010
,
0100
0010
0100
0110
,
1000
0010
0100
0000
,
0001
0010
0100
0000
,
1000
0100
0010
0000
,
0001
0100
0010
0000
,
0200
0000
0320
0000
,
2030
0000
3002
0000
,
2003
0000
3200
0000
,
0320
0000
0032
0003
,
1000
1000
1000
0000
,
0010
0010
0010
0000
,
0100
0100
0100
0000
,
0001
0000
0000
0000
0000
0000
0000
0000
0000
0000
0000
0000
0000
0000
0000
0000
0000
0000
0000
0000
0000
0000
0000
0000
0000
0000
0000
0000
0000
0000
0000
0000
0000
0000
0000
0000
0000
0000
0000
0000
0000
0000
0000
0000
0000
0000
0000
0000
1000
0000
0000
0000
0000
0000
0000
0000
0000
0000
0000
0000
0000
0000
0000
0000
0000
0000
0000
0000
0000
0000
0000
0000
0000
0000
0000
0000
0000
0000
0000
0000
0000
0000
0000
0000
0000
0000
0000
0000
0000
0000
0000
0000
0000
0000
0000
0000
0001
0000
0000
0000
0000
0000
0000
0000
0000
0000
0000
0000
0000
0000
0000
0000
0000
0000
0000
0000
0000
0000
0000
0000
0000
0000
0000
0000
0000
0000
0000
0000
0000
0000
0000
0000
0000
0000
0000
0000
0000
0000
0000
0000
0000
0000
0000
0000
2002
3003
0000
0000
0000
0000
0000
0000
0000
0000
0000
0000
0000
0000
0000
0000
0000
0000
0000
0000
0000
0000
0000
0000
0000
0000
0000
0000
0000
0000
0000
0000
0000
0000
0000
0000
0000
0000
0000
0000
0000
0000
0000
0000
0000
0000
0000
0000
,
1000
0100
1000
0000
,
0001
0010
0001
0000
,
0010
0100
0010
0000
,
0100
1000
0100
0000
,
0001
0010
0100
0000
,
1000
0100
0010
0000
,
0001
0001
0001
0000
,
1000
1000
1000
0000
,
0000
1001
0000
1001
,
0000
1001
0000
1001
,
0000
0110
0000
0110
,
0000
0110
0000
0110
,
0010
0100
0010
0000
,
1000
0001
1000
0000
,
1000
0100
1100
0000
,
0001
0010
0011
0000
,
1000
0100
0010
0100
,
1000
0001
0100
0000
,
0001
0010
0100
0010
,
0001
1000
0010
0000
,
0001
0010
0100
1000
,
0001
0100
0010
0000
,
1000
0100
0010
0001
,
0100
0010
1000
0000
,
0010
0100
1000
0100
,
0010
0100
0110
0000
,
0001
0010
0100
0010
,
0001
1000
1001
0000
,
1000
0001
1000
0010
,
0100
0001
0100
0010
,
1000
1000
0001
0001
,
1000
0001
1001
0000
,
1000
0001
1000
0000
,
0001
1000
0001
0000
,
1000
0100
0010
0100
,
0010
0000
0000
0000
0001
0000
0000
0000
2002
0000
0000
0000
0000
3003
0000
0000
;

//---------------dance-single - ----------------
#NOTES:
     dance-single:
     :
     Medium:
     11:
     0.468787,0.590475,0.445732,0.099905,0.080693,427.000000,369.000000,58.000000,13.000000,0.000000,0.000000,0.468787,0.590475,0.445732,0.099905,0.080693,427.000000,369.000000,58.000000,13.000000,0.000000,0.000000:
0000
0000
0000
0000
,
1001
0010
0100
1000
0001
0100
0110
0000
,
1000
0010
0100
0001
1000
0100
0010
0001
,
0100
1000
0100
0001
0010
0100
1001
0000
,
1100
0100
1000
0010
0100
0010
0100
0101
,
0001
0010
0100
0010
0100
1000
0001
0000
,
0100
0010
1000
0001
0010
0100
1000
0000
,
1001
0000
0110
0010
1000
0001
0100
0100
,
0001
0010
0100
1000
0100
0010
0001
0000
,
0002
0100
0000
0100
,
2003
0000
0000
0000
0010
0000
0000
0000
0000
0000
0000
0000
0010
3000
0000
0000
,
0011
0000
0001
0010
0001
0010
0011
0000
,
1100
0000
1000
0100
1000
0100
1100
0000
,
0110
0000
0010
0100
0010
0100
0110
0000
,
0001
0010
1000
0010
0001
0100
0020
0030
,
0000
1100
0000
0101
0000
0011
0000
1010
,
0000
0011
0000
0101
0000
1100
0000
1010
,
0010
1001
0000
1001
0000
0110
0000
0110
,
1000
1010
0000
1010
0000
0101
0000
0101
,
1000
0010
1000
0010
0100
0001
0100
0000
,
0001
0010
0001
0010
0100
1000
0100
0000
,
1000
0100
0001
0100
1000
0010
0100
0000
,
0001
0100
1000
0100
0001
0010
0100
0000
,
2000
0000
0000
0100
0000
0000
0000
0000
3002
0000
0000
0100
0000
0000
0000
0000
,
2003
0000
0000
0010
0000
0000
0000
0000
3002
0000
0000
0010
0000
0000
0000
0000
,
0023
0000
0000
0100
0000
0000
0000
0000
0230
0000
0000
1000
0000
0000
0000
0000
,
2300
0000
0000
0001
0000
0000
0000
0000
3020
0000
0000
0130
0000
0000
0000
0000
,
0110
0010
0010
0000
0100
0100
0100
0000
,
1001
1000
1000
0000
0001
0001
0001
0000
,
1010
1000
1000
0000
0011
0001
0001
0000
,
1000
0100
0010
0001
0100
0010
0110
0000
,
1000
0000
0100
0000
1000
0100
0010
0000
,
0001
0010
0001
0010
,
0001
0000
0100
0000
0001
0010
0100
0000
,
1000
0010
0100
0001
,
0010
0100
1000
0000
0001
0000
0010
0000
,
0100
1000
0001
0010
,
0100
1000
0100
0000
0010
0001
0010
0000
,
0001
0010
0100
1001
,
1000
1100
0001
0101
,
1000
1010
0001
0011
,
0010
0110
0100
1100
,
1000
1010
0010
0110
,
0001
0100
0001
0000
0010
0000
0100
0000
,
1000
0010
1000
0000
0001
0000
1001
0000
,
0100
0000
0001
0000
0010
0100
1000
0000
,
1000
0000
0000
0100
0000
0000
0010
0000
0000
0000
0000
0000
0011
0000
0000
0000
,
0001
0010
0100
1000
0000
0000
1100
0000
,
0001
0010
0100
1000
0000
0000
0011
0000
,
1000
0010
0100
0001
0000
0000
0101
0000
,
1000
0010
0100
0001
0000
0000
1010
0000
,
1000
0100
0010
0001
0000
0000
0011
0000
,
1000
0100
0010
0001
0000
0000
1100
0000
,
1000
0100
0001
0100
,
1000
0010
0001
0010
,
0100
0001
1000
0010
0000
0000
1010
0000
,
0100
0001
1000
0010
0000
0000
0101
0000
,
0010
0001
1000
0100
0000
0000
1100
0000
,
0010
0001
1000
0100
0000
0000
0011
0000
,
0100
0010
0001
1000
0000
0000
1001
0000
,
0100
0010
0001
1000
0000
0000
0110
0000
,
0010
0000
1010
0000
1000
0100
0010
0000
,
0001
0010
0100
1000
0001
0100
0010
0000
,
1000
0000
0010
0000
0100
0001
0100
0000
0001
0010
0100
0000
1000
0000
1000
0000
,
0001
0000
0100
0000
0010
1000
0010
0000
1000
0100
0010
0000
0001
0000
0001
0000
,
0010
0000
0010
0000
0100
1000
0100
0000
0010
0001
0010
0001
0000
0010
0100
0000
,
1000
0100
0010
0000
0100
0010
0001
0000
0001
0010
0200
2000
0000
3300
0000
0000
;

//---------------dance-single - ----------------
#NOTES:
     dance-single:
     :
     Hard:
     14:
     0.690555,0.770185,0.468787,0.192126,0.453417,629.000000,568.000000,61.000000,25.000000,0.000000,0.000000,0.690555,0.770185,0.468787,0.192126,0.453417,629.000000,568.000000,61.000000,25.000000,0.000000,0.000000:
0000
0000
0000
0000
,
1100
0000
1000
0000
0001
0010
0001
0010
0000
0100
0010
0000
0001
0010
0100
0000
,
0011
0000
0100
1000
0100
0000
0010
0100
0010
0000
0001
0000
1100
0000
0011
0000
,
0010
0000
0100
0000
1000
0001
1000
0010
0000
0010
0100
0000
0001
0010
0100
0000
,
1000
0000
0010
0100
0010
0000
0100
0001
0100
0000
0010
0000
1000
0000
1100
0000
,
0100
0010
0001
0010
0100
0000
1000
0010
0100
0010
1000
0000
1010
0000
0101
0000
,
0001
0010
0100
0010
0001
0000
1000
0100
0010
0100
1000
0000
1100
0000
0011
0000
,
0001
0010
0001
0100
0001
0000
1000
0100
1000
0010
1000
0000
0101
0000
1010
0000
,
1000
0010
0001
0010
1000
0000
0001
0100
1000
0100
0001
0100
2000
0000
3000
0000
,
0002
0010
0010
0010
2003
0100
0100
0100
,
3200
0000
0010
0000
0010
0000
0010
0000
0320
0000
0001
0000
0000
1030
0000
0000
,
1100
0000
0100
0000
0010
0001
0010
0100
0010
0001
0010
0000
0110
0000
0010
0000
,
0001
0000
0101
0000
0010
1000
0100
1000
0010
1000
0100
0000
1000
0100
0010
0001
,
0010
0000
1100
0000
1000
0100
0001
0100
1000
0100
0001
0100
1000
0000
0010
0000
,
0100
0000
0001
0000
0001
0010
0100
0000
1000
0100
0010
0001
0010
0100
1000
0000
,
0100
1100
1000
1010
0010
0110
0100
0101
,
0001
0011
0010
0110
0100
1100
1000
1100
,
1000
0011
1000
0011
0001
1100
0001
1100
,
0001
0000
0010
0000
0100
1000
0100
0000
0010
0001
0200
2000
0000
0000
3300
0000
,
0101
0000
0001
0000
0010
0100
1000
0001
0010
0100
1000
0001
0010
0100
1000
0000
,
0001
0000
1001
0000
0100
0010
0001
1000
0100
0010
0001
1000
0100
0010
0001
0000
,
1000
0000
1100
0000
0001
1000
0001
0100
0001
1000
0001
0010
0001
1000
0001
0000
,
1000
0000
0010
0000
1000
0100
1000
0001
1000
0100
1000
0020
0000
0000
0030
0000
,
1000
0100
1000
0200
0000
0310
0001
0010
0100
1000
0100
0020
0000
0031
0010
0100
,
1000
0100
0001
0200
0000
0310
0001
0010
0001
0100
1000
0200
0000
0301
0010
0001
,
0010
0100
0010
0001
0000
0001
0010
0100
1000
0100
0010
0100
0000
0100
0010
0001
,
1000
0100
0010
0001
0000
0001
0010
0100
1000
0010
0100
0002
0000
0000
0003
0000
,
2100
0100
0100
0000
0010
0010
0001
3001
,
1002
1000
1000
0000
0010
1000
0010
0013
,
0210
1000
1000
0300
0120
0001
0001
0030
,
0001
0000
0000
0000
0010
0000
0000
0000
0100
0000
0000
0000
0000
0000
0000
0000
1000
0000
0000
0000
0100
0000
0000
0000
0010
0000
0000
0000
0000
0000
0000
0000
0001
0000
0000
0000
1000
0000
0000
0000
0001
0000
0000
0000
1000
0000
0000
0000
2002
3003
0000
0000
0000
0000
0000
0000
0000
0000
0000
0000
0000
0000
0000
0000
,
1000
0100
0010
0000
0001
1000
0010
0100
,
0001
0010
0100
1000
0010
0100
0001
0000
,
0010
0100
1000
0000
0001
0010
1000
0010
,
0001
1000
0100
0001
0100
1000
0100
0000
,
0010
0010
0010
0000
0001
0100
0010
1000
,
0100
0010
0001
0010
0100
0001
0100
0000
,
1000
0000
1100
0000
0010
0001
0010
0000
,
0001
1000
0010
0100
0001
0010
0100
1000
,
0010
1000
1010
0000
1000
0100
1100
0000
,
0100
0010
0110
0000
0010
0001
0011
0000
,
0001
0100
0101
0000
0100
0010
0110
0000
,
0010
1000
1010
0000
1000
0001
1001
0000
,
0100
0010
0110
0000
1000
0001
1001
0000
,
0001
1000
0100
0010
0001
1000
0010
0100
,
0001
0000
0011
0000
0010
0100
1000
0000
,
1001
0000
0000
0110
0000
0000
2002
0000
0000
0000
0000
0000
3003
0000
0000
0000
,
0001
0010
0100
1000
0000
1000
0100
0010
,
0001
0010
0100
1000
0000
1000
0100
0010
,
0001
0100
0010
1000
0000
1000
0010
0100
,
0001
0010
0100
1000
0000
0100
0010
0001
,
1000
0100
0010
0001
0000
0001
0010
0100
,
1000
0100
0010
0001
0000
0001
0010
0100
,
1000
0000
0100
1000
0100
0000
1100
0000
,
1000
0010
0100
0001
0010
0100
1000
0000
,
1100
0000
0001
0010
0001
0000
0010
0100
,
1000
0000
0001
0010
0110
0000
1001
0000
,
0010
0000
1000
0100
1000
0000
0001
0010
,
0100
0000
1000
0100
0110
0000
1001
0000
,
1000
1000
0001
0001
0020
0000
0130
1000
,
0001
0000
1000
0100
0110
0000
1001
0000
,
0001
0010
0001
0100
0001
0010
0100
1000
,
0010
1000
0100
0010
0001
0001
2000
0000
,
3001
0000
0010
0001
0010
0000
0100
0010
0100
0000
1000
0100
1000
0000
1010
0000
,
0010
0000
1000
0100
1000
0000
0100
0010
0100
0000
0010
0001
0010
0000
0101
0000
,
0100
0001
0100
1000
0100
0000
0001
0010
0001
0000
0010
0100
0010
0000
0011
0000
,
0001
1000
0010
1000
0001
0000
1000
0001
0010
0002
1000
2000
0000
3003
0000
0000
;

//---------------dance-single - LEGENDARY----------------
#NOTES:
     dance-single:
     :
     Challenge:
     17:
     0.896954,1.078259,0.922204,0.130646,0.860724,817.000000,697.000000,120.000000,17.000000,0.000000,0.000000,0.896954,1.078259,0.922204,0.130646,0.860724,817.000000,697.000000,120.000000,17.000000,0.000000,0.000000:
0000
0000
0000
0000
,
1001
0000
0011
0000
1000
0100
0010
0100
0000
0010
0001
1000
0001
0100
0010
0000
,
1000
0010
0100
0001
0100
0000
0001
0100
1000
0000
0110
0000
1001
0000
0110
0000
,
0010
1000
0010
0100
0001
0010
0001
1000
0000
1010
0010
0100
0001
0010
0100
1000
,
0010
0100
0001
0001
0011
0000
1000
1000
1010
0000
1001
0000
0100
0010
1000
0100
,
0010
0000
0001
0000
0100
0000
0001
0000
0010
0000
0100
0000
1000
0000
0001
0000
0010
0000
0001
0000
1000
0000
0010
0000
0100
0001
0010
0000
0001
0000
1000
0000
,
0010
0100
0001
0100
1000
0100
0010
1000
0010
0100
0101
0000
1100
0000
0011
0000
,
0001
0000
0100
0000
0010
0000
0100
0000
0001
0000
1000
0000
0100
0000
1000
0000
0010
0000
0100
0000
0001
0000
1000
0000
0001
1000
0010
0000
0110
0000
0000
0000
,
1000
0001
0010
0001
0100
0010
1000
0100
1000
0100
0001
0200
0000
0010
0310
0000
,
1001
0000
1000
0010
1000
0000
0001
0100
0001
0010
0100
0010
0100
1000
0001
1000
,
0001
0000
0010
0000
0100
0000
0010
0000
0001
0000
1000
0000
0010
0000
1000
0000
0001
0010
0001
0000
1000
0010
1000
0000
0000
0000
1001
0000
0100
0000
0000
0000
,
0110
0000
0010
0000
1000
0001
1000
0010
1000
0001
1000
0100
1100
1000
0011
0000
,
1001
0000
1010
0000
0001
0100
0001
1000
0001
1000
0001
0010
0001
1000
0010
0100
,
0010
0000
1010
0000
0101
0001
0100
0010
0100
1000
0100
0001
0100
0010
1000
0001
,
1001
0000
1010
0000
0100
0001
0010
1000
0000
1000
0010
0001
0100
0010
0110
0000
,
1001
0001
0101
0000
1001
1000
1100
0000
1001
0001
0011
0000
1001
1000
1010
0000
,
1001
0001
0101
0000
1001
1000
1100
0000
1001
0001
0011
0000
1001
1000
1010
0000
,
0110
0000
0110
0000
0010
1000
0010
0001
0010
1000
0010
0001
0010
0100
0010
0001
,
0010
0000
1010
0000
0010
1000
0100
0001
0000
0001
0100
1000
0010
0100
0110
0000
,
0010
0000
0000
0000
1010
0000
0000
0000
1000
0000
0100
0000
0001
0000
0100
0000
1000
0000
0100
0000
0001
0000
0100
0000
1000
0001
0010
0000
0001
0000
0000
0000
,
1001
0000
0000
0000
0110
0000
0000
0000
0001
0000
0010
0000
0001
0000
1000
0000
0001
0000
0100
0000
0001
0000
1000
0000
0001
0100
0010
0000
0100
0000
0001
0000
,
0010
0000
0000
0000
0110
0000
0000
0000
1000
0000
0001
0000
0010
0000
0001
0000
1000
0000
0010
0000
1000
0000
0001
0000
0100
0001
0010
0000
0001
0000
0000
0000
,
1100
0000
0011
0000
1000
0001
0010
0100
0000
0100
0010
0002
0000
1000
1003
0000
,
1000
0010
0100
2100
0000
3100
0001
0010
0001
1000
0100
0120
0000
0031
0100
0010
,
1000
0001
0010
1200
0000
1300
0010
0100
0001
1000
0010
2010
0000
3001
0010
0100
,
0010
0001
0100
1000
0000
1000
0100
0001
0010
0100
1000
0200
0000
0310
0001
1000
,
0010
0100
1000
1200
0000
0301
0010
0100
0010
0001
0100
2001
0000
0000
3001
0000
,
1001
1000
0100
0010
0010
0100
0010
0100
0001
0010
0100
1000
0100
0010
0001
0000
,
1001
0001
1000
0010
0100
0001
0010
0001
1000
0100
1000
0010
0100
0001
0010
0000
,
1001
1000
0001
0100
0010
1000
0001
0000
0110
0100
0010
1000
0001
0100
0010
0000
,
1001
0000
0100
0000
0110
0000
0000
0000
0110
0000
0010
0000
1001
0000
0000
0000
1000
0010
1000
0000
0001
0100
0001
0000
2002
3003
0000
0000
0000
0000
0000
0000
,
1010
0000
0010
0100
0001
0010
0100
1000
,
0010
0000
0100
0000
0001
0000
0010
0000
0001
1000
0001
0000
1000
0000
0010
0000
,
0100
0001
0100
0010
1000
0100
0001
0100
,
1000
0000
0010
0000
0001
0000
0010
0000
1000
0100
0010
0000
0001
0000
0100
0000
,
0010
0010
0210
0000
0301
0001
1000
0010
,
0100
0000
0001
0000
0010
0000
0100
0000
1000
0001
1000
0000
0010
0000
0100
0000
,
0001
0000
1100
0000
0010
0001
0010
0100
,
1000
0010
0100
0001
0010
0100
0110
0000
,
1000
0001
1001
1000
0010
0100
0110
0010
,
1000
0010
1010
1000
0001
0010
0011
0001
,
1000
0001
1100
1000
0001
1000
0101
0001
,
1000
0010
0110
0100
0001
0010
0110
0000
,
1001
0000
1001
0000
1001
0000
0000
0000
0100
0000
0010
0000
1000
0000
0001
0100
,
0010
0000
1000
0000
0010
0000
0100
0000
0001
0000
0010
0001
0100
0000
0010
0000
,
1010
0000
0000
0000
0011
0000
0000
0000
1000
0000
0001
1000
0001
0000
0100
0010
,
0100
0000
0000
1001
0000
0000
1010
0000
0000
0000
0100
0000
0101
0000
0000
0000
,
1000
0100
0010
0110
0000
0010
0001
0100
,
0010
1000
0100
1100
0000
1000
0001
0010
,
0001
0100
0010
1010
0000
1000
0010
0100
,
1000
0100
0001
0101
0000
0100
0010
0100
,
0001
0010
0001
1001
0000
1000
0010
0100
,
0001
0010
1000
1010
0000
0010
0001
0100
,
0010
0000
0010
1000
1010
0000
0101
0000
,
0100
0000
0000
1001
0000
0000
0010
0000
0000
0000
0100
0000
0110
0000
0000
0000
,
1010
1000
0001
0010
1100
0000
0100
1000
,
0010
0100
0001
0010
0011
0000
1100
0000
,
1010
0010
0100
0001
1001
0000
1000
0010
,
0100
0010
1000
0001
0101
0000
1010
0000
,
0110
0110
0101
0101
0120
0000
1030
0100
,
1000
0001
1000
0010
1010
0000
0011
0000
,
0100
0010
1000
0001
0010
0100
0010
0001
,
1000
0010
1000
0100
0010
0001
0100
0010
2000
0000
0001
0000
3001
0000
0000
0000
,
0100
0010
0100
1000
0200
0000
0301
0010
0001
1000
0100
0010
0110
0000
1001
0000
,
1000
0010
0100
0001
0101
0000
1010
0010
0100
0001
1000
0100
1100
0000
1010
0000
,
0100
0001
0010
0010
0011
0000
0100
1000
0001
0100
0010
1000
1001
0000
0110
0000
,
0001
0000
0100
0000
0010
0000
1000
0000
0010
0000
0100
0000
1000
0000
0100
0000
0001
0010
0001
0010
0100
1000
0200
2000
0000
0000
3300
0000
0000
0000
0000
0000
;

//---------------dance-double - ----------------
#NOTES:
     dance-double:
     :
     Easy:
     7:
     0.251410,0.282401,0.146016,0.076850,0.000000,229.000000,210.000000,19.000000,10.000000,0.000000,0.000000,0.251410,0.282401,0.146016,0.076850,0.000000,229.000000,210.000000,19.000000,10.000000,0.000000,0.000000:
00000000
00000000
00000000
00000000
,
00010000
00001000
00100000
00010000
,
10000000
01000000
00100000
10010000
,
01000000
00001000
00010000
00000100
,
00000010
00000001
00001000
00000110
,
00000001
00000001
00001000
00000100
,
00010000
00001000
01000000
00100000
,
10000000
01000000
00100000
01000000
,
10000000
00010000
00100000
00011000
,
00001000
00000100
00000000
00000100
,
00010000
01000000
00000000
01000000
,
00100000
00010000
00010000
00010000
,
10000000
01000000
01000000
01000000
,
00100000
00001000
00001000
00001000
,
00010000
00000010
00000100
00000010
,
00001000
00000001
00000100
00000000
,
00000010
00010000
00001000
00000000
,
01000000
00100000
10000000
00000000
,
00010000
00100000
01000000
10010000
,
01000000
00010000
00100000
00001000
,
00010000
00000010
00001000
00000100
,
00000010
00000001
00001000
00000001
,
00000100
00000010
00010000
00001000
,
00200000
00000000
00320000
00000000
,
20030000
00000000
32000000
00000000
,
03020000
00000000
00032000
00000000
,
00003020
00000000
00000032
00000003
,
00001001
00000010
00000010
00000000
,
00010100
00001000
00001000
00000000
,
01010000
00000000
10100000
00000000
,
10000000
00010000
00100000
00100000
,
00001000
00010000
00001000
00000000
,
00010000
00000010
00001000
00000000
,
00000001
00000100
00000010
00000000
,
00010000
00000100
00001000
00000000
,
00000010
00001000
00010000
00000000
,
00100000
00010000
00001000
00000000
,
00000001
00000100
00001000
00000000
,
00010000
01000000
10000000
00000000
,
00000000
10100000
00000000
00110000
,
00000000
11000000
00000000
01010000
,
00000000
00011000
00000000
00001100
,
00000000
00000101
00000000
00000011
,
00001000
00000010
00000010
00000000
,
00010000
00001000
00001000
00000000
,
01000000
00100000
10000000
00010000
,
01010000
00000000
00101000
00000000
,
00010000
00001000
00000100
00000000
,
00000001
00000010
00000100
00000000
,
00001000
00000010
00001000
00000000
,
00000100
00010000
00001000
00000000
,
00100000
01000000
10000000
00000000
,
00010000
01000000
00100000
00000000
,
10000000
10000000
00010000
00000000
,
00100000
00000000
00011000
00000000
,
00000010
00001000
00000100
00001000
,
00000001
00000010
00000010
00000000
,
00001000
00010000
01000000
10000000
,
01000000
00100000
00100000
00000000
,
00001000
00010000
00001000
00000100
,
00001000
00010000
00010000
00000000
,
00000010
00001000
00000001
00000100
,
00002000
00000000
00013000
00000000
,
01000000
10000000
01000000
00000000
,
00100000
00010000
00100000
00000000
,
00001000
00010000
00000100
00000010
,
00000001
00000000
00000000
00000000
00001000
00000000
00000000
00000000
00000200
00000000
00000000
00000000
00000000
00000300
00000000
00000000
;

//---------------dance-double - ----------------
#NOTES:
     dance-double:
     :
     Medium:
     11:
     0.455613,0.539129,0.230551,0.130646,0.073008,415.000000,385.000000,30.000000,17.000000,0.000000,0.000000,0.455613,0.539129,0.230551,0.130646,0.073008,415.000000,385.000000,30.000000,17.000000,0.000000,0.000000:
00000000
00000000
00000000
00000000
,
10000000
00100000
01000000
00010000
00100000
00001000
00001000
00000000
,
00010000
00000010
00001000
00000100
00000010
00000001
00000001
00000000
,
00000100
00000010
00001000
00000100
00010000
00001000
01000000
00000000
,
00100000
10000000
00010000
00100000
01000000
10000000
00020000
00000000
,
01030000
00100000
01000000
00001000
00010000
00000010
00000010
00000000
,
00000100
00000001
00000010
00000100
00001000
00000001
00000001
00000000
,
00000100
00000010
00010000
00001000
00100000
01000000
10000000
00000000
,
00010000
10000000
01000000
00100000
00010000
00100000
01000000
00000000
,
20000000
00100000
00100000
30100000
,
00002000
00000000
00000000
00000000
00010000
00000000
00000000
00000000
00010000
00000000
00000000
00000000
00010000
00003000
00000000
00000000
,
00011000
00000000
00000010
00000100
00000010
00001000
00000010
00000000
,
00000100
00000000
00001000
00010000
00100000
00010000
00002000
00000000
,
01003000
00000000
00100000
01000000
00100000
10000000
00100000
00000000
,
10000000
01000000
00100000
00010000
01000000
00000000
00101000
00000000
,
00010000
00001000
00000000
00010000
00000000
00000010
00000000
00000100
,
00000001
00000010
00000000
00000100
00000000
00010000
00000000
00001000
,
01000000
00100000
00000000
10000000
00000000
00010000
00000000
00100000
,
01000000
10000000
01000000
00000000
10000000
00100000
00020000
00030000
,
00001000
00010000
00000010
00001000
00000001
00001000
00000010
00000000
,
00010000
00001000
00100000
01000000
10000000
01000000
00010000
00000000
,
00001000
00100000
00000100
00010000
00001000
01000000
00010000
00000000
,
10000000
00100000
10000000
00010000
00100000
00000000
11000000
00000000
,
20000000
00000000
00000000
00010000
00000000
00000000
30010000
00000000
02000000
00000000
00000000
00100000
00000000
00000000
03100000
00000000
,
00002000
00000000
00000000
00010000
00000000
00000000
00013000
00000000
00000020
00000000
00000000
00000100
00000000
00000000
00000130
00000000
,
00002000
00000000
00000000
00000001
00000000
00000000
00003001
00000000
00000020
00000000
00000000
00000100
00000000
00000000
00000130
00000000
,
00020000
00000000
00000000
00001000
00000000
00000000
00031000
00000000
00010000
00000000
00000000
00012000
00000000
00000000
00000000
00000000
,
00103000
00010000
00100000
01000000
10000000
00010000
10000000
00000000
,
01010000
00010000
00100000
00001000
00010000
00000010
00000100
00000000
,
00000101
00000001
00000010
00000000
00001010
00000010
00010000
00000000
,
00101000
00000000
10100000
00000000
01000000
00001000
00011000
00000000
,
00001000
00000000
00000100
00000001
00000100
00000000
00000010
00000000
,
00001000
00000000
00000100
00000000
00010000
00001000
00010000
00000000
,
01000000
00000000
10000000
00010000
10000000
00000000
00100000
00000000
,
01000000
00010000
10000000
00000000
00001000
00010000
00100000
00000000
,
10000000
10000000
10000000
00000000
00010000
00000000
00100000
00001000
,
00010000
00000010
00000100
00000000
00000001
00000000
00001000
00000000
,
00000011
00000000
00000001
00000000
00001000
00000010
00001000
00000000
,
00000100
00000000
00010000
00001000
00100000
00001000
00010000
00000000
,
00001000
00101000
00100000
01100000
,
01000000
11000000
10000000
10010000
,
00010000
01010000
01000000
01001000
,
00001000
00011000
00010000
00010010
,
00001000
00000100
00001000
00000000
00000001
00000000
00000010
00000001
,
00001000
00000000
00000100
00000000
00010000
00001000
00100000
00000000
,
00010000
00000000
10000000
00000000
00100000
10000000
01000000
00000000
,
10000000
00000000
00000000
01000000
00000000
00000000
00020000
00000000
00000000
00000000
00000000
00000000
00031000
00000000
00000000
00000000
,
00010000
00000010
00000100
00001000
00000000
00000000
00001100
00000000
,
00000001
00000100
00000010
00001000
00000000
00000000
00011000
00000000
,
00001000
00100000
00010000
01000000
00000000
00000000
10100000
00000000
,
10000000
01000000
00010000
01000000
00000000
00000000
00110000
00000000
,
00010000
10000000
01000000
00100000
00000000
00000000
00101000
00000000
,
00010000
00001000
00000010
00000100
00000000
00000000
00001001
00000000
,
00000010
00000000
00000100
00000010
00000100
00000000
00000001
00000000
,
00000010
00000000
00000000
00000100
00000000
00000000
00001000
00000000
00000000
00000000
00001000
00000000
00000100
00000000
00000000
00000000
,
00010000
00001000
01000000
00100000
00000000
00000000
10010000
00000000
,
01000000
00010000
00100000
00001000
00000000
00000000
00010100
00000000
,
00001000
00000001
00000010
00000100
00000000
00000000
00001100
00000000
,
00010000
00001000
00100000
01000000
00000000
00000000
11000000
00000000
,
10000000
00100000
01000000
00100000
00000000
00100000
01000000
00000000
,
00001000
00010000
00000010
00000100
00000000
00000000
00001001
00000000
,
00000001
00000010
00000100
00000000
00000010
00000100
00001000
00000000
,
00000100
00010000
00001000
01000000
00020000
00000000
00130000
00000000
,
00010000
00000000
10000000
01000000
10000000
00000000
00010000
00100000
00001000
00000000
00010000
00000000
00001000
00000000
00001000
00000000
,
00000010
00000000
00000001
00000100
00000001
00000000
00001000
00000010
00001000
00000000
00000100
00000000
00010000
00000000
00010000
00000000
,
00001000
00000000
00100000
00010000
10000000
00000000
00100000
00000000
01000000
00000000
00100000
00000000
01000000
00000000
01000000
00000000
,
00010000
00100000
01000000
00000000
00010000
00001000
00010000
00000000
00000010
00000100
00000002
00000020
00000000
00000033
00000000
00000000
;

//---------------dance-double - ----------------
#NOTES:
     dance-double:
     :
     Hard:
     14:
     0.681773,0.744512,0.414992,0.122961,0.457260,621.000000,567.000000,54.000000,16.000000,0.000000,0.000000,0.681773,0.744512,0.414992,0.122961,0.457260,621.000000,567.000000,54.000000,16.000000,0.000000,0.000000:
00000000
00000000
00000000
00000000
,
00011000
00000000
00001000
00000000
00100000
00010000
10000000
01000000
00000000
10000000
00100000
01000000
00100000
10000000
00010000
00000000
,
00100000
00000000
00001000
00010000
00001000
00000000
00010000
00000100
00001000
00000000
00000010
00000000
00000100
00000000
00000101
00000000
,
00000001
00000000
00000010
00000100
00000010
00000001
00000000
00001000
00000000
00000010
00010000
00001000
00010000
00000100
00001000
00000000
,
00000010
00000000
00010000
00001000
00010000
00000000
00001000
01000000
00010000
00000000
10000000
00000000
00100000
00000000
01100000
00000000
,
01000000
00010000
10000000
00010000
01000000
00000000
00100000
10000000
00010000
10000000
00100000
00000000
01000000
00000000
01010000
00000000
,
00010000
00100000
00001000
00100000
00010000
00000000
01000000
00001000
00010000
00001000
01000000
00000000
00001000
00000000
00011000
00000000
,
00010000
00000010
00001000
00000010
00010000
00000000
00000100
00001000
00000001
00001000
00000100
00000000
00001000
00000000
00001010
00000000
,
00000100
00000001
00000010
00000000
00000001
00001000
00000100
00000000
00010000
00001000
00100000
02000000
00000000
00000000
00000000
00000000
,
13000000
00000000
00100000
10000000
00100000
00000000
01000000
00010000
01000000
00001000
00100000
00010000
00100000
00000000
00001000
00000000
,
00011000
00000000
00010000
00000010
00000000
00000010
00001000
00000001
00000100
00000010
00000100
00000010
00000000
00000110
00000000
00000000
,
00001001
00000000
00000001
00000000
00000010
00000100
00001000
00000100
00000010
00000100
00001000
00000100
00010000
00000000
00001000
00000000
,
00100000
00000000
01000000
00000000
10000000
00010000
00100000
01000000
00100000
00010000
10000000
00010000
01000000
00000000
00100000
00000000
,
10100000
00000000
10000000
00000000
01000000
00010000
00100000
00001000
01000000
00010000
00100000
00001000
00010000
00000000
00000100
00000000
,
00001000
00000000
00001010
00000000
00000010
00000100
00000001
00000100
00000000
00000010
00001000
00000100
00010000
00001000
00010000
00000000
,
00000010
00001010
00001000
00001001
00000001
00000011
00000010
00000110
,
00000100
00010100
00010000
00011000
00001000
00101000
00100000
00110000
,
00010000
00000000
10000000
00000000
00100000
00000000
01000000
00010000
10000000
00100000
10000000
00010000
01000000
00000000
00010000
00000000
,
00100000
00000000
00101000
00000000
00001000
00010000
00000010
00000000
00000100
00000001
00001000
00000020
00000000
00000000
00000030
00000000
,
00000110
00000000
00000100
00000000
00000001
00000010
00000100
00001000
00000001
00000010
00000100
00001000
00000100
00000000
00000100
00000000
,
00010000
00000000
00001000
00000000
00100000
00010000
10000000
01000000
00100000
00010000
10000000
01000000
10000000
00000000
00010000
00000000
,
01000000
00000000
00100000
00000000
10000000
00010000
00100000
01000000
10000000
00010000
00100000
01000000
00010000
00000000
00001000
00000000
,
00010000
00000000
00010100
00000000
00000100
00001000
00000010
00000000
00000100
00000000
00000001
00000020
00000000
00000000
00000031
00000000
,
00000100
00000010
00001000
00000010
00000000
00000000
00000100
00000000
00000001
00000010
00000100
00001000
00000000
00000000
00000100
00000000
,
00010000
00001000
00100000
00001000
00000000
00000000
00010000
00000000
00001000
00010000
01000000
10000000
00000000
00000000
00100000
00000000
,
10000000
00010000
00100000
20000000
00000000
00000000
30100000
00000000
00010000
01000000
10000000
02000000
00000000
00000000
03100000
00000000
,
01000000
00001000
00010000
00002000
00000000
00000000
00013000
00000000
00000010
00000100
00001000
00000200
00000000
00000000
00000300
00000000
,
00001001
00000000
00000010
00000100
00000010
00000000
00001000
00000000
00000100
00000000
00000001
00000000
00000100
00000000
00000100
00000000
,
00010100
00000000
00010000
00001000
01000000
00000000
00100000
00000000
10000000
00000000
00100000
00000000
00010000
00000000
00010000
00000000
,
00110000
00000000
00100000
10000000
00100000
00000000
01000000
00000000
00110000
00000000
00010000
01000000
00001000
00000000
00010000
00000000
,
00000010
00000000
00000100
00000000
00000010
00000000
00000000
00000000
00001000
00000000
00000001
00000000
00001000
00000000
00000000
00000000
00000001
00000000
00000100
00000000
00000010
00000000
00001000
00000000
00000200
00000300
00000000
00000000
00000000
00000000
00000000
00000000
,
00011000
00000000
00010000
01000000
10000000
00100000
10000000
00010000
,
00100000
01000000
10000000
01000000
00100000
00001000
00100000
00000000
,
00011000
00000000
00010000
00000010
00000100
00000010
00001000
00000001
,
00000010
00000100
00001000
00000001
00000100
00000010
00020000
00000000
,
00031000
00001000
00001000
00000000
00011000
00000000
00010000
01000000
,
10000000
01000000
00010000
00000000
00001000
00010000
00001000
00000000
,
00000100
00000000
00000110
00000000
00000001
00001000
00000010
00000000
,
00000100
00000001
00000010
00000100
00000010
00000001
00001000
00000000
,
00000100
00010000
00011000
00000000
00001000
00100000
00110000
00000000
,
00010000
10000000
11000000
00000000
00100000
00010000
00110000
00000000
,
01000000
00001000
01001000
00000000
00010000
00000010
00010010
00000000
,
00001000
00000001
00001001
00000000
00000010
00000100
00000110
00000000
,
00001000
00000001
00001000
00000000
00000020
00000000
00010030
00001000
,
00010000
01000000
00010000
00001000
00010000
00000010
00001000
00000000
,
00000201
00000000
00000310
00000000
00001000
00000100
00010000
00000000
,
00011000
00000000
00000000
00110000
00000000
00000000
22000000
00000000
00000000
00000000
33000000
00000000
00000000
00000000
00000000
00000000
,
10000000
01000000
00010000
01000000
00000000
00100000
00010000
00001000
,
00000010
00010000
00000010
00001000
00000000
00000001
00000100
00000001
,
00001000
00000010
00010000
00000010
00000000
00001000
00000100
00100000
,
00010000
10000000
01000000
00100000
00000000
00010000
10000000
00010000
,
01000000
00100000
10000000
01000000
00000000
10000000
00010000
00100000
,
00001000
00010000
00000010
00000100
00000000
00000100
00000001
00001000
,
00000010
00000000
00000100
00000010
00010000
00000010
00001000
00000000
,
00010100
00000000
00000000
00011000
00000000
00000000
00010010
00000000
00000000
00000000
00001000
00000000
00000001
00000000
00000000
00000000
,
00000011
00000000
00010000
00000010
00001000
00000000
00000100
00010000
,
00000100
00001000
00010000
01000000
10000000
00000000
11000000
00000000
,
00100000
01000000
00010000
01000000
00100000
00000000
10000000
01000000
,
00010000
01000000
00100000
00010000
01000000
00000000
01001000
00000000
,
00010000
00001000
00010000
00001000
00011000
00000000
00010000
00000010
,
00000100
00000001
00000010
00000100
00001000
00000000
00001001
00000000
,
00000010
00000100
00000001
00001000
00000100
00010000
00002000
00000000
,
00013000
00100000
10000000
00100000
00010000
00001000
00010000
00000000
,
01000000
00000000
10000000
01000000
10000000
00000000
00010000
00100000
00001000
00100000
00010000
00000000
01000000
00000000
01100000
00000000
,
00100000
00000000
10000000
00010000
01000000
00000000
00001000
00100000
00010000
00100000
00001000
00000000
00010000
00000000
00010100
00000000
,
00000100
00001000
00000001
00001000
00000010
00000000
00000100
00000001
00001000
00000100
00000010
00000000
00000011
00000000
00001100
00000000
,
00000100
00010000
00001000
00010000
00001000
00100000
01000000
00000000
10000000
01000000
00020000
00002000
00000000
00033000
00000000
00000000
;

//---------------dance-double - ----------------
#NOTES:
     dance-double:
     :
     Challenge:
     17:
     0.882681,1.026913,0.876094,0.207496,0.841511,804.000000,690.000000,114.000000,27.000000,0.000000,0.000000,0.882681,1.026913,0.876094,0.207496,0.841511,804.000000,690.000000,114.000000,27.000000,0.000000,0.000000:
// measure 0
00000000
00000000
00000000
00000000
,  // measure 1
00010100
00000000
00001000
00000010
00000100
00000001
00000010
00000100
00000000
00000100
00010000
00001000
01000000
00100000
10000000
00000000
,  // measure 2
00010000
01000000
10000000
01000000
01010000
00000000
00100000
00001000
00010000
00000010
00010010
00000000
00001100
00000000
00010100
00000000
,  // measure 3
00001000
00000001
00000010
00000100
00010000
00000010
00001000
00001100
00000000
00000010
00000100
00000001
00000010
00000100
00001000
00000000
,  // measure 4
00100000
01000000
00100000
00100000
01100000
00000000
10000000
10000000
11000000
00000000
00010000
00100000
00001000
00000000
00011000
00000000
,  // measure 5
00000010
00010000
00001000
00010000
00000100
00000000
00100000
00001000
00010000
00001000
01000000
00100000
10000000
01000000
11000000
00000000
,  // measure 6
00100000
01000000
00001000
00010000
00011000
00000000
00010000
00000010
00001000
00000100
00000011
00000000
00001100
00000000
00011000
00000000
,  // measure 7
00000010
00000100
00001000
00000100
00000101
00000000
00000010
00010000
00000100
00001000
00001010
00000000
00010000
00001000
00011000
00000000
,  // measure 8
00100000
00000000
11000000
00000000
00010000
00100000
01000000
00100000
00010000
01000000
00001000
00020000
00000000
00000010
00030010
00000000
,  // measure 9
00001100
00000000
00010000
00100000
01000000
10000000
01000000
00001000
00100000
01000000
00010000
00001000
00010000
00000010
00010010
00000000
,  // measure 10
00001001
00000000
00000000
00000000
00000010
00000000
00010000
00000000
00000100
00000000
00001000
00000000
00000010
00000000
00000100
00000000
00000010
00010000
00001000
00000000
00010000
00000010
00000200
00000000
00000000
00000000
00001000
00000000
00001300
00000000
00000000
00000000
,  // measure 11
00011000
00000000
00000000
00000000
01001000
00000000
00000000
00000000
00100000
00000000
00010000
00000000
10000000
00000000
00010000
00000000
01000000
00000000
00100000
00000000
10000000
00000000
00010000
00000000
00100000
00001000
00010000
00000000
00000010
00000000
00000000
00000000
,  // measure 12
00010100
00000000
00000000
00000000
00001000
00000000
00000010
00000000
00000100
00000000
00000001
00000000
00000010
00000000
00001000
00000000
00000010
00000000
00000001
00000000
00001000
00000000
00000010
00000000
00010000
00000100
00001000
00000000
00000010
00000000
00000100
00000000
,  // measure 13
00000101
00000000
00000000
00000000
00001010
00000000
00000000
00000000
00010000
00000000
00000100
00000000
00001000
00000000
00000010
00000000
00010000
00000000
00001000
00000000
00100000
00000000
00010000
00000000
10000000
00010000
00100000
00000000
01000000
00000000
00100000
00000000
,  // measure 14
01000000
00000000
10010000
00000000
01000000
00001000
00010000
00100000
00000000
00100000
00010000
00001000
00010000
00000010
00000110
00000000
,  // measure 15
00000011
00000001
00000011
00000000
00010100
00010000
00010100
00000000
00001000
00001000
00001010
00000100
00000010
00010000
00010100
00000000
,  // measure 16
01001000
01000000
01001000
00000000
00110000
00100000
00110000
00000000
10000000
00010000
10010000
00100000
01000000
00010000
10010000
00000000
,  // measure 17
01100000
00000000
00000000
00000000
01001000
00000000
00000000
00000000
00010000
00000000
00000010
00000000
00001000
00000000
00000010
00000000
00010000
00000000
00000100
00000000
00001000
00000000
00000001
00000000
00000010
00000100
00001000
00000000
00000010
00000000
00010000
00000000
,  // measure 18
00001000
00000000
00000000
00000000
00101000
00000000
00000000
00000000
01000000
00000000
10000000
00000000
01000000
00000000
00100000
00000000
00000000
00000000
00001000
00000000
00010000
00000000
00001000
00000000
00000100
00000010
00000001
00000000
00000011
00000000
00000000
00000000
,  // measure 19
00001010
00000000
00000000
00000000
00000100
00000000
00000000
00000000
00010000
00000000
00100000
00000000
00010000
00000000
00001000
00000000
00010000
00000000
00000010
00000000
00010000
00000000
00001000
00000000
00100000
01000000
10000000
00000000
00010000
00000000
00000000
00000000
,  // measure 20
10010000
00000000
00000000
00000000
00100000
00000000
00001000
00000000
00001000
00000000
01000000
00000000
00001000
00000000
00010000
00000000
00001000
00000000
00100000
00000000
00001000
00000000
00010000
00000000
00000010
00000100
00000001
00000000
00000010
00000000
00000100
00000000
,  // measure 21
00001000
00000000
00000000
00000000
00001001
00000000
00000000
00000000
00000010
00000000
00010000
00000000
00000010
00000000
00001000
00000000
00000010
00000000
00010000
00000000
00000010
00000000
00000100
00000000
00000001
00001000
00000100
00000000
00010000
00000000
00001000
00000000
,  // measure 22
00100000
00000000
00110000
00000000
10000000
00100000
00010000
00100000
00000000
01000000
00001000
00020000
00000000
00000010
00030010
00000000
,  // measure 23
00001000
01000000
10000000
10020000
00000000
00130000
00001000
00010000
00000010
00000100
00000001
00002001
00000000
00003010
00010000
00000100
,  // measure 24
00001000
00000100
00000010
00000021
00000000
00000130
00010000
00001000
01000000
00100000
10000000
20010000
00000000
00100000
30100000
00000000
,  // measure 25
01000000
00001000
00100000
00120000
00000000
01030000
00100000
10000000
01000000
00010000
00000100
00010200
00000000
00001300
00000010
00000001
,  // measure 26
00000010
00010000
00000010
00000210
00000000
00000301
00000010
00000100
00010000
00001000
00100000
00012000
00000000
00000000
00013000
00000000
,  // measure 27
01001000
00000000
00010000
00100000
10000000
00100000
00010000
01000000
01000000
00001000
00010000
00000010
00001000
00000000
00001001
00000000
,  // measure 28
00001010
00000000
00000100
00000001
00000100
00001000
00000100
00000010
00000010
00010000
00001000
01000000
00010000
00000000
10010000
00000000
,  // measure 29
00100000
00001000
00010000
01000000
10000000
00010000
00100000
00000000
00000010
00010000
00000100
00001000
00000010
00000100
00000001
00000000
,  // measure 30
00001010
00000000
00001000
00000000
00001010
00000000
00000000
00000000
00010100
00000000
00000100
00000000
00010100
00000000
00000000
00000000
00100000
00001000
00010000
00000000
00001000
01000000
00100000
00000000
20200000
30300000
00000000
00000000
00000000
00000000
00000000
00000000
,  // measure 31
00110000
00000000
10000000
00010000
00100000
00001000
00010000
00000010
,  // measure 32
00000100
00000000
00001000
00000000
00000100
00000000
00000001
00000000
00000010
00000100
00001000
00000000
00000010
00000000
00010000
00000000
,  // measure 33
00001000
01000000
00100000
10000000
00010000
01000000
10000000
01000000
,  // measure 34
00010000
00000000
00100000
00000000
00001000
00000000
00010000
00000000
00000010
00000001
00000010
00000000
00001000
00000000
00000010
00000000
,  // measure 35
00000100
00000100
00000102
00000000
00000013
00000100
00010000
00001000
,  // measure 36
01000000
00000000
00010000
00000000
00100000
00000000
00001000
00000000
10000000
00010000
00100000
00000000
01000000
00000000
10000000
00000000
,  // measure 37
10100000
00000000
01010000
00000000
00100000
00001000
00010000
00000010
,  // measure 38
00000100
00000001
00000010
00000100
00001000
00010000
00011000
00000000
,  // measure 39
00010000
00000010
00000110
00000100
00000001
00001000
00001001
00000010
,  // measure 40
00000100
00010000
00010100
00000100
00001000
00000010
00010010
00000000
,  // measure 41
00010000
00001000
01001000
01000000
00100000
10000000
10010000
00010000
,  // measure 42
00100000
01000000
01100000
00100000
00010000
00001000
00011000
00000000
,  // measure 43
00011000
00000000
00000100
00000000
00011000
00000000
00000000
00000000
00011000
00000000
00000000
00000000
00011000
00000000
00001000
00100000
,  // measure 44
00001000
00000000
00010000
00000000
00000010
00000000
00000100
00000000
00000001
00000000
00000010
00000100
00010000
00000000
00001000
00000000
,  // measure 45
00010000
00000000
00000000
00000000
01010000
00000000
00000000
00000000
10000000
00000000
00100000
01000000
00010000
00000000
00100000
00000000
,  // measure 46
00011000
00000000
00000000
00001010
00000000
00000000
00000102
00000000
00000000
00000000
00010000
00000000
00010003
00000000
00000000
00000000
,  // measure 47
00000010
00010000
00001000
00002100
00000000
00003100
00000001
00000010
,  // measure 48
00000100
00010000
00001000
00201000
00000000
01300000
10000000
00010000
,  // measure 49
01000000
00001000
00010000
00010020
00000000
00000130
00001000
00010000
,  // measure 50
01000000
10000000
00010000
02010000
00000000
00001000
03001000
00000000
,  // measure 51
00010000
00000010
00000001
00000021
00000000
00010030
00001000
00010000
,  // measure 52
00001000
01000000
10000000
01020000
00000000
00100000
00130000
00000000
,  // measure 53
00011000
00000000
00000010
00000100
00000001
00000010
00000100
00010000
,  // measure 54
00011000
00000000
00000000
01010000
00000000
00000000
11000000
00000000
00000000
00000000
00100000
00000000
00100000
00000000
00000000
00000000
,  // measure 55
10010000
00010000
00100000
00001000
00011000
00000000
00000010
00000100
,  // measure 56
00010000
01000000
10000000
01000000
01010000
00000000
00101000
00000000
,  // measure 57
00010000
00001000
00000001
00000010
00000110
00000000
00000100
00010000
,  // measure 58
00000010
00000001
00000010
00010000
00010010
00000000
00001100
00000000
,  // measure 59
00001010
00000010
00010010
00000010
00000120
00000000
00010030
00001000
,  // measure 60
00100000
10000000
00100000
00001000
00011000
00000000
01010000
00000000
,  // measure 61
00001000
00010000
00000010
00000100
00000001
00000010
00000100
00001000
,  // measure 62
00000001
00001000
00000100
00010000
00001000
01000000
00100000
10000000
00020000
00000000
00100000
00000000
00130000
00000000
00000000
00000000
,  // measure 63
10000000
00100000
00010000
00100000
02100000
00000000
03010000
00100000
00001000
00010000
00000100
00000010
00000011
00000000
00001100
00000000
,  // measure 64
00000010
00010000
00001000
00001000
00011000
00000000
00100000
00010000
00100000
00001000
00010000
01000000
10000000
00000000
01100000
00000000
,  // measure 65
00010000
00000000
00100000
00000000
00001000
00000000
00010000
00000000
00011000
00000000
00000000
00000000
00000010
00000000
00000100
00000000
00000001
00000000
00000010
00000000
00000100
00000000
00010000
00000000
00001000
00100000
00010000
00000000
20000000
00000000
00000000
00000000
,  // measure 66
31000000
00000000
00010000
00000000
01000000
00000000
10000000
00000000
00100000
00000000
01000000
00000000
00010000
00000000
00100000
00000000
00001000
00010000
00000100
00001000
00000001
00000020
00000200
00000000
00000000
00000000
00000330
00000000
00000000
00000000
00000000
00000000
;
