#TITLE:ドゥンガドゥンガ狂詩曲;
#SUBTITLE:;
#ARTIST:かねこちはる + はぁち + 飛鳥男;
#TITLETRANSLIT:Dunga dunga rhapsody;
#SUBTITLETRANSLIT:;
#ARTISTTRANSLIT:Chiharu Kaneko + haxchi + ASKA;
#GENRE:;
#CREDIT:;
#BANNER:Dunga_dunga_rhapsody_banner.png;
#BACKGROUND:Dunga_dunga_rhapsody.png;
#LYRICSPATH:;
#CDTITLE:;
#MUSIC:Dunga dunga rhapsody.ogg;
#OFFSET:-0.595000;
#SAMPLESTART:56.845001;
#SAMPLELENGTH:12.000000;
#SELECTABLE:YES;
#BPMS:0.000000=200.000000
;
#STOPS:180.500000=0.150000,
181.500000=0.150000,
182.500000=0.150000,
183.500000=0.150000
;
#BGCHANGES:;
#KEYSOUNDS:;
#ATTACKS:;

//---------------dance-single - ----------------
#NOTES:
     dance-single:
     :
     Easy:
     7:
     0.274599,0.316093,0.111060,0.281921,0.000000,225.000000,212.000000,13.000000,33.000000,0.000000,0.000000,0.274599,0.316093,0.111060,0.281921,0.000000,225.000000,212.000000,13.000000,33.000000,0.000000,0.000000:
0000
0000
0000
0000
,
0000
0000
0000
1000
0000
0000
0000
0000
,
0000
0000
0000
0001
0000
0000
0000
0000
,
0000
0000
0000
0100
0000
0000
0000
0000
,
0000
0000
0000
0010
0000
0000
0000
0000
,
0000
1000
0000
0000
0000
0001
0000
0000
,
0000
0010
0000
0000
0000
0100
0000
0100
,
0000
0000
2000
0000
,
3002
0000
0103
0000
,
0110
0000
0000
0001
0000
0000
0000
1000
,
0000
0000
0000
0100
0000
0000
0000
0020
,
0000
0000
0030
0000
,
2002
0000
3003
0000
,
0100
0010
0000
0010
,
1000
0100
0010
0000
,
0001
0100
0000
0100
,
0010
0100
0001
0000
,
0100
0010
1000
0000
,
0100
0010
0001
0000
,
2000
0000
3001
0000
,
0220
0000
0000
0000
0000
0330
0000
0000
,
1000
0000
0100
0000
,
1000
0010
0100
0000
,
0001
0000
0010
0000
,
0001
0100
0010
0000
,
0100
0000
0001
0000
,
1000
0001
0100
0000
,
0010
0000
1000
0000
,
2200
0000
0000
0000
0000
3300
0000
0000
,
0000
0001
0000
0010
,
0001
0010
0100
0000
,
1000
0010
0000
0010
,
1000
0010
0100
0000
,
0001
1000
0100
0000
,
1000
0001
0100
0000
,
0002
0000
0013
0000
,
2000
0000
3010
0000
,
0200
0000
0000
0000
0000
0300
0000
0000
,
0002
0000
0000
0000
0000
0003
0000
0000
,
0020
0000
0000
0000
0000
0030
0000
0000
,
2000
0000
0000
0000
0000
3000
0000
0010
,
0000
0000
0000
0100
0000
0000
0000
0001
,
0000
0000
0000
1000
0000
0000
0000
0200
,
0000
0310
0000
0010
,
0001
0010
0100
1000
,
0010
0000
0000
0010
0000
0010
0000
0010
,
0000
0000
0000
0100
0000
0000
0001
0000
,
0010
0001
1000
0100
,
0010
0000
0000
0100
0000
0000
1000
0000
,
0001
0010
0100
1000
,
0001
0000
1000
0010
,
2000
0000
3001
0010
,
0002
0000
0103
0000
,
0100
0000
0220
0000
,
0330
0000
0000
0010
0000
0000
0010
0000
,
1000
0001
0010
0100
,
0100
0000
1000
0001
,
0100
0010
1000
0010
,
0010
0000
1000
0100
,
0010
0000
0100
0010
,
0001
0000
0200
0000
,
0302
0000
0023
0000
,
0130
0000
0000
0000
1000
0000
0000
0001
,
0000
0000
0000
1000
0000
0000
0000
0001
,
0000
0000
0000
0200
0000
0000
0000
0000
,
0300
0000
0220
0000
,
0000
0330
0000
0000
1000
0000
0000
0000
,
0001
0000
0011
0000
,
0000
0000
0100
0000
,
0001
0000
1100
0000
,
0000
0000
0010
0000
,
0100
0000
1001
0000
,
0000
0000
0100
0000
,
0010
0000
0101
0000
,
0000
0000
0000
0010
,
0100
0010
1000
0000
,
1000
0100
0010
0000
,
0001
0010
0001
0000
,
1000
0010
0100
0000
,
0100
0001
0010
0000
,
0100
1000
0002
0000
,
2003
0000
3010
0100
,
0020
0030
0100
0001
,
0010
0100
0010
0001
,
1000
0000
0010
0100
,
1000
0001
0010
0100
,
0001
0000
0100
0010
,
1000
0000
0100
0010
,
0001
0000
1001
0000
,
0010
0000
0220
0000
,
0000
0330
0000
0000
2000
0000
0000
0000
,
0001
0000
0000
0000
,
3100
0000
0011
0000
;

//---------------dance-single - ----------------
#NOTES:
     dance-single:
     :
     Medium:
     11:
     0.475971,0.513652,0.093974,0.179404,0.000000,390.000000,379.000000,11.000000,21.000000,0.000000,0.000000,0.475971,0.513652,0.093974,0.179404,0.000000,390.000000,379.000000,11.000000,21.000000,0.000000,0.000000:
// measure 0
0000
0000
0000
0000
,  // measure 1
0000
0000
0000
1000
0000
0000
0000
0001
,  // measure 2
0000
0010
0000
0001
0000
0000
0000
0110
,  // measure 3
0000
0000
0000
0001
0000
0000
0000
1000
,  // measure 4
0000
0100
0000
1000
0000
0000
0000
0010
,  // measure 5
0000
0000
0010
0000
1000
0000
1000
0001
,  // measure 6
0000
0000
0010
0000
0001
0000
1000
0010
,  // measure 7
0000
0100
0001
1000
,  // measure 8
0100
0000
1000
0000
0010
0100
0020
0000
,  // measure 9
1030
0000
0100
0010
0000
0100
1000
0001
,  // measure 10
0000
0100
0010
1000
0000
0001
0010
0002
,  // measure 11
0000
0100
0100
0103
,  // measure 12
2020
0000
0000
0000
0000
3030
0000
0000
,  // measure 13
0100
0000
0001
0000
0010
0000
0100
1000
,  // measure 14
0000
0010
0000
1000
0001
0000
0010
0000
,  // measure 15
0001
0000
0100
0000
0001
0000
1000
0010
,  // measure 16
0000
0100
0000
0001
0010
0000
1001
0000
,  // measure 17
1000
0000
0010
0000
0100
0000
0001
0010
,  // measure 18
0000
0100
0000
1000
0000
0001
1000
0000
,  // measure 19
0100
0000
0010
0000
0001
0010
0100
2000
,  // measure 20
0000
0000
0000
3000
,  // measure 21
0010
1000
0001
1000
,  // measure 22
0100
0000
0010
0100
0000
1000
0000
0001
,  // measure 23
0100
0010
0100
0001
,  // measure 24
1000
0000
0001
0010
0000
0100
0000
0010
,  // measure 25
0001
1000
0010
1000
,  // measure 26
0001
0000
0010
0100
0000
1000
0000
0001
,  // measure 27
1000
0000
0000
0220
0000
0000
0330
0000
,  // measure 28
0001
0000
0100
1000
0000
0100
0000
0001
,  // measure 29
0000
1000
0100
0010
,  // measure 30
0001
1000
0001
1000
0000
0100
0000
0010
,  // measure 31
0000
0100
1000
0010
,  // measure 32
1000
0001
1000
0001
0000
0100
0000
0010
,  // measure 33
0000
0100
0001
0010
,  // measure 34
0001
0000
1000
0010
0000
0010
0000
0100
,  // measure 35
0010
0000
1000
0001
0000
0010
0000
1001
,  // measure 36
0000
0000
0100
0000
0010
0100
0010
0100
,  // measure 37
0002
0000
0000
0000
0013
0000
0100
1000
,  // measure 38
0000
0010
1000
0010
,  // measure 39
0200
0000
0301
0010
,  // measure 40
0100
2000
0000
3000
0000
0001
1000
0001
,  // measure 41
0000
0100
0010
0100
0000
0001
0010
0001
,  // measure 42
0000
1000
0100
1000
0000
0010
0100
0010
,  // measure 43
0000
0000
0010
0000
1000
0000
0100
1000
,  // measure 44
0000
0000
0001
0000
0010
0001
1000
0000
,  // measure 45
0010
0100
0000
0100
0000
0100
0000
0100
,  // measure 46
0220
0330
0000
0001
0000
0000
0010
0001
,  // measure 47
0000
1000
0010
1000
0000
0001
0100
0001
,  // measure 48
0000
0000
0000
1000
0000
0010
0100
0000
,  // measure 49
0001
0010
0001
0000
0010
0100
1000
0100
,  // measure 50
0000
0000
0000
1000
0000
0001
0100
0000
,  // measure 51
0010
0000
0100
0001
0000
0000
0010
0000
,  // measure 52
0100
1000
0001
1000
,  // measure 53
0100
0010
0100
0010
0000
0000
0100
0000
,  // measure 54
1000
0001
0000
1001
0000
0000
0010
0000
,  // measure 55
1000
0001
1000
0000
0001
0010
0100
1000
,  // measure 56
0000
0000
0000
1000
0000
0010
1000
0000
,  // measure 57
0001
0010
0001
0000
1000
0100
0010
0001
,  // measure 58
0000
0000
0000
0100
0000
0001
0010
0000
,  // measure 59
0001
0000
1000
0010
0000
0000
1000
0000
,  // measure 60
0100
1000
0001
1000
0000
0000
0010
0000
,  // measure 61
0110
0000
0000
0001
0000
0000
1000
0000
,  // measure 62
0010
0100
0000
0000
0001
0000
0010
0100
,  // measure 63
0000
1000
0000
0010
0000
0100
0000
0001
,  // measure 64
0000
0010
0001
2000
0000
0000
0010
0000
,  // measure 65
0010
3010
0202
0000
,  // measure 66
0000
0303
0000
0000
2000
0000
0000
0000
,  // measure 67
0010
0000
3001
0010
,  // measure 68
0001
1000
0002
0000
,  // measure 69
0010
0000
1003
0100
,  // measure 70
1000
0001
0200
0000
,  // measure 71
0010
0000
0301
0010
,  // measure 72
0100
1000
0020
0000
,  // measure 73
1000
0000
0130
0001
,  // measure 74
0010
0100
0010
0100
0000
0000
1000
0000
,  // measure 75
0001
0000
1000
0010
0000
1000
0000
0001
,  // measure 76
0010
0001
1000
0000
0001
0000
0010
0000
,  // measure 77
0100
0000
1000
0010
0000
0100
0000
0010
,  // measure 78
1000
0001
1000
0000
0001
0000
1000
0000
,  // measure 79
0100
0000
0010
0001
0000
1000
0000
0001
,  // measure 80
0010
0001
0100
0010
,  // measure 81
1000
0001
1000
0001
0000
0000
0010
0000
,  // measure 82
0100
0100
0000
0000
0010
0000
0001
0000
,  // measure 83
1000
0100
1000
0000
0010
0000
0100
0000
,  // measure 84
0001
0010
0001
0000
1000
0000
0001
0000
,  // measure 85
0010
0100
1000
0000
0010
0000
1000
0000
,  // measure 86
0001
0100
0010
0000
1000
0000
0100
0000
,  // measure 87
1000
0001
0100
0000
0001
0000
1000
0000
,  // measure 88
0001
1000
0100
0000
0010
0000
0100
0000
,  // measure 89
1000
0001
1000
0000
0010
0100
0010
0100
,  // measure 90
0001
1000
2002
0000
,  // measure 91
0000
0000
0000
0000
,  // measure 92
3003
0000
0110
0000
;

//---------------dance-single - ----------------
#NOTES:
     dance-single:
     :
     Hard:
     14:
     0.740806,0.790234,0.324636,0.230663,0.085431,607.000000,569.000000,38.000000,27.000000,0.000000,0.000000,0.740806,0.790234,0.324636,0.230663,0.085431,607.000000,569.000000,38.000000,27.000000,0.000000,0.000000:
// measure 0
0000
0000
0000
0000
0000
0000
0000
1001
,  // measure 1
0000
0100
0010
0100
0000
0001
0010
0001
,  // measure 2
0000
1100
0000
0202
0000
0303
0000
0010
,  // measure 3
0000
0100
0001
1000
0100
0001
0100
1000
,  // measure 4
0000
1010
0000
0022
0000
0033
0000
0100
,  // measure 5
0000
0001
0010
0100
1000
0010
1000
0001
,  // measure 6
0000
0001
0100
0010
1000
0001
0100
0001
,  // measure 7
0000
0010
0100
0000
1000
0100
0001
0100
,  // measure 8
0000
1000
0010
0001
0010
0200
0300
0000
,  // measure 9
1010
0000
0100
0101
0000
0001
0010
0011
,  // measure 10
0000
1000
0100
1100
0000
0010
1000
0001
,  // measure 11
0000
0000
0010
0000
0001
0000
1000
0000
0001
1000
0001
1000
0001
0000
0100
0000
,  // measure 12
0020
1000
1000
1000
1000
0000
1030
0000
,  // measure 13
0100
0001
0100
0010
1000
0100
0010
0001
,  // measure 14
1000
0010
0001
0010
1000
0010
0001
0000
,  // measure 15
0010
0100
0001
1000
0001
0010
0100
1000
,  // measure 16
0100
0001
0100
1000
0100
0001
0100
0000
,  // measure 17
1000
0001
0010
0100
0010
0001
1000
0010
,  // measure 18
0000
0010
0100
0001
1000
0010
0001
0010
,  // measure 19
0100
0001
1000
0100
0001
0100
1000
0010
,  // measure 20
0000
0010
0100
0001
1000
0000
1001
0000
,  // measure 21
0200
0001
0001
0301
,  // measure 22
0010
0000
0100
1000
0000
1000
0001
0100
,  // measure 23
0020
1000
1000
1030
,  // measure 24
0001
0000
1000
0100
0000
0010
0001
1000
,  // measure 25
0002
0100
1000
1003
,  // measure 26
0110
0000
0001
0100
0000
0010
1000
0001
,  // measure 27
0010
0000
0200
2000
0000
0000
3300
0000
,  // measure 28
0101
0000
0010
0110
0000
1001
0000
0110
,  // measure 29
0000
0010
1000
0100
1000
0100
0010
0000
,  // measure 30
0001
0100
0010
1000
0000
0100
1000
0001
,  // measure 31
0100
0010
0100
0001
0010
0100
1000
0000
,  // measure 32
0010
0100
0010
0001
0000
0010
1000
0100
,  // measure 33
1000
0001
0010
0100
0010
0001
1000
0000
,  // measure 34
1001
0000
0100
0001
0000
0010
0100
1000
,  // measure 35
0010
1000
0001
0100
0000
0011
0000
1100
,  // measure 36
0000
0010
1000
0001
0010
1000
0010
0001
,  // measure 37
2000
0000
0000
0000
0100
0000
3001
0020
,  // measure 38
0000
0100
1000
0130
,  // measure 39
0002
0000
0100
1003
,  // measure 40
0020
0200
0000
0330
0000
1000
0100
1100
,  // measure 41
0000
0001
0100
0101
0000
1000
0010
1010
,  // measure 42
0000
0001
0010
0011
0000
0100
0001
1000
,  // measure 43
0000
0010
1000
0001
0010
1000
0010
0001
,  // measure 44
0000
0001
1000
0100
0001
0100
1000
0000
,  // measure 45
0010
0110
1000
1100
0001
0011
1000
1001
,  // measure 46
0220
0000
0330
1001
0000
0100
1000
0100
,  // measure 47
0001
0100
1000
0010
0100
0001
0010
0200
,  // measure 48
0000
0310
0001
0010
0000
0001
0100
1000
,  // measure 49
0100
0001
0010
0100
1000
0010
0100
0001
,  // measure 50
0000
1000
0010
0001
0000
0001
0010
1000
,  // measure 51
0001
1000
0100
0001
0000
0001
0100
1000
,  // measure 52
0010
0000
0110
0000
0001
0010
0100
1000
,  // measure 53
0001
1000
0100
0010
0000
0010
0100
1000
,  // measure 54
0001
0001
0000
1010
0000
0100
0010
1000
,  // measure 55
0100
0001
0100
1000
0010
0100
0010
0001
,  // measure 56
0000
0001
0010
1000
0000
1000
0100
0001
,  // measure 57
0100
1000
0010
1000
0001
0010
0100
1000
,  // measure 58
0000
0010
0100
0001
0000
1000
0010
1000
,  // measure 59
0001
0010
0100
1000
0000
1000
0010
0100
,  // measure 60
0001
0010
0001
0100
0000
0100
0010
1000
,  // measure 61
0001
0100
0001
1000
0000
1000
0100
0010
,  // measure 62
0100
0200
0300
0000
0011
0000
1000
1010
,  // measure 63
0000
0001
0100
0101
0000
0010
1000
1010
,  // measure 64
0000
1000
0100
1100
0000
1000
0001
0010
,  // measure 65
0100
0010
0100
0010
0100
0000
0010
0000
0002
0000
1000
0000
1000
0000
1000
0000
,  // measure 66
1003
1001
0210
0000
,  // measure 67
1000
0000
0000
0000
0301
0010
1000
0010
,  // measure 68
0001
1000
0100
0001
0200
0000
0000
0000
,  // measure 69
0001
0000
0000
0000
1300
0001
0100
1000
,  // measure 70
0100
0001
0010
0001
2000
0000
0000
0000
,  // measure 71
0010
0000
0000
0000
3100
0010
0100
1000
,  // measure 72
0010
0100
0010
1000
0002
0000
0000
0000
,  // measure 73
0100
0000
0000
0000
0013
0100
1000
0100
,  // measure 74
0001
0100
1000
0010
0000
0010
1000
0001
,  // measure 75
0010
0001
0100
1000
0100
0001
0100
1000
,  // measure 76
0100
0001
0100
0000
0001
0010
0100
0000
,  // measure 77
1000
0010
0100
0010
1000
0010
0001
0010
,  // measure 78
1000
0010
0001
0000
0010
0100
0001
0000
,  // measure 79
1000
0100
0010
0001
0010
1000
0010
0001
,  // measure 80
0010
1000
0010
0000
0001
0100
0010
1000
,  // measure 81
0100
0010
0001
0100
0000
0010
0100
0001
,  // measure 82
1000
0000
2000
0000
3000
0000
0000
0000
0001
0000
0100
0000
0001
0010
0000
0001
,  // measure 83
0000
0000
1000
0000
0100
0000
0010
0000
0100
0000
1000
0000
0010
0100
0000
0010
,  // measure 84
0000
0000
0100
0000
0001
0000
1000
0000
0100
0000
1000
0000
0010
1000
0000
0001
,  // measure 85
0000
0000
0010
0000
0001
0000
1000
0000
0100
0000
1000
0000
0010
0100
0000
0001
,  // measure 86
0000
0000
0010
0000
0100
0000
1000
0000
0001
0000
1000
0000
0100
0001
0000
0100
,  // measure 87
0000
0000
1000
0000
0010
0000
0100
0000
0001
0000
0010
0000
1000
0010
0000
0001
,  // measure 88
0000
1000
0010
0100
0001
0010
0100
1000
,  // measure 89
0001
0000
0010
0000
0100
0000
1000
0000
0010
1000
0000
0000
0001
0100
0000
0000
,  // measure 90
1000
0100
0000
0000
0010
0001
0000
0000
0020
0000
0000
0000
0000
0000
0000
0000
,  // measure 91
1000
0000
0000
0000
,  // measure 92
0031
0000
0110
0000
;
