#TITLE:DropZ-Line-;
#SUBTITLE:;
#ARTIST:Getty vs. DJ DiA;
#TITLETRANSLIT:;
#SUBTITLETRANSLIT:;
#ARTISTTRANSLIT:;
#GENRE:PUMPCORE;
#CREDIT:;
#BANNER:DropZ-Line-_banner.png;
#BACKGROUND:DropZ-Line-.png;
#LYRICSPATH:;
#CDTITLE:;
#MUSIC:DropZ-Line-.ogg;
#OFFSET:-0.600000;
#SAMPLESTART:79.800003;
#SAMPLELENGTH:12.000000;
#LASTBEATHINT:380.500000;
#SELECTABLE:YES;
#BPMS:0.000000=200.000000
,200.000000=100.000000
,220.000000=200.000000
,228.000000=400.000000
,244.000000=50.000000
,246.000000=200.000000
;
#STOPS:
;
#BGCHANGES:;
#KEYSOUNDS:;
#ATTACKS:;

//---------------dance-single - ----------------
#NOTES:
     dance-single:
     :
     Easy:
     9:
     0.395817,0.465260,0.163464,0.318755,0.000000,339.000000,319.000000,20.000000,39.000000,0.000000,0.000000,0.395817,0.465260,0.163464,0.318755,0.000000,339.000000,319.000000,20.000000,39.000000,0.000000,0.000000:
// measure 0
0000
0000
0000
0000
,  // measure 1
0000
0000
0000
0000
,  // measure 2
0010
0000
0000
0010
0000
0000
0100
0000
,  // measure 3
0001
0000
0000
0001
0000
0000
0010
0000
,  // measure 4
0100
0000
0000
0100
0000
0000
1000
0000
,  // measure 5
0001
0000
0000
1000
0010
0000
0100
0000
,  // measure 6
0001
0010
0100
1000
,  // measure 7
0001
1000
0100
0010
,  // measure 8
0001
0000
1000
0000
0001
1000
0001
0000
,  // measure 9
2002
0000
0000
0000
0000
3003
0000
0000
,  // measure 10
0010
0001
0100
0001
,  // measure 11
0010
0100
1000
0010
,  // measure 12
1000
0001
0100
0010
,  // measure 13
1000
0100
2200
3300
,  // measure 14
0002
0013
0001
1000
,  // measure 15
0010
1000
0001
0100
,  // measure 16
0001
0010
0100
1000
,  // measure 17
0001
0000
1000
0001
1000
0000
0020
0000
,  // measure 18
1030
0100
1000
0001
,  // measure 19
1000
0010
0100
0010
,  // measure 20
1000
0001
0010
0100
,  // measure 21
1000
0001
2002
3003
,  // measure 22
0100
0010
1000
0010
,  // measure 23
0100
0001
0010
0100
,  // measure 24
1000
0001
0010
0001
,  // measure 25
2002
0000
0000
0000
0000
3003
0000
0000
,  // measure 26
0100
0001
0100
0010
,  // measure 27
0010
0010
0020
0030
,  // measure 28
1000
0100
1000
0001
,  // measure 29
0001
0001
0002
0003
,  // measure 30
0010
0100
1000
0001
,  // measure 31
0001
0001
0101
0000
,  // measure 32
0010
1000
0001
0010
,  // measure 33
0010
0010
0110
0000
,  // measure 34
1000
0000
0000
0010
0000
0000
1000
0000
,  // measure 35
0001
0000
0000
0100
0000
0000
0001
0000
,  // measure 36
0010
0000
0000
0001
0000
0000
0010
0000
,  // measure 37
0100
0000
0000
1000
0001
0000
0100
0000
,  // measure 38
0010
1000
0010
1000
,  // measure 39
0001
0010
0001
0010
,  // measure 40
0100
1000
0001
0100
,  // measure 41
0220
0000
0330
0000
,  // measure 42
1000
0100
0010
0100
,  // measure 43
1000
0001
0010
0100
,  // measure 44
0010
0001
1000
0010
,  // measure 45
1000
0001
2002
3003
,  // measure 46
0100
0001
1000
0010
,  // measure 47
1000
0001
0010
0100
,  // measure 48
1000
0100
0001
0100
,  // measure 49
0220
0000
0000
0000
0000
0330
0000
0000
,  // measure 50
1001
0000
0100
0000
,  // measure 51
0010
0010
0010
0000
,  // measure 52
1000
0001
1000
0000
0010
0000
0010
0000
,  // measure 53
0100
0001
0100
0000
0010
0000
1000
0000
,  // measure 54
0001
0010
0100
1000
0001
0000
1000
0000
,  // measure 55
0010
0100
0001
1000
,  // measure 56
0010
0000
1001
0000
,  // measure 57
0020
0000
0000
0000
,  // measure 58
0230
0000
0000
0000
,  // measure 59
0320
0000
0000
0000
,  // measure 60
0130
0000
0000
0000
,  // measure 61
1001
0000
0010
0001
,  // measure 62
0100
0001
1000
0010
,  // measure 63
1000
0100
0010
0100
,  // measure 64
1000
0001
0100
0010
,  // measure 65
2002
3003
0100
0001
,  // measure 66
1000
0010
1000
0001
,  // measure 67
0010
0100
1000
0010
,  // measure 68
0100
0001
0010
0010
,  // measure 69
0220
0330
1000
0100
,  // measure 70
1000
0001
1000
0010
,  // measure 71
1000
0001
0010
0001
,  // measure 72
1000
0001
0100
0001
,  // measure 73
0022
0033
1000
0001
,  // measure 74
0100
0010
0100
0000
0001
0000
0010
0000
,  // measure 75
0001
1000
0001
0000
1000
0000
0010
0000
,  // measure 76
0100
0010
0100
0010
2000
0000
0000
0000
,  // measure 77
3002
0000
0013
0001
,  // measure 78
0100
0001
0010
0100
,  // measure 79
1000
0010
1000
0001
,  // measure 80
0100
0010
0100
0001
,  // measure 81
2002
3003
0020
0031
,  // measure 82
0100
0010
1000
0010
,  // measure 83
0001
0010
1000
0001
,  // measure 84
0010
0100
1000
0001
,  // measure 85
0220
0000
0330
0000
1000
0000
0000
1000
,  // measure 86
0000
0000
0001
0000
0010
0000
0000
0010
,  // measure 87
0000
0000
0100
0000
1000
0000
0000
1000
,  // measure 88
0000
0000
0001
0000
0100
0000
0000
0100
,  // measure 89
0000
0000
0020
0000
1030
0000
0000
1100
,  // measure 90
0000
0000
0001
0000
0010
0000
0000
0011
,  // measure 91
0000
0001
2000
0000
,  // measure 92
3002
0000
0103
0010
,  // measure 93
1000
0001
2002
0000
,  // measure 94
0000
0000
0000
0000
0000
0000
3000
0003
;

//---------------dance-single - ----------------
#NOTES:
     dance-single:
     :
     Medium:
     14:
     0.744929,0.930520,0.416834,0.155291,0.028606,638.000000,587.000000,51.000000,19.000000,0.000000,0.000000,0.744929,0.930520,0.416834,0.155291,0.028606,638.000000,587.000000,51.000000,19.000000,0.000000,0.000000:
// measure 0
0000
0000
0000
0000
,  // measure 1
0000
0000
0000
0000
,  // measure 2
0011
0000
1000
1010
0000
0000
0011
0000
,  // measure 3
1100
0000
0001
0101
0000
0000
1100
0000
,  // measure 4
1010
0000
0100
0110
0000
0000
0101
0000
,  // measure 5
0011
0000
0001
1000
0001
0100
2000
0000
,  // measure 6
3100
0001
0100
0001
1000
0010
1000
0010
,  // measure 7
1000
0001
1000
0001
0010
0001
0010
0001
,  // measure 8
1000
0000
0001
0000
0010
0000
0100
0000
1000
0001
1000
0000
0010
0000
0100
0000
,  // measure 9
0001
1001
0220
0330
,  // measure 10
1000
0010
1000
0001
0010
0100
0010
0001
,  // measure 11
1000
0010
0100
0010
1000
0100
0010
0000
,  // measure 12
0001
0100
0010
0100
0001
1000
0010
0100
,  // measure 13
0001
0000
1001
0000
0100
0001
0010
0100
,  // measure 14
2000
0000
3001
0100
0010
0100
0001
1000
,  // measure 15
0010
1000
0100
0010
0001
0010
0100
1000
,  // measure 16
0010
0100
0001
1000
0100
0010
0001
1000
,  // measure 17
0010
0100
0010
0100
0010
0000
1001
0000
,  // measure 18
0020
0000
0031
0100
0001
0010
0100
1000
,  // measure 19
0010
0100
0010
1000
0001
0010
0001
0000
,  // measure 20
0200
0000
0301
0010
0001
1000
0010
1000
,  // measure 21
0001
0010
0100
1000
0001
0000
1001
0000
,  // measure 22
0200
0000
0310
1000
0001
1000
0100
0010
,  // measure 23
0002
0000
1003
0010
0100
0001
1000
0100
,  // measure 24
0020
0000
0031
1000
1001
0000
0100
0010
,  // measure 25
1000
0100
0001
0100
1000
0000
1001
0000
,  // measure 26
0010
0001
0100
0001
0010
0000
0100
1000
,  // measure 27
0100
0001
0100
1000
0100
0001
0100
0000
,  // measure 28
1000
0010
0100
0010
1000
0000
0001
0010
,  // measure 29
1000
0010
0001
0010
1000
0010
0001
0000
,  // measure 30
0100
0001
0010
0100
1000
0000
0010
1000
,  // measure 31
0010
0001
0010
1000
0010
0001
0010
0000
,  // measure 32
0100
0001
1000
0100
0010
0000
0010
0001
,  // measure 33
1000
0010
0100
0001
1000
0100
0110
0000
,  // measure 34
0001
0000
0100
0101
0000
0000
0010
0000
,  // measure 35
1010
0000
1000
1100
0000
0010
0100
0001
,  // measure 36
0010
0000
0001
0101
0000
0000
0010
0000
,  // measure 37
1010
0000
1000
1100
0000
0010
0100
0001
,  // measure 38
1000
0010
1000
0100
1000
0001
1000
0001
,  // measure 39
0001
0010
0001
1000
0001
0100
0001
1000
,  // measure 40
1000
0010
0100
0001
0010
0100
1000
0100
,  // measure 41
0002
0100
0100
0103
,  // measure 42
1000
0010
1000
0001
0010
0100
1000
0001
,  // measure 43
0010
0100
0010
0001
1000
0010
0100
0000
,  // measure 44
0010
1000
0100
1000
0001
0010
0100
0001
,  // measure 45
0100
1000
0010
0100
0001
0000
1001
0000
,  // measure 46
0100
0010
1000
0001
0010
0100
1000
0010
,  // measure 47
0100
0001
0100
1000
0100
0010
2000
0000
,  // measure 48
3001
0000
0010
0001
1001
0000
1000
0010
,  // measure 49
0100
0001
1000
0001
0010
0100
1000
0000
,  // measure 50
1001
0000
0010
0000
0010
0100
0010
0000
,  // measure 51
1001
0000
0100
0000
0010
1000
0001
0010
,  // measure 52
0001
0100
1000
0100
0010
1000
0100
0000
,  // measure 53
1000
0010
0001
0010
1000
0001
0010
0000
,  // measure 54
0001
0100
0010
1000
0001
0010
0100
1000
0010
1000
0100
0010
0001
0000
1001
0000
,  // measure 55
1000
0010
0100
0001
1000
0100
0010
0001
,  // measure 56
0100
0001
0010
0100
1000
0000
1001
0000
,  // measure 57
0010
0100
0010
0100
,  // measure 58
0010
0100
0010
0100
,  // measure 59
0001
1000
0001
1000
,  // measure 60
0001
0000
0010
0000
,  // measure 61
0220
0000
0330
0000
1000
0100
0001
0100
,  // measure 62
1000
0010
0100
0001
0010
0100
1000
0001
,  // measure 63
0100
0010
0100
0000
0001
0100
0010
1000
,  // measure 64
0100
0010
0001
1000
0010
0100
1000
0100
,  // measure 65
0001
0000
1001
0000
0010
0001
1000
0001
,  // measure 66
0010
0100
1000
0010
0100
0001
0010
1000
,  // measure 67
0010
0001
1000
0000
0010
0100
0010
1000
,  // measure 68
0001
0010
0100
1000
0100
0001
0100
1000
,  // measure 69
0010
0010
0010
0000
1000
0100
1000
0010
,  // measure 70
1000
0001
1000
0001
0010
0100
0010
0001
,  // measure 71
0010
1000
0010
0000
0001
0100
0001
1000
,  // measure 72
0001
0010
0001
1000
0010
0100
0010
0001
,  // measure 73
0010
1000
0010
0000
0100
0001
1000
0010
,  // measure 74
1000
0100
0020
0000
0031
0100
0010
1000
,  // measure 75
0100
0010
0002
0000
1003
0000
0101
0000
,  // measure 76
0010
0000
1100
0000
0010
0100
0010
0100
,  // measure 77
0001
0000
1001
0000
0200
0000
0310
1000
,  // measure 78
0010
0100
0001
0010
0001
1000
0010
0000
,  // measure 79
0010
1000
0001
0000
0010
0001
1000
0001
,  // measure 80
1000
0010
0100
0001
1000
0100
0010
0000
,  // measure 81
0010
0100
2000
0000
3001
0100
0010
1000
,  // measure 82
0100
0010
0001
0000
1000
0010
0100
0001
,  // measure 83
0010
0100
1000
0000
0001
0000
1100
0000
,  // measure 84
0010
0000
0101
0000
1000
0010
0001
0010
,  // measure 85
1000
0000
1001
0000
0010
0000
0100
0110
,  // measure 86
0000
0000
1000
0000
0011
0000
1000
1001
,  // measure 87
0000
0000
0001
0000
0011
0000
0100
0110
,  // measure 88
0000
0000
0001
0000
1000
0000
0010
1000
,  // measure 89
0001
0010
0100
0000
1100
0000
0001
1001
,  // measure 90
0000
0000
0010
0000
1001
0000
0100
0110
,  // measure 91
0000
1000
0101
0010
,  // measure 92
0101
0000
1000
0000
1100
0000
0001
1000
,  // measure 93
0001
0010
0100
0000
0022
0000
0000
0000
,  // measure 94
0000
0000
0000
0000
0000
0000
0030
0003
;

//---------------dance-single - ----------------
#NOTES:
     dance-single:
     :
     Hard:
     18:
     1.050841,1.281150,0.523085,0.179811,0.751935,900.000000,836.000000,64.000000,22.000000,0.000000,0.000000,1.050841,1.281150,0.523085,0.179811,0.751935,900.000000,836.000000,64.000000,22.000000,0.000000,0.000000:
// measure 0
0000
0000
0000
0000
,  // measure 1
0000
0000
0000
0000
,  // measure 2
1001
0000
0010
0110
0000
1000
0010
0000
,  // measure 3
1100
0000
0000
0000
0001
0000
0100
0000
0010
1000
0001
1000
0010
0000
0000
0000
,  // measure 4
0101
0000
0010
0110
0000
1000
0100
0000
,  // measure 5
1010
0000
0000
0000
1000
0000
0001
0000
0010
0000
0100
1000
0002
0000
0000
0000
,  // measure 6
1003
0010
1000
0010
0100
0001
0100
0001
,  // measure 7
0010
0001
0010
0100
1000
0010
0001
0010
,  // measure 8
1000
0001
1000
0001
0010
0100
0010
0100
1000
0010
1000
0010
0100
0001
0100
0001
,  // measure 9
0010
0000
0110
0000
1000
0001
1001
0000
,  // measure 10
0010
0000
1000
0100
0010
0000
0001
0000
1000
0010
0100
0000
0010
0000
1000
0000
,  // measure 11
0001
0000
0010
0000
0001
0100
0000
0100
0010
0000
1000
0000
0100
0000
0001
0000
,  // measure 12
0100
0000
1000
0001
0100
0000
0010
0000
1000
0001
0100
0000
0001
0000
0010
0000
,  // measure 13
0100
1000
0001
0100
0010
0010
0110
0000
,  // measure 14
2002
0000
3003
0000
0100
0010
0100
0000
0001
0010
0100
0000
1000
0000
0010
0000
,  // measure 15
0100
0000
0001
0000
1000
0100
0000
0100
0010
0000
0100
0000
1000
0000
0001
0100
,  // measure 16
0010
0000
1000
0000
0001
0010
0100
0000
1000
0100
1000
0000
0010
0000
0100
0000
,  // measure 17
0001
0001
0011
0002
2003
3001
1100
0000
,  // measure 18
0220
0000
0330
0000
1000
0001
0100
0000
0001
1000
0100
0000
0010
0000
0100
0000
,  // measure 19
1000
0000
0001
0000
0010
0100
0000
0100
0010
0000
0001
0000
1000
0000
0010
0100
,  // measure 20
0002
0000
0000
0000
0103
0000
0010
1000
0100
0000
1000
0001
0100
0000
0010
0000
,  // measure 21
1000
0000
0001
0000
0001
0000
1000
0000
0010
0100
0010
0000
1000
0001
1000
0001
,  // measure 22
2000
0000
0000
0000
3010
0100
0001
0000
0010
0100
1000
0000
0001
0000
0100
0000
,  // measure 23
0002
0000
0000
0000
0013
0100
1000
0000
0010
0100
0001
0000
1000
0000
0010
0000
,  // measure 24
1010
0000
0000
0000
0001
0000
0010
0000
0011
0000
0000
0000
1000
0001
0010
0100
,  // measure 25
1000
1000
1100
2000
3002
0103
0101
0000
,  // measure 26
0010
0000
1000
0010
1000
0000
0001
0000
0011
0000
0000
0000
0100
0000
0001
0000
,  // measure 27
0100
1000
0100
0001
0100
0010
0010
0100
,  // measure 28
0001
0000
0010
0100
1000
0000
0001
0000
1001
0000
0000
0000
0010
0000
1000
0000
,  // measure 29
0010
0000
0001
0000
0010
0000
1000
0000
0010
1000
0010
0001
0010
0000
0100
0000
,  // measure 30
0001
0000
1000
0100
0010
0000
0001
0000
1001
0000
0000
0000
0100
0000
1000
0000
,  // measure 31
0100
0000
0001
0000
0010
0000
1000
0000
0010
1000
0001
1000
0001
0000
0100
0000
,  // measure 32
0010
0000
1000
0001
0100
0000
0010
0000
1000
0000
0010
0000
0100
0000
0001
0010
,  // measure 33
0100
0000
1000
0001
0100
0000
0010
0000
1000
0001
0010
0100
1000
0000
0000
0000
,  // measure 34
1001
0000
0010
0011
0000
1000
1010
0010
,  // measure 35
0110
0000
0001
1001
0000
0100
0110
0010
,  // measure 36
1010
0000
1000
0101
0000
0001
0011
0010
,  // measure 37
0110
0000
0000
0000
0001
0000
1100
0000
0000
0000
0010
0100
0010
0000
0000
0000
,  // measure 38
1000
0000
0100
0000
0001
0000
0100
0000
1000
0000
0100
0001
0100
0000
1000
0000
,  // measure 39
0010
0000
0001
0000
0010
0000
1000
0000
0010
0000
0001
0010
0001
0000
0010
0000
,  // measure 40
1000
0000
0001
0100
0001
0000
0010
0100
1000
0000
0010
0100
0001
0010
0001
1000
,  // measure 41
0002
0010
0010
0010
0013
0000
0110
0000
,  // measure 42
1000
0000
0001
0100
0010
0000
1000
0000
0010
0100
0001
0000
1000
0000
0100
0000
,  // measure 43
1000
0000
0010
0100
0001
0000
1000
0000
0010
1000
0100
0000
0010
0000
0001
0000
,  // measure 44
1000
0000
0001
1000
0010
0000
1000
0000
0001
1000
0010
0000
0100
0000
0001
0000
,  // measure 45
0010
0100
0010
0000
0100
1000
0100
0000
1000
0001
1000
0001
2000
0000
0000
0000
,  // measure 46
3001
0000
0100
0010
1000
0000
0001
0000
1000
0100
0010
0000
0001
0000
0100
0000
,  // measure 47
0010
0000
1000
0001
0100
0000
0010
0000
1000
0100
0010
0000
0001
0000
0010
0000
,  // measure 48
0001
0000
0000
0000
0100
0000
0100
0000
0110
0000
0000
0000
1000
0010
0100
0000
,  // measure 49
0001
1000
0100
0000
1000
0001
0100
0000
0010
0100
0001
1000
0010
0000
0000
0000
,  // measure 50
0220
0000
0330
0000
,  // measure 51
1010
0000
0000
0000
0100
0000
0001
0000
1000
0000
0001
0000
0010
0000
0100
0000
0000
0000
0100
0000
0010
0000
0001
0000
1000
0000
0010
0100
0010
0000
0000
0000
,  // measure 52
0101
0000
0010
0001
1000
0010
0100
0001
0000
0001
1000
0010
1000
0100
0001
0100
,  // measure 53
1000
0000
0010
0000
0100
0000
0001
0000
0010
0000
0100
0000
1000
0000
0001
0000
0000
0000
0001
0000
0010
0000
0100
0000
0010
0000
0001
1000
0001
0000
0000
0000
,  // measure 54
1000
0010
0100
0001
0010
0100
1000
0001
0010
0001
0100
0010
1010
0000
0101
0000
,  // measure 55
0010
0001
1000
0000
0010
0000
0100
0000
0001
0010
0100
0000
1000
0000
0010
0000
,  // measure 56
0100
0001
1000
0000
0001
0010
0100
1000
0001
0000
0000
1001
0000
0000
0100
0000
,  // measure 57
0010
1000
0010
1000
0001
0010
0001
0010
,  // measure 58
0100
1000
0100
1000
0001
1000
0001
1000
,  // measure 59
0100
0010
0100
0010
0001
0010
0001
0010
,  // measure 60
0001
0010
0100
1000
0001
0010
0100
1000
,  // measure 61
0002
0000
0000
0000
0000
0013
0100
1000
1000
0010
0100
0000
0001
0000
0010
0000
,  // measure 62
0001
0000
1000
0100
0010
0000
0001
0000
1000
0001
0010
0000
0001
0000
0100
0000
,  // measure 63
0010
0000
1000
0010
0000
1000
0001
1000
0001
0010
0100
0000
0010
0000
0001
0000
,  // measure 64
1000
0000
0010
0100
0001
0000
0010
0000
0100
1000
0001
0000
1000
0000
0010
0100
,  // measure 65
0010
0000
1000
0010
1000
0001
0100
0000
0010
1000
0100
0000
0010
0000
0001
0000
,  // measure 66
0100
0000
0001
0010
0100
0000
1000
0000
0010
1000
0001
0000
0010
0000
0001
0000
,  // measure 67
1000
0000
0100
0010
0000
0100
0010
0100
1000
0010
0100
0000
0001
0000
0010
0000
,  // measure 68
0001
0000
1000
0010
0100
0000
0001
0010
0001
0000
1000
0100
1000
0000
0010
0100
,  // measure 69
0010
0000
1000
0001
2000
0000
0000
0000
3010
0000
0110
0000
0100
0000
0101
0000
,  // measure 70
0001
0011
0010
0110
0100
1000
0001
1000
,  // measure 71
0010
0000
0100
0001
2000
0000
0000
0000
3001
0000
0011
0000
0010
0000
0110
0000
,  // measure 72
0100
0000
1100
0000
1000
0000
1001
0000
0001
0000
0100
0000
0010
0000
1000
0010
,  // measure 73
1000
0000
0001
0100
0020
0000
0000
0000
1030
0100
0010
0100
1000
0000
0001
0000
,  // measure 74
0010
0000
0001
0100
0000
0001
0100
0000
0001
1000
0010
1000
0001
0000
0010
0000
,  // measure 75
0001
0000
1000
0100
0000
1000
0010
0000
0100
0001
1000
0001
0100
0000
0010
0000
,  // measure 76
1000
0001
0010
0001
1000
0000
0010
0000
0100
0001
0010
0000
0100
1000
0001
0000
,  // measure 77
1000
0010
0100
0001
0010
0100
1000
0000
0001
0000
0100
0010
0100
0000
0001
0000
,  // measure 78
0010
0001
0010
0000
0100
0000
1000
0000
0010
0000
0100
0010
0100
0000
0010
1000
,  // measure 79
0010
0000
0100
0000
0101
0000
0000
0000
0010
0000
0001
1000
0001
0000
1000
0000
,  // measure 80
0010
0100
0010
0000
0100
0000
0001
0000
1000
0000
0001
0010
0001
0000
0100
0010
,  // measure 81
0100
0000
0001
0000
1001
0000
0000
0000
1000
0000
0010
0100
0001
0000
1000
0000
,  // measure 82
0100
0010
0001
0000
1000
0000
0001
0000
0010
0000
0100
1000
0001
0000
0100
0001
,  // measure 83
1000
0000
0010
0000
1010
0000
0000
0000
0100
0000
0001
0010
0100
0000
0010
0000
,  // measure 84
0100
1000
0001
0000
1000
0000
0010
0000
0100
0000
0100
0000
0100
0000
0001
0010
,  // measure 85
0100
1000
1001
0000
0011
0000
1000
1010
,  // measure 86
0000
0100
0010
0100
0101
0000
0010
0001
,  // measure 87
1000
0001
0010
0001
1000
0000
0010
0000
0110
0000
0000
0000
1000
0000
1010
0000
,  // measure 88
0000
0100
0001
1000
1100
0000
0010
0001
,  // measure 89
1000
0000
0001
0010
0100
0000
1000
0000
1010
0000
0000
0000
0001
0000
1001
0000
,  // measure 90
0000
1100
1000
0001
0101
0000
0010
0011
,  // measure 91
0000
0000
1000
0000
1010
0000
0010
0000
0100
0000
0001
0100
0001
0000
1000
0000
,  // measure 92
0010
1000
0010
0000
1000
0000
0001
0010
0100
0000
1000
0010
0100
0000
0001
1000
,  // measure 93
0010
0100
0001
0010
0001
0000
0000
0000
2200
0000
0000
0000
0000
0000
0000
0000
,  // measure 94
0000
0000
0000
0000
0000
0000
0000
0300
,  // measure 95
3000
0000
0000
0000
;
