#TITLE:Dragon Blade;
#SUBTITLE:;
#ARTIST:Kozo Nakamura;
#TITLETRANSLIT:;
#SUBTITLETRANSLIT:;
#ARTISTTRANSLIT:;
#GENRE:;
#CREDIT:;
#BANNER:Dragon_Blade_banner.png;
#BACKGROUND:Dragon_Blade.png;
#LYRICSPATH:;
#CDTITLE:;
#MUSIC:Dragon Blade.ogg;
#OFFSET:-0.307000;
#SAMPLESTART:0.287000;
#SAMPLELENGTH:12.000000;
#SELECTABLE:YES;
#BPMS:0.000000=240.000000
;
#STOPS:387.750000=1.000000
;
#BGCHANGES:;
#KEYSOUNDS:;
#ATTACKS:;

//---------------dance-single - ----------------
#NOTES:
     dance-single:
     :
     Easy:
     6:
     0.231386,0.290020,0.135682,0.288324,0.000000,191.000000,175.000000,16.000000,34.000000,0.000000,0.000000,0.231386,0.290020,0.135682,0.288324,0.000000,191.000000,175.000000,16.000000,34.000000,0.000000,0.000000:
0000
0000
0000
0000
,
0000
0000
0000
0000
,
0000
0000
0000
0000
,
0000
0000
0000
0000
,
1000
0000
0000
0001
,
0000
0010
0000
0000
,
0001
0000
0000
1000
,
0000
0020
0000
0030
,
1000
0000
0100
0000
,
1000
0000
0001
0000
,
0010
0000
0001
0000
,
0200
0000
0300
0000
,
0010
0000
0100
0000
,
0001
0000
0010
0000
,
0100
0000
1000
0000
,
0001
0000
0000
0000
,
2200
0000
3300
0000
,
0202
0000
0303
0000
,
0010
0000
0100
0000
,
0001
0000
0100
0000
,
0010
0000
1000
0000
,
0100
0000
0000
0000
,
1000
0000
0010
0000
,
1000
0000
0001
0000
,
0200
0000
0300
0000
,
0020
0000
0030
0000
,
0100
0000
0001
0000
,
0010
0000
0001
0000
,
1000
0000
0100
0000
,
0010
0000
0000
0000
,
0001
0000
1000
0000
,
0001
0000
0010
0000
,
0002
0000
0003
0000
,
2000
0000
3000
0000
,
0220
0000
0330
0000
,
0000
0000
0000
0000
,
1000
0000
0001
0000
,
1000
0000
0000
0000
,
0011
0000
0000
0000
,
1100
0000
0000
0000
,
1010
0000
0000
0000
,
0101
0000
0000
0000
,
2002
0000
3003
0000
,
0010
0000
1000
0000
,
0200
0000
0300
0000
,
2000
0000
3000
0000
,
0001
0000
0010
0000
,
0001
0000
0100
0000
,
0002
0000
0003
0000
,
1000
0000
0010
0000
,
1000
0000
0001
0000
,
0100
0000
0000
0000
,
2002
0000
3003
0000
,
0000
0000
0010
0000
,
0220
0000
0330
0000
,
0000
0000
1000
0000
,
0100
0000
0100
0000
,
0100
0000
0100
0000
,
0010
0000
0010
0000
,
0220
0000
0330
0000
,
0001
0000
0100
0000
,
0010
0000
0100
0000
,
0001
0000
1000
0000
,
0200
0000
0300
0000
,
1000
0000
0100
0000
,
0010
0000
0100
0000
,
1000
0000
0001
0000
,
0020
0000
0030
0000
,
0002
0000
0003
0000
,
1000
0000
0001
0000
,
0010
0000
0100
0000
,
1000
0000
0000
0000
,
1001
0000
0100
0000
,
0010
0000
0100
0000
,
0001
0000
0010
0000
,
0200
0000
0300
0000
,
1000
0000
1000
0000
,
0001
0000
0001
0000
,
0010
0000
0000
0000
,
0110
0000
0000
0000
,
0100
0000
1000
0000
,
0001
0000
1000
0000
,
0100
0000
0010
0000
,
0001
0000
0000
0000
,
0010
0000
0001
0000
,
0100
0000
0010
0000
,
2000
0000
3000
0000
,
0002
0000
0003
0000
,
0010
0000
0100
0000
,
1000
0000
0100
0000
,
0010
0000
0001
0000
,
1000
0000
0000
0000
,
0010
0000
0100
0000
,
0001
0000
1000
0000
,
0100
0000
1000
0000
,
0001
0000
1000
0000
,
0001
0000
1000
0000
,
0020
0000
0030
0000
,
0100
0000
0001
0000
,
0010
0000
0100
0000
,
2000
0000
3000
0000
,
0010
0000
1000
0000
,
0100
0000
0010
0000
,
0001
0000
1000
0000
,
2002
0000
3003
0000
,
0100
0000
0001
0000
,
0100
0000
0010
0000
,
1000
0000
0001
0000
,
0100
0000
0000
0000
,
0110
0000
0001
0000
,
0020
0000
0030
0000
,
0100
0000
1000
0000
,
0100
0000
0001
0000
,
0100
0000
0010
0000
,
1001
0000
0000
0000
;

//---------------dance-single - ----------------
#NOTES:
     dance-single:
     :
     Medium:
     12:
     0.463983,0.483366,0.228963,0.212003,0.008480,383.000000,356.000000,27.000000,25.000000,0.000000,0.000000,0.463983,0.483366,0.228963,0.212003,0.008480,383.000000,356.000000,27.000000,25.000000,0.000000,0.000000:
0000
0000
0000
0000
,
0000
0000
0000
0000
,
0000
0000
0000
0000
,
0000
0000
0000
0000
,
0001
0000
0010
0001
0000
0000
1000
0000
,
0000
0000
0010
0000
1000
0100
0000
0000
,
1000
0000
0001
0100
0000
0000
0010
0000
,
0000
0010
1000
0100
,
0010
0001
1000
0001
,
0010
0100
1000
0001
,
1000
0010
0100
0001
,
0010
0100
2000
0000
,
3010
0100
0010
1000
,
0100
0010
0001
0010
,
0100
1000
0001
1000
,
0100
0010
0002
0000
,
1003
0000
1001
0000
0000
0010
0000
0000
,
0100
0000
0110
0000
0000
0001
0000
0000
,
0100
0010
1000
0001
,
0010
0100
1000
0001
,
1000
0010
0100
0001
,
1000
0100
0020
0000
,
0031
0100
0001
0000
,
1000
0010
1000
0000
,
0010
0100
0000
0010
0000
1000
0000
0001
,
0000
0010
0000
0100
0000
2000
0000
0000
,
3001
0010
0001
0100
,
0010
1000
0001
0010
,
0100
1000
0010
1000
,
0001
0010
0200
0000
,
0310
0000
0001
0000
1000
0000
0000
0010
,
0000
0010
2000
0000
,
3001
0100
0001
0000
,
1000
0100
1000
0000
,
0220
0000
0000
0330
,
0000
0000
0001
0000
,
1000
0000
0000
1001
0000
0000
0220
0000
,
0000
0330
0000
0000
,
0011
0000
1000
0001
,
0101
0000
1000
0001
,
0011
0000
0001
1000
,
1010
0000
0110
0000
,
0101
0000
0000
0000
0010
0000
0100
0001
,
0000
1000
0000
0010
0000
1000
0000
0000
,
0001
0000
0010
0000
,
0110
0000
1100
0000
,
1000
0001
0010
0001
,
1000
0010
2000
0000
,
3001
0100
0000
0001
0010
0000
0001
0100
,
0000
0001
1000
0000
0020
0000
0000
0000
,
1030
0000
0000
0100
0000
0000
0220
0000
,
0000
0330
0000
0000
,
1000
0001
0000
0000
0000
0000
0000
0000
,
0000
0000
0000
0000
0100
0010
0000
0000
,
0010
0100
0000
0000
0000
0000
0000
0000
,
0001
1000
1001
0000
,
0001
0100
0000
0000
0001
0010
0000
0000
,
0100
1000
0000
0000
0010
1000
0000
0000
,
0010
1000
0100
0010
,
0001
1000
1001
0000
,
0010
0100
0001
0100
,
0010
1000
0100
0001
,
0100
1000
0010
1000
,
0001
0010
0200
0000
,
0310
0001
1000
0010
,
0001
0010
1000
0001
,
0010
0100
1000
0001
,
0100
0010
1000
0000
,
1001
0000
0010
0000
,
0100
0010
0100
0001
,
0020
0000
0031
0000
,
1000
0000
0000
0010
0000
0000
1000
0000
,
0200
0000
0310
0000
,
0001
0000
0000
0010
0000
0000
0100
0000
,
1000
0000
1100
0000
,
0001
0000
0011
0000
,
0100
0000
0010
0000
0100
0010
0000
0000
,
1000
0000
0001
0000
1000
0001
0000
0000
,
0010
0000
0000
0110
0000
0000
2002
0000
,
0000
0000
3003
0000
,
0010
1000
0010
0100
,
0001
0010
0100
1000
,
0100
0001
0100
1000
,
0001
0010
0200
0000
,
0310
0001
1000
0010
,
1000
0001
0010
0000
,
0001
1000
0000
0001
0000
0010
0000
0001
,
0000
0100
0000
0010
0000
0000
0000
0000
,
0010
0100
0001
0100
,
0010
1000
0001
0010
,
1000
0010
0001
1000
,
0001
0010
0100
0000
,
1000
0000
0001
0000
0010
0000
0000
0001
,
0000
0001
0010
0100
,
1000
0000
1010
0000
,
0001
0000
0101
0000
,
0110
0000
0000
0000
0000
0000
1000
0000
0001
0000
1000
0000
,
0220
0330
0010
1000
,
0100
1000
0001
0010
,
0100
0010
0001
1000
,
0001
0100
0020
0000
,
2030
0000
3100
0010
,
0001
0010
0100
1000
,
0001
0100
0010
0000
,
0010
0000
0000
1001
0000
0000
0010
0000
,
0200
0000
0301
0010
,
0001
1000
0100
0010
,
0100
1000
0001
0100
,
0010
0100
0001
0000
,
1001
0000
0100
0001
,
0010
0100
1000
0000
,
0010
1000
0001
0100
,
0010
1000
0001
0010
,
0100
1000
0100
0001
,
0100
0000
0000
0000
;

//---------------dance-single - ----------------
#NOTES:
     dance-single:
     :
     Hard:
     15:
     0.755941,0.821723,0.279844,0.296804,0.033920,624.000000,591.000000,33.000000,35.000000,0.000000,0.000000,0.755941,0.821723,0.279844,0.296804,0.033920,624.000000,591.000000,33.000000,35.000000,0.000000,0.000000:
// measure 0
0000
0000
0000
0000
,  // measure 1
0000
0000
0000
0000
,  // measure 2
0000
0000
0000
0000
,  // measure 3
0000
0000
0000
0000
,  // measure 4
0010
0001
1000
0001
0000
0000
0010
0100
,  // measure 5
0000
0000
1000
0010
0100
0010
0000
0000
,  // measure 6
1000
0100
0010
0100
0000
0000
0010
0001
,  // measure 7
0000
0000
0001
0100
0010
1000
0002
0000
,  // measure 8
1003
0100
0010
0000
0001
0100
0010
0000
,  // measure 9
1000
0010
0100
0000
0001
0010
0100
0000
,  // measure 10
0010
0001
1000
0000
0001
1000
0010
0000
,  // measure 11
0100
0001
1000
0000
0100
1000
0002
0000
,  // measure 12
0013
0100
0010
0000
0001
0100
0010
0000
,  // measure 13
0100
0001
1000
0000
0100
1000
0001
0000
,  // measure 14
0010
0001
1000
0000
0010
1000
0001
0000
,  // measure 15
0100
0010
1000
0000
0001
0010
0001
0100
,  // measure 16
0010
0000
0110
0000
1000
0100
0000
0000
,  // measure 17
1000
0000
1001
0000
0010
0002
0000
0000
,  // measure 18
0103
0010
0100
0001
0010
0001
0000
0001
,  // measure 19
1000
0010
0100
0010
1000
0100
0000
0100
,  // measure 20
0010
0001
1000
0001
0100
0000
0010
0000
,  // measure 21
1000
0001
0000
1000
0001
0010
0200
0000
,  // measure 22
1300
0010
0100
0000
0001
0010
0100
0000
,  // measure 23
0010
0001
1000
0000
0010
1000
0100
0000
,  // measure 24
1000
0001
0000
0011
0000
1001
0000
0101
,  // measure 25
0000
1010
0000
1100
0000
1001
0000
0000
,  // measure 26
0100
0010
0100
0001
1000
0000
0100
0000
,  // measure 27
0010
0100
0000
0100
1000
0010
0100
0010
,  // measure 28
1000
0001
0010
0000
0100
1000
0001
0000
,  // measure 29
1000
0010
0100
0001
0020
0000
0000
0000
,  // measure 30
0031
0100
0010
0000
1000
0010
0100
0001
,  // measure 31
0000
1000
0000
0001
0010
0100
2000
0000
,  // measure 32
3010
0100
0010
0100
0010
0000
1000
0000
,  // measure 33
0100
0010
0100
0010
0100
0000
1000
0000
,  // measure 34
2002
0000
0000
3003
,  // measure 35
0000
0000
0110
0000
,  // measure 36
0001
0000
0010
0100
0000
0010
0002
0000
,  // measure 37
0000
0000
1003
0000
0010
1000
0010
0000
,  // measure 38
1010
0000
1000
0100
0010
0001
0010
0100
,  // measure 39
2000
0000
3001
0010
0100
1000
0100
0010
,  // measure 40
0002
0000
0103
0010
1000
0001
1000
0100
,  // measure 41
0020
0000
0130
1000
0001
0100
0010
1000
,  // measure 42
0002
0000
0000
0000
0013
0100
0010
0001
,  // measure 43
0000
1010
0000
1001
0000
1100
0000
1000
,  // measure 44
0002
0000
0000
0013
0000
0000
0001
0010
,  // measure 45
0100
0000
1000
0000
0010
1000
0010
1000
,  // measure 46
0002
0000
0103
1000
0200
0000
0301
0010
,  // measure 47
0200
0000
1300
0100
0002
0000
0103
1000
,  // measure 48
0010
0100
0000
0001
0100
0000
0001
0010
,  // measure 49
0000
0100
1000
0000
0010
0100
0001
0000
,  // measure 50
0010
0001
0000
1000
0001
0000
2002
0000
,  // measure 51
0000
3003
0110
0000
,  // measure 52
0100
1000
0000
0100
0010
0100
0010
0100
,  // measure 53
0001
0000
0010
0000
0001
0100
0000
0000
,  // measure 54
0001
0010
0000
0001
0100
0001
0100
0001
,  // measure 55
1000
0100
0220
0330
,  // measure 56
0010
0001
0000
0000
0100
1000
0000
0000
,  // measure 57
0010
1000
0000
0000
0100
0001
0000
0000
,  // measure 58
0100
1000
0010
0001
,  // measure 59
0100
0010
1000
0001
0010
0100
2000
0000
,  // measure 60
3001
0100
0010
0100
0001
0000
1000
0000
,  // measure 61
0010
1000
0100
1000
0010
0000
0100
0000
,  // measure 62
0001
0010
0100
0010
0001
0000
1000
0000
,  // measure 63
0001
1000
0100
0010
0001
0000
1000
0000
,  // measure 64
1000
0010
0100
0010
1000
0000
0001
0000
,  // measure 65
0010
0100
1000
0100
0010
0000
0100
0000
,  // measure 66
1000
0001
0010
0001
1000
0000
0010
0000
,  // measure 67
0100
0001
0010
0001
0100
0000
0010
0000
,  // measure 68
0220
0000
0330
0000
,  // measure 69
1000
0100
0010
0100
0000
1000
0001
0000
,  // measure 70
0202
0000
0303
0000
,  // measure 71
0010
0000
0100
0010
0000
1000
0100
0000
,  // measure 72
2000
0000
0000
0000
3001
0000
0010
0001
,  // measure 73
0100
0000
0000
0010
0000
0000
0100
0000
,  // measure 74
0001
0010
0100
0010
0001
0000
1000
0000
,  // measure 75
0010
1000
0100
1000
0010
0000
0100
0000
,  // measure 76
0001
0000
0011
0000
1000
0001
0000
0000
,  // measure 77
0100
0010
0100
0000
0001
1000
0000
0000
,  // measure 78
1010
0000
0000
0011
0000
0000
0110
0000
,  // measure 79
0000
0000
0010
0100
0010
0000
0000
0000
,  // measure 80
0001
0100
0010
0100
0001
0000
1000
0000
,  // measure 81
0010
1000
0000
1000
0100
0010
0100
0000
,  // measure 82
1000
0010
0000
0010
0100
0001
0000
0001
,  // measure 83
0010
0100
0010
0001
2000
0000
0000
0000
,  // measure 84
3001
0010
0001
0000
1000
0100
1000
0000
,  // measure 85
0001
0100
0001
0000
1000
0010
1000
0000
,  // measure 86
0001
0100
0000
0110
0000
1010
0000
1100
,  // measure 87
0000
1001
0000
0011
0000
1001
0000
0000
,  // measure 88
0010
0100
1000
0100
0010
1000
0000
1000
,  // measure 89
0100
0010
0100
1000
0100
0010
0000
0010
,  // measure 90
0001
1000
0000
1000
0010
0100
0000
0100
,  // measure 91
0001
0010
0100
1000
0002
0000
0000
0000
,  // measure 92
0013
0100
0010
0000
0001
1000
0010
1000
,  // measure 93
0000
0010
0100
0010
1000
0000
0001
0000
,  // measure 94
0010
0100
1000
0000
0001
0100
0010
0000
,  // measure 95
1000
0000
0010
0000
0001
0000
1000
0000
0100
0000
0001
0000
,  // measure 96
0010
0000
1000
0000
0001
0000
0100
0000
1000
0000
1001
0000
,  // measure 97
0220
0000
0330
0000
0001
0100
0010
0100
,  // measure 98
0001
0000
1000
0000
0010
1000
0100
0000
,  // measure 99
0010
0100
1000
0100
0010
0000
0100
0000
,  // measure 100
1000
0001
0010
0001
1000
0000
0001
0000
,  // measure 101
0200
0000
0000
0000
0310
1000
0001
0000
,  // measure 102
0010
0000
0001
1000
0000
0001
0010
0100
,  // measure 103
1000
0010
0100
0010
1000
0000
0001
0000
,  // measure 104
0011
0000
0000
1100
0000
0000
0010
0000
,  // measure 105
2000
0000
0000
0000
3001
0100
0010
0000
,  // measure 106
0100
0010
1000
0100
1000
0000
0001
0000
,  // measure 107
0010
0001
1000
0000
0100
1000
0001
0000
,  // measure 108
0100
0001
0010
0001
1000
0000
0010
0000
,  // measure 109
0200
0000
0000
0000
0301
0010
0100
0000
,  // measure 110
1000
0100
0010
0001
0000
0010
0001
1000
,  // measure 111
0010
0100
0010
0100
0001
0010
0001
0010
,  // measure 112
0100
1000
0100
1000
0010
1000
0010
0100
,  // measure 113
0001
0010
1000
0001
0100
1000
0010
0100
,  // measure 114
0001
0000
0000
0000
;
