#TITLE:Don't believe the hype;
#SUBTITLE:;
#ARTIST:DJ Mass MAD Izm* feat.H14(LEONAIR);
#TITLETRANSLIT:;
#SUBTITLETRANSLIT:;
#ARTISTTRANSLIT:;
#GENRE:MIXTURE;
#CREDIT:;
#BANNER:Don't believe the hype_banner.png;
#BACKGROUND:Don't believe the hype.png;
#LYRICSPATH:;
#CDTITLE:;
#MUSIC:Don't believe the hype.ogg;
#OFFSET:-0.430000;
#SAMPLESTART:96.400002;
#SAMPLELENGTH:12.000000;
#LASTBEATHINT:433.000488;
#SELECTABLE:YES;
#BPMS:0.000000=210.000000
;
#STOPS:63.750000=0.857000
;
#BGCHANGES:;
#KEYSOUNDS:;
#ATTACKS:;

//---------------dance-single - ----------------
#NOTES:
     dance-single:
     :
     Easy:
     8:
     0.324316,0.337411,0.132624,0.140425,0.000000,291.000000,274.000000,17.000000,18.000000,0.000000,0.000000,0.324316,0.337411,0.132624,0.140425,0.000000,291.000000,274.000000,17.000000,18.000000,0.000000,0.000000:
0000
0000
0000
0000
,
0000
0000
0000
0000
,
0000
0000
0000
0000
,
0000
0000
0000
0000
,
1000
0000
1000
0000
,
0001
0000
0001
0000
,
0100
0000
0100
0000
,
0010
0000
0010
0000
,
2000
0010
3010
0000
,
0001
0010
0000
0001
,
0100
0010
0100
0001
,
1000
0000
1010
0000
,
0100
0001
0000
0100
,
0010
0000
1000
0001
,
0100
0000
0100
0000
,
0010
0010
0010
0010
,
0000
0100
1000
0010
,
0000
0100
0001
0010
,
0000
0001
1000
0100
,
0000
1000
0001
0100
,
0000
0010
0000
0100
,
0010
0100
0000
0010
,
0100
0002
0000
1003
,
0000
1000
0100
0010
,
0001
0100
0010
1000
,
0000
0001
0100
0010
,
0000
1000
0001
0010
,
0000
0001
0100
0010
,
0000
1000
0000
1100
,
0000
0001
0000
0101
,
0000
0020
0000
0130
,
0100
0001
1000
0010
,
0100
0001
0000
0010
,
0001
0010
0001
0010
,
0000
0001
0000
1000
,
0100
1000
0100
1000
,
0000
0001
0000
0100
,
0001
0100
0001
0100
,
0000
0010
0000
1000
,
0010
2000
0000
0001
,
3001
0100
0010
0100
,
0000
0001
0010
0100
,
0000
1000
0010
0100
,
0000
0010
0100
0001
,
0000
0010
0100
1000
,
0000
0010
0100
0001
,
0000
0010
0001
1000
,
0000
0200
0010
0310
,
0000
0001
0000
1001
,
0000
0100
0000
0010
,
0000
1000
0000
1100
,
0000
0001
0000
0011
,
0000
0100
0000
0010
,
0000
1000
0000
0001
,
0000
1001
0000
0010
,
0000
0110
0000
1000
,
0000
0001
0100
0001
,
0000
1000
0100
1000
,
0000
0010
0100
0010
,
0000
0110
0000
1000
,
0000
0001
0000
0100
,
0010
1000
0000
0100
,
0000
2000
0000
3010
,
0000
0002
0000
0013
,
0000
0200
0000
0000
,
0300
0020
0000
0000
,
0030
2000
0000
0000
,
3000
0002
0000
0000
,
0003
0010
0000
1000
,
0000
0001
0000
0100
,
0000
0001
0000
0010
,
0000
0100
0000
1000
,
0000
0010
1000
0010
,
0000
0100
0001
0100
,
0000
0001
0100
0010
,
0100
0002
0000
1003
,
0000
1000
0100
1000
,
0000
0001
0010
0001
,
0000
1000
0010
0100
,
0010
2000
0000
3001
,
0000
0110
0000
0000
,
0000
0110
0000
0000
,
0000
1001
0000
0000
,
0000
1000
0000
1001
,
0000
0001
0100
0001
,
0000
1000
0100
0010
,
0000
0001
0100
0010
,
0000
1000
0010
0100
,
0001
2000
0000
3010
,
0000
0002
0000
0013
,
0000
0220
0000
0330
,
0000
1000
0100
0010
,
0001
0100
0010
0100
,
0000
0001
1000
0001
,
0000
1000
0010
0100
,
0000
0001
0010
0100
,
0000
1000
0000
1100
,
0000
0001
0000
0101
,
0000
0020
0000
0130
,
0000
0001
1000
0100
,
0010
0001
1000
0001
,
0000
0100
0010
0000
,
0010
1000
0000
0001
,
0010
0000
0001
1000
,
0100
0010
0100
1000
,
0000
1001
0000
0010
,
0100
0000
0001
0100
,
0010
0100
0100
0100
,
0100
0100
0000
0000
0000
0000
0000
0000
;

//---------------dance-single - ----------------
#NOTES:
     dance-single:
     :
     Medium:
     11:
     0.550556,0.632645,0.413475,0.218439,0.000000,494.000000,441.000000,53.000000,28.000000,0.000000,0.000000,0.550556,0.632645,0.413475,0.218439,0.000000,494.000000,441.000000,53.000000,28.000000,0.000000,0.000000:
// measure 0
0000
0000
0000
0000
,  // measure 1
0000
0000
0000
0000
,  // measure 2
0000
0000
0000
0000
,  // measure 3
0000
0000
0000
0000
,  // measure 4
1000
0000
0010
1000
0000
0010
1000
0000
,  // measure 5
0001
0100
0010
1000
,  // measure 6
0001
0000
0010
0001
0000
0010
0001
0000
,  // measure 7
1000
0001
2002
3003
,  // measure 8
0010
0100
0110
0000
,  // measure 9
0001
0101
0000
1000
,  // measure 10
1010
0000
0001
0011
,  // measure 11
0000
0100
0110
0000
,  // measure 12
0010
1010
0000
1000
,  // measure 13
1001
0000
0110
0000
,  // measure 14
1000
0000
0001
0000
0100
0010
0100
0000
,  // measure 15
0001
0000
0001
1000
0010
0100
0010
0001
,  // measure 16
0000
0000
1000
0010
0100
0010
0000
0010
,  // measure 17
1000
0000
0001
0100
0010
0000
0100
0001
,  // measure 18
0010
0000
0001
1000
0100
0010
0000
0010
,  // measure 19
0100
0000
1000
0001
0010
0000
0001
1000
,  // measure 20
0100
1000
1100
0001
,  // measure 21
0011
1001
0110
2002
,  // measure 22
3003
0210
0000
0310
,  // measure 23
0000
0000
0001
1000
0010
0000
1000
0100
,  // measure 24
1000
0000
0001
0000
0010
0001
0000
1000
,  // measure 25
0001
0000
1000
0010
1000
0000
0020
0000
,  // measure 26
0130
0000
0010
0000
1000
0100
0000
1000
,  // measure 27
0001
0000
0100
0010
0100
0000
0110
0000
,  // measure 28
0000
0011
0000
1100
,  // measure 29
0000
0110
0000
1000
,  // measure 30
0001
2001
0000
3010
,  // measure 31
0100
0000
0001
0010
0001
0000
1000
0100
,  // measure 32
1000
0000
0001
0000
0100
0010
1000
0010
,  // measure 33
0100
0010
0100
0000
0001
0000
1001
0000
,  // measure 34
0000
0000
1000
0000
0010
0100
0010
0100
,  // measure 35
0001
0100
0010
0000
1000
0000
1001
0000
,  // measure 36
0000
0000
0010
0000
0100
0001
1000
0100
,  // measure 37
0010
0001
1000
1100
,  // measure 38
0000
0000
0001
0000
0100
0010
1000
0010
,  // measure 39
0100
0001
0001
0012
,  // measure 40
1003
0000
0010
0000
0100
0010
0000
0100
,  // measure 41
0010
0000
1000
0100
0010
0001
1000
0000
,  // measure 42
0001
0000
0100
0000
0010
0100
0000
0010
,  // measure 43
0100
0000
0001
0010
0100
1000
0001
0000
,  // measure 44
1000
0000
0001
0000
1000
0100
0000
1000
,  // measure 45
0010
0000
0100
0001
0010
0100
1000
0000
,  // measure 46
0001
0000
0100
0000
0010
1000
0000
0001
,  // measure 47
0100
0000
0010
0100
0010
0000
0220
0000
,  // measure 48
0330
2000
0000
3010
,  // measure 49
0100
0001
0000
1001
,  // measure 50
0000
0010
0001
0100
,  // measure 51
0010
1000
0000
0100
0010
0000
0002
0000
,  // measure 52
0000
1003
0010
0100
,  // measure 53
0001
0000
1010
0000
,  // measure 54
0100
0010
1000
0001
,  // measure 55
0010
0001
0000
1000
0100
0000
0020
0000
,  // measure 56
0000
0000
0031
0000
1000
0100
0000
1000
,  // measure 57
0010
0000
0100
0000
0001
0010
0000
0001
,  // measure 58
0100
0001
1000
0001
,  // measure 59
1001
0000
0110
0000
,  // measure 60
0010
0000
1000
0000
0000
1001
0000
0000
,  // measure 61
0001
0000
1000
0000
0000
0110
0000
0000
,  // measure 62
0001
0100
0010
0100
,  // measure 63
0001
0000
1010
1000
,  // measure 64
0001
0000
0010
0000
0001
0020
0000
0000
,  // measure 65
0031
0000
1000
0000
0100
2000
0000
0000
,  // measure 66
3100
0000
0010
0000
0001
2000
0000
0000
,  // measure 67
3100
0010
0001
1001
,  // measure 68
0000
0000
0100
0000
0010
0200
0000
0000
,  // measure 69
0301
0000
1000
0000
0100
0020
0000
0000
,  // measure 70
0031
0000
0100
0000
0001
2000
0000
0000
,  // measure 71
3100
0000
1000
0001
1000
0000
1001
0000
,  // measure 72
0000
0000
0010
0000
0100
0010
0000
0100
,  // measure 73
0010
0000
1000
0000
0001
1000
0000
0001
,  // measure 74
1000
0001
0010
0100
,  // measure 75
1000
0100
0010
0002
,  // measure 76
0000
0000
0103
0000
0010
1000
0000
0010
,  // measure 77
1000
0000
0001
0000
0100
0001
0000
0100
,  // measure 78
0001
0000
1000
0000
0001
1000
0000
0001
,  // measure 79
1000
0010
0100
0110
,  // measure 80
0000
0000
0001
0100
1000
0200
0000
0000
,  // measure 81
0300
0000
0001
0100
1000
0200
0000
0000
,  // measure 82
0300
0000
0001
0010
1000
0020
0000
0000
,  // measure 83
0030
0011
0000
1100
,  // measure 84
0000
0000
1000
0010
0100
0001
0000
0001
,  // measure 85
1000
0000
0010
0000
0100
0000
0010
1000
,  // measure 86
0010
0000
0100
0001
0010
0001
0000
1000
,  // measure 87
0010
0000
1000
0001
1000
0000
0001
0010
,  // measure 88
0100
1000
1010
0001
,  // measure 89
0011
1000
0001
1001
,  // measure 90
0000
0220
0000
0330
,  // measure 91
0000
0000
1000
0100
0010
0001
0000
0100
,  // measure 92
0010
0000
1000
0000
0001
0010
0000
0001
,  // measure 93
0100
0000
0010
1000
0001
0000
1000
0100
,  // measure 94
0010
0000
0001
1000
0100
0000
1000
0010
,  // measure 95
0000
0000
0100
0010
0100
0000
0220
0000
,  // measure 96
0330
1001
0000
0011
,  // measure 97
0000
1100
0000
1000
,  // measure 98
0010
0201
0000
0310
,  // measure 99
1000
0000
0001
0010
0100
1000
0010
0100
,  // measure 100
0001
1000
0100
1100
,  // measure 101
0000
0001
0011
0000
,  // measure 102
1000
1001
0000
0010
,  // measure 103
0110
0100
0001
1000
,  // measure 104
0001
0000
1000
0010
0100
0000
0001
0000
,  // measure 105
0010
0001
1000
0000
0100
1000
0010
0000
,  // measure 106
0100
0010
0110
1001
,  // measure 107
0110
0000
0010
0000
0100
1000
0100
0001
,  // measure 108
0010
0100
0000
0000
0000
0000
0000
0000
;

//---------------dance-single - ----------------
#NOTES:
     dance-single:
     :
     Hard:
     16:
     0.820262,0.927880,0.624113,0.327659,0.163830,736.000000,656.000000,80.000000,42.000000,0.000000,0.000000,0.820262,0.927880,0.624113,0.327659,0.163830,736.000000,656.000000,80.000000,42.000000,0.000000,0.000000:
0000
0000
0000
0000
,
0000
0000
0000
0000
,
0000
0000
0000
0000
,
0000
0000
0000
0000
0000
0000
0000
0000
0000
0000
0000
0000
1000
0010
0100
0001
,
1000
0010
0100
0010
0000
0110
0000
1001
,
0000
0110
0000
0001
0010
0100
1000
0010
,
0100
0001
0001
0010
0001
0001
0100
0010
,
1000
0000
0000
1100
0000
0000
0011
0000
1000
0000
0001
0000
1000
0001
1000
0001
,
0020
0100
0130
1100
,
2001
0001
0010
0000
3010
0000
0100
0000
,
0102
0010
0013
1001
,
0210
0000
0001
0001
0301
0000
1010
0000
,
2001
0001
0001
0000
3010
0000
0110
0000
,
1020
0130
0201
0310
,
1000
0001
0010
0100
0010
0001
1000
0010
,
0100
0000
0100
0000
0010
0000
0010
0000
1000
0000
0001
0000
1000
0001
1000
0001
,
0110
0000
0100
0001
0100
0010
0000
1000
,
0100
1000
0010
0100
0001
0010
1000
0010
,
0001
0100
0010
1000
0001
0100
0000
0100
,
0010
1000
0100
1000
0010
0100
0001
0010
,
0100
1000
0100
0000
2001
0000
0000
0000
3010
0000
0000
0000
0012
0000
0000
0000
,
1003
0000
2100
0000
3001
0000
0102
0100
,
0103
0000
2010
0000
0010
0010
0010
0000
,
3100
0000
0000
0000
0001
0000
0100
0000
0010
0000
1000
0000
0100
1000
0001
1000
,
0100
1000
0010
0001
0010
0011
0000
1000
,
0100
0000
0000
0000
1000
0000
0010
0000
0100
0000
0010
0000
1000
0001
1000
0000
,
0010
0000
0100
0010
1000
1010
0000
0100
,
0001
0000
0010
0000
0001
0000
1000
0000
0100
0000
0010
0000
0001
1000
0001
0000
,
0100
1001
0000
1010
,
0000
1001
0101
0011
,
0101
0000
1000
0010
1000
0010
0100
0001
,
0100
0000
0001
0000
0010
0000
0100
0000
1000
0000
0010
0000
0100
0010
0100
0010
,
1000
0000
0001
0000
0010
0000
0000
0001
0010
0000
0001
0000
0100
0000
0001
0000
,
0010
0000
0001
0000
0100
0000
0010
0000
0001
0000
0010
0000
0100
0010
1000
0010
,
0100
0000
0010
0000
0100
0000
0000
0100
0010
0000
1000
0000
0100
0000
1000
0000
,
0010
0000
0100
0000
1000
0000
0100
0000
0010
0000
0100
0000
0001
0010
0001
1000
,
0100
0000
0010
0000
0001
0000
0000
0010
1000
0000
0010
0000
0001
0000
0010
0000
,
1000
0000
0010
0000
0100
0000
0001
0000
0100
0000
1000
0000
0100
0010
0100
0000
,
0001
0000
0010
0000
0100
0000
0000
1000
0010
0000
0010
0000
0100
0000
0001
0000
,
0010
0100
0010
0010
0010
0010
0100
0000
,
0110
0000
1100
0000
0001
1100
0000
1000
,
0010
0000
0100
0000
0110
0000
0000
0000
0001
0000
0010
0000
0001
1000
0001
0000
,
0010
0100
1100
0000
0001
0011
0000
0100
,
0010
0000
0100
0000
0010
0000
1000
0000
0001
0000
0010
0000
0001
1000
0001
1000
,
0100
0010
0100
1000
0001
1001
0000
0100
,
0010
0000
0100
0000
0010
0000
1000
0000
0001
0000
0100
0000
0001
0010
0001
0010
,
0100
1000
0010
0100
0010
1010
0000
0100
,
0001
1000
0010
0010
0010
0010
2002
0000
,
3003
0201
0010
0010
,
1000
0000
1000
0310
,
0000
0012
1000
1000
,
0103
0010
0000
0010
0100
0000
1000
0000
,
0100
1200
1000
0010
,
0001
0000
0001
0310
,
0000
0021
0001
0100
,
0001
0000
0001
1030
,
0000
0000
2010
0000
0000
0010
0000
0000
,
3010
0000
0102
0000
0000
0100
0000
0000
,
0103
1000
0100
0001
,
0100
1000
0000
1000
0010
0000
0110
0000
,
0000
0000
0012
0000
0000
1000
0000
0000
,
1003
2010
0010
0010
,
3010
0100
0001
0010
,
1000
0000
0010
0001
0010
0001
1000
0100
,
1000
0010
0020
0000
0100
0100
0000
0000
,
0130
0000
2000
0000
0100
0100
0000
0000
,
3100
0000
0002
0000
0010
0010
0000
0000
,
0013
0000
1000
0000
0001
1000
0000
0000
,
0110
0000
0200
0000
0001
0001
0000
0000
,
0301
0000
0021
0000
0100
0100
0000
0000
,
0130
0000
2100
0000
0001
0001
0000
0000
,
3001
0000
0100
0010
0100
0001
1000
0010
,
0100
0010
1000
0100
1000
1010
0000
0001
,
0011
0000
0001
0100
0001
1001
0000
0010
,
0110
0000
1000
0001
1000
0001
0100
0010
,
0100
0010
0001
0010
1000
0010
0100
0010
,
1000
0001
0001
0010
0100
0110
0000
1000
,
1001
0000
1000
0010
0100
0110
0000
0001
,
1001
0000
0001
0010
0100
1000
0010
0100
,
0001
0000
1000
0000
0010
0000
0100
0000
0010
0000
0100
0000
0001
1000
0001
1000
,
0100
0010
0100
0010
0001
0000
0010
0000
0100
0000
2200
0000
0000
0000
0000
0000
,
3300
0000
1000
0010
0100
0202
0000
0000
,
0303
0000
0010
0100
0001
2002
0000
0000
,
3003
0000
0000
0000
0010
0000
0100
0000
0010
0000
0100
0000
0001
1000
0001
1000
,
0010
0100
0001
0010
0100
0001
0000
0001
,
0100
1000
0100
1000
0010
0100
0010
1000
,
0100
0100
1000
0001
0010
0100
0000
0100
,
0010
0000
1000
0000
0010
0000
0001
0000
1000
0000
0100
0000
1000
0001
1000
0000
,
0010
0100
0010
1000
1010
0000
0001
0010
,
0011
0000
1000
0100
1100
0000
0001
0010
,
0011
2002
0000
3003
,
0100
0000
0000
0000
0010
0000
0100
0000
0010
0000
1000
0000
0100
1000
0100
0000
,
0010
0001
1000
0010
0100
0110
0000
0001
,
0010
0000
0100
0000
1000
0000
0010
0000
0100
0000
0001
0000
1000
0100
0010
0100
,
1000
0000
0010
0100
0010
1000
0000
1000
,
0001
0100
0010
0100
0001
0010
2002
0000
,
3003
0210
0301
2010
,
3100
0000
0010
0001
1000
0001
0100
0010
,
1000
0100
0010
0001
0010
0100
1000
0010
,
1000
0000
0100
0000
1000
0010
1000
0000
0100
0000
0010
0000
0001
0010
0001
0010
,
0100
1000
0011
1002
,
0103
0000
1000
0010
1020
0000
0130
0000
,
0001
1000
1010
0000
0100
0001
0010
1000
,
0010
0001
0100
0010
1000
0100
1100
0000
,
0001
0100
0010
0100
0101
0000
0110
0000
,
1000
0001
0010
0100
0010
0001
1000
0010
,
0100
0010
1000
0001
1001
0000
0100
0010
,
0100
0000
0010
0000
1001
0000
0000
0010
0100
0000
0100
0000
0100
0000
0100
0000
,
0100
0110
0000
0000
0000
0000
0000
0000
;
