#TITLE:December in Strasbourg;
#SUBTITLE:;
#ARTIST:nana(Sevencolors) feat.mana;
#TITLETRANSLIT:;
#SUBTITLETRANSLIT:;
#ARTISTTRANSLIT:;
#GENRE:;
#CREDIT:;
#BANNER:December_in_Strasbourg_banner.png;
#BACKGROUND:December_in_Strasbourg_bg.png;
#LYRICSPATH:;
#CDTITLE:;
#MUSIC:December in Strasbourg.ogg;
#OFFSET:-0.800000;
#SAMPLESTART:25.840000;
#SAMPLELENGTH:16.690001;
#SELECTABLE:YES;
#BPMS:0.000000=230.000000
;
#STOPS:
;
#BGCHANGES:;
#KEYSOUNDS:;
#ATTACKS:;

//---------------dance-single - ----------------
#NOTES:
     dance-single:
     :
     Easy:
     6:
     0.210375,0.275400,0.095625,0.229500,0.000000,154.000000,144.000000,10.000000,24.000000,0.000000,0.000000,0.210375,0.275400,0.095625,0.229500,0.000000,154.000000,144.000000,10.000000,24.000000,0.000000,0.000000:
0000
0000
0000
0000
,
0000
0000
0000
0000
,
0000
0000
0000
0000
,
0000
0000
0000
0000
,
0000
0000
0000
0000
,
0000
0000
0000
0000
,
0000
0000
0000
0000
,
0000
0000
0000
0000
,
0010
0000
0100
0000
,
0001
0000
0010
0000
,
0200
0000
0300
0000
,
2000
0000
3001
0000
,
0100
0000
0010
0000
,
1000
0000
0100
0000
,
2002
0000
3003
0000
,
0010
0000
0010
0000
,
0100
0000
0001
0000
,
0010
0000
0001
0000
,
2000
0000
3000
0000
,
0010
0000
0010
0000
,
0100
0000
0001
0000
,
1000
0000
0100
0000
,
2002
0000
0000
0000
,
3003
0000
0000
0000
,
0010
0000
0010
0000
,
0001
0000
0010
0000
,
0100
0000
0100
0000
,
1000
0000
0100
0000
,
1000
0000
1000
0000
,
0010
0000
1000
0000
,
0002
0000
0003
0000
,
1000
0000
1001
0000
,
0010
0000
0010
0000
,
1000
0000
0010
0000
,
0100
0000
0100
0000
,
0001
0000
0100
0000
,
0001
0000
0001
0000
,
0010
0000
0001
0000
,
2000
0000
3000
0000
,
1001
0000
0000
0000
,
0010
0000
0010
0000
,
0100
0000
0100
0000
,
0010
0000
0010
0000
,
0200
0000
0300
0000
,
0001
0000
0001
0000
,
1000
0000
1000
0000
,
0001
0000
1000
0000
,
2002
0000
0000
3003
0000
0000
0000
0000
,
0010
0000
0100
0000
,
0010
0000
0000
0000
,
1000
0000
0001
0000
,
1000
0000
0000
0000
,
0001
0000
0010
0000
,
0100
0000
1000
0000
,
0220
0000
0000
0000
,
0330
0000
0000
0000
,
0001
0000
0100
0000
,
0002
0000
0013
0000
,
0100
0000
1000
0000
,
0200
0000
0310
0000
,
0001
0000
1000
0000
,
0020
0000
0130
0000
,
0001
0000
0000
0000
,
1001
0000
0000
0000
,
1000
0000
0100
0000
,
0020
0000
0130
0000
,
1000
0000
0001
0000
,
0200
0000
0301
0000
,
0010
0000
0001
0000
,
2000
0000
3010
0000
,
0100
0000
0000
0000
,
1001
0000
0000
0000
,
1000
0000
0100
0000
,
0010
0000
0001
0000
,
0010
0000
0100
0000
,
1000
0000
0000
0000
,
0001
0000
1000
0000
,
0010
0000
0100
0000
,
0001
0000
0010
0000
,
0100
0000
0000
0000
,
2000
0000
0010
0000
,
3010
0000
0000
0000
,
0002
0000
0100
0000
,
0103
0000
0000
0000
,
0010
0000
0100
0000
,
0010
0000
1000
0000
,
0001
0000
0000
0000
,
0110
0000
0000
0000
,
1000
0000
0100
0000
,
0010
0000
0100
0000
,
1000
0000
0000
0000
,
0001
0000
0000
0000
,
0100
0000
0000
0000
,
0010
0000
0100
0000
,
2002
0000
0000
0000
,
0000
0000
0000
0000
,
3003
0000
0000
0000
;

//---------------dance-single - ----------------
#NOTES:
     dance-single:
     :
     Medium:
     12:
     0.487688,0.596701,0.277313,0.191250,0.004781,357.000000,328.000000,29.000000,20.000000,0.000000,0.000000,0.487688,0.596701,0.277313,0.191250,0.004781,357.000000,328.000000,29.000000,20.000000,0.000000,0.000000:
// measure 0
0000
0000
0000
0000
,  // measure 1
0000
0000
0000
0000
,  // measure 2
0000
0000
0000
0000
,  // measure 3
0000
0000
0000
0000
,  // measure 4
1000
0000
0100
0000
,  // measure 5
0001
0000
0010
0000
,  // measure 6
2002
0000
0000
0000
,  // measure 7
3003
0000
0000
0000
,  // measure 8
0010
0100
0001
0000
,  // measure 9
0010
0100
1000
0010
,  // measure 10
1000
0100
0010
0000
,  // measure 11
0001
0100
1000
0100
,  // measure 12
0001
0010
0100
0000
,  // measure 13
1000
0010
0100
0010
,  // measure 14
1000
0001
0100
0010
,  // measure 15
1000
0000
0101
0000
,  // measure 16
0010
1000
0200
0000
,  // measure 17
0310
0001
0200
0000
,  // measure 18
0310
1000
0100
0010
,  // measure 19
0001
0010
0100
0000
,  // measure 20
1000
0001
0100
0000
,  // measure 21
0001
1000
0100
0000
,  // measure 22
0220
0000
0000
0000
,  // measure 23
0330
0000
0000
0000
,  // measure 24
0001
0000
0000
0100
0000
0000
0001
0000
,  // measure 25
0010
0000
0100
0000
1000
0000
0010
1000
,  // measure 26
0010
0000
0000
0100
0000
0000
0010
0000
,  // measure 27
1000
0000
0100
0000
0010
0000
0001
1000
,  // measure 28
0010
0000
0000
0110
0000
0000
1000
0000
,  // measure 29
0010
0000
0100
0000
0010
0000
1000
0001
,  // measure 30
0000
0000
1100
0000
0000
0011
0000
0000
,  // measure 31
1000
0001
0010
0100
,  // measure 32
0010
0000
0000
0011
0000
0000
1000
0100
,  // measure 33
1000
0000
0010
0000
0100
0000
0010
1000
,  // measure 34
0001
0000
0000
1001
0000
0000
0100
0010
,  // measure 35
1000
0000
0001
0000
0010
0000
0100
1000
,  // measure 36
0100
0000
0000
1010
0000
0000
0100
0001
,  // measure 37
0010
0001
1000
0010
,  // measure 38
0000
0000
0110
0000
0000
1001
0000
0000
,  // measure 39
0010
0000
0100
0010
0100
0000
0001
0000
,  // measure 40
0010
0000
0000
0110
0000
0000
1000
0000
,  // measure 41
0100
0000
0010
0000
0100
0000
1000
0001
,  // measure 42
0100
0000
0000
0110
0000
0000
0001
0000
,  // measure 43
0100
0000
0010
0000
0100
0000
0001
0010
,  // measure 44
0100
0000
0000
1100
0000
0000
0001
0000
,  // measure 45
1000
0010
0100
0010
,  // measure 46
1000
0000
1100
0000
,  // measure 47
0001
0000
0011
0000
,  // measure 48
1000
0010
1000
0010
,  // measure 49
0100
0001
0100
0000
,  // measure 50
0001
0010
0001
0010
,  // measure 51
0100
1000
0100
0000
,  // measure 52
1000
0001
0010
0100
,  // measure 53
1000
0000
0010
0000
0100
0001
1000
0010
,  // measure 54
0000
0000
0100
0000
0000
0110
0000
0000
,  // measure 55
1000
0010
0100
0001
0000
0100
0010
0000
,  // measure 56
1000
0000
0000
1100
0000
0001
0000
0010
,  // measure 57
0001
0000
0001
0000
1000
0000
0010
0100
,  // measure 58
0010
0000
0000
1010
0000
0100
0000
0010
,  // measure 59
1000
0000
0001
0000
0010
0000
0001
0100
,  // measure 60
0010
0000
0000
0101
0000
0000
0020
0000
,  // measure 61
0000
1030
0100
1000
,  // measure 62
0001
0000
0010
0000
0100
0010
0000
0001
,  // measure 63
1000
0000
0010
0000
1000
0100
0010
0000
,  // measure 64
0100
0000
0000
1100
0000
0001
0000
0100
,  // measure 65
0010
0000
1000
0000
0010
0000
0100
0001
,  // measure 66
0010
0000
0000
0011
0000
1000
0000
0010
,  // measure 67
0100
0000
0001
0000
0100
0000
0010
1000
,  // measure 68
0100
0000
0000
1001
0000
0000
0020
0000
,  // measure 69
0000
0000
0031
0000
0100
0000
0001
1000
,  // measure 70
0000
0000
1010
0000
0000
0100
0000
0000
,  // measure 71
0001
0010
0100
1000
0000
0010
0100
0000
,  // measure 72
0001
0000
0100
0000
1000
0000
0100
0010
,  // measure 73
0100
0000
0001
0000
1000
0000
0100
0010
,  // measure 74
0100
0000
1000
0000
0001
0000
0100
0010
,  // measure 75
0100
0000
0001
0000
1000
0000
0100
0010
,  // measure 76
0100
0000
0000
1000
0000
0000
0010
0000
0100
0000
0010
0000
0100
0000
0001
0000
,  // measure 77
0000
0010
0001
0000
1000
0000
0010
0000
,  // measure 78
0100
0000
0110
0000
0000
1010
0000
0000
,  // measure 79
1000
0100
0010
0001
,  // measure 80
0100
0000
0010
0100
0000
0000
0001
0000
,  // measure 81
1000
0000
0100
0000
0010
0000
0100
1000
,  // measure 82
0001
0000
0100
0010
0000
0000
0100
0000
,  // measure 83
0001
0000
1000
0000
0100
0000
1000
0001
,  // measure 84
0100
0000
0010
0100
0000
0000
0001
0000
,  // measure 85
1000
0000
0001
0000
0010
0100
0010
0100
,  // measure 86
0000
0000
1100
0000
0000
0101
0000
0000
,  // measure 87
0010
0100
0001
0000
0010
0100
1000
0000
,  // measure 88
0002
0000
0023
0000
,  // measure 89
2030
0000
0000
0000
3200
0000
0000
0320
,  // measure 90
0000
0000
0030
0100
,  // measure 91
0002
0000
2003
0000
,  // measure 92
3200
0000
0320
0000
,  // measure 93
2030
0000
3001
0000
,  // measure 94
0220
0000
0000
0000
,  // measure 95
0000
0000
0000
0000
,  // measure 96
0330
0000
0000
0000
;

//---------------dance-single - ----------------
#NOTES:
     dance-single:
     :
     Hard:
     15:
     0.713090,0.780301,0.411188,0.411188,0.109969,522.000000,479.000000,43.000000,43.000000,0.000000,0.000000,0.713090,0.780301,0.411188,0.411188,0.109969,522.000000,479.000000,43.000000,43.000000,0.000000,0.000000:
0000
0000
0000
0000
,
0000
0000
0000
0000
,
0000
0000
0000
0000
,
0000
0000
0000
0000
,
0002
0000
0023
0000
,
2030
0000
3100
0000
,
2002
0000
0000
0000
,
3003
0000
0000
0000
,
0010
0100
0001
0010
,
0100
0000
1000
0000
0010
0000
0100
0010
,
1000
0100
0000
1002
0000
0000
0010
0000
,
0103
0000
0000
0000
0010
0000
0100
0000
0000
0000
0001
0000
0010
0000
0000
0000
0100
0000
1000
0000
0000
0020
0000
0000
,
0000
0000
0000
0130
0000
0000
0001
0000
0000
0010
0000
0100
,
1000
0000
0010
0000
1000
0100
0000
0010
,
0000
0000
0100
1000
0000
0001
0010
0000
0001
1000
0000
0010
,
0100
0000
0000
0000
0010
0000
1000
0000
0000
0001
0000
0000
0100
0000
0000
0020
0000
0000
0000
0000
0000
0130
0000
0000
,
0001
0000
0000
0010
0000
0000
2000
0000
0000
3010
0000
0001
,
2000
0000
0000
3010
0000
0000
0002
0000
0000
0013
0000
1000
,
0100
0000
0000
0000
1000
0000
0010
0000
0000
0200
0000
0000
0000
0000
0000
0000
0000
0000
0001
0000
0000
0000
0000
0000
,
1000
0000
0301
0010
0100
0000
1000
0000
,
0010
0000
0000
0000
0000
0000
0100
0000
0000
0000
0010
0000
1000
0000
0000
0000
0100
0000
0000
0000
0000
1000
0000
0000
,
0000
0000
0000
0001
0000
0000
0010
0000
0000
0000
0001
0000
0100
0000
0000
0000
0010
0000
0000
0000
0000
1000
0000
0000
,
0100
0000
0000
1001
0000
0000
0220
0000
,
0000
0000
0330
0000
,
1010
0000
0100
0010
0000
1000
0010
0100
,
0001
0000
0011
0000
1100
0000
0001
1000
,
0010
0000
0100
0110
0000
0001
0010
0100
,
1000
0000
1001
0000
0110
0000
1000
0010
,
0100
0000
0001
0011
0000
1000
0010
0100
,
0001
0000
1100
0000
0101
0000
0010
0001
,
0000
0000
1001
0000
0100
0010
0000
0100
,
0001
1000
0100
0001
0000
0001
0100
0000
,
1100
0000
0010
0100
0000
0001
0010
0100
,
1000
0000
1010
0000
1100
0000
0010
0100
,
0001
0000
1000
1001
0000
0001
1000
0100
,
0010
0000
0011
0000
0101
0000
0010
1000
,
0100
0000
1000
1001
0000
0010
0100
0001
,
0010
0000
0101
0000
1100
0000
1000
0010
,
0000
0000
0110
0000
0000
1001
0000
0001
,
0010
1000
0010
0001
0000
1000
0010
0000
,
0201
0000
0000
0310
0000
0010
1000
0001
,
0010
0000
0001
0000
1000
0000
0100
0010
,
0200
0000
0000
1300
0000
0010
0100
0010
,
1000
0000
0010
0000
0001
0000
0010
1000
,
0002
0000
0000
0013
0000
0100
1000
0001
,
0100
0000
0010
0000
0100
0000
0001
1000
,
0001
0000
0000
0110
0000
1000
0100
0001
,
0100
0000
1000
0000
0001
0000
0100
0010
,
0100
0000
0001
0000
1000
0100
1000
0010
,
1000
0000
0001
0000
0010
0000
0001
0100
,
0001
0000
0100
0000
0010
1000
0010
0100
,
0001
0000
1000
0000
0010
0000
1000
0100
,
1000
0010
1000
0010
0100
0001
0100
0001
,
0010
0001
0010
0001
1000
0100
1000
0100
,
0010
0000
0110
0000
0000
0011
0000
0000
,
1000
0001
0010
1000
0000
1000
0010
0000
,
0011
0000
1000
1100
0000
0001
0100
0010
,
2000
0000
0010
0000
3100
0000
0010
0100
,
1100
0000
0001
0101
0000
0010
0100
0001
,
0020
0000
0100
0000
0031
0000
0100
0010
,
0110
0000
1000
0001
0200
0000
0010
0000
,
0302
0000
0010
0000
1003
0000
0100
0010
,
0001
0000
1001
0000
0100
0010
0000
0010
,
1000
0100
1000
0001
0010
0001
0100
0000
,
0110
0000
1000
0100
0000
0100
1000
0010
,
1000
0200
0001
0300
0001
0100
1000
0001
,
0100
0001
0010
0001
0000
0001
0100
0010
,
1000
0020
0001
0030
0001
0010
1000
0001
,
0100
1000
0100
0001
0000
0010
0100
1000
,
0100
0001
0100
1000
0010
0100
0010
1000
,
0001
0000
0011
0000
0000
1010
0000
0000
,
0100
0010
1000
0001
0010
0100
1000
0000
,
1001
0000
0000
0000
0000
0000
0001
0100
0020
0000
0000
0000
1000
0000
0000
0000
,
0130
0010
1000
0100
1000
0100
0010
0100
,
1000
0001
0010
0001
0000
1000
0010
0100
,
0010
0100
0010
0001
0010
0100
0010
0000
,
2000
0000
0000
3200
0000
0000
0302
0000
1003
0010
0000
0000
0001
0000
0100
0000
,
0000
0001
0010
0100
1000
0010
0100
0010
,
1000
0000
0101
0000
0010
0110
0000
1000
,
0001
1000
0100
0010
0100
1000
0001
0000
,
0100
0000
0000
0000
0001
0000
0010
0100
2000
0000
0000
0000
0010
0000
3000
0000
,
0000
1000
0010
1000
0001
0010
0100
1000
,
0010
0100
0010
0000
0100
0000
0010
0000
0000
0000
0010
0000
1000
0000
0000
0000
,
0001
0010
0100
0010
0100
1000
0001
0000
,
0002
0000
0000
0203
0000
0000
2300
0000
3001
0010
0000
0000
0100
0000
1000
0000
,
0000
0100
0001
0010
0100
1000
0010
0100
,
0000
0001
0010
0001
1000
0010
1000
0100
,
1000
0010
0001
0010
1000
0100
0010
0000
,
0002
0000
0203
0000
,
2300
0000
0000
0000
3001
0000
0000
0220
,
0000
0000
0330
2000
,
3200
0000
0000
0301
0010
0100
1000
0000
,
0020
0000
0032
0000
,
0203
0000
0000
0000
1300
0000
0000
0110
,
0000
0000
0000
0000
1000
0020
0002
0000
,
0000
0000
0000
0000
,
0033
0000
0000
0000
;
