#TITLE:December Breeze;
#SUBTITLE:;
#ARTIST:dj silverberg;
#TITLETRANSLIT:;
#SUBTITLETRANSLIT:;
#ARTISTTRANSLIT:;
#GENRE:;
#CREDIT:;
#BANNER:December_Breeze_banner.png;
#BACKGROUND:December_Breeze.png;
#LYRICSPATH:;
#CDTITLE:;
#MUSIC:December Breeze.ogg;
#OFFSET:-0.590000;
#SAMPLESTART:7.180000;
#SAMPLELENGTH:12.000000;
#LASTBEATHINT:321.000000;
#SELECTABLE:YES;
#BPMS:0.000000=182.000000
;
#STOPS:
;
#BGCHANGES:;
#KEYSOUNDS:;
#ATTACKS:;

//---------------dance-single - ----------------
#NOTES:
     dance-single:
     :
     Easy:
     7:
     0.334801,0.359992,0.135208,0.153236,0.000000,260.000000,245.000000,15.000000,17.000000,0.000000,0.000000,0.334801,0.359992,0.135208,0.153236,0.000000,260.000000,245.000000,15.000000,17.000000,0.000000,0.000000:
0000
0000
0000
0000
,
0000
0000
0000
0000
,
0000
0000
0000
0000
,
0000
0000
0000
0000
,
0000
0000
0000
0000
,
0010
0100
0001
0010
,
0001
1000
0100
0000
,
1000
0010
0100
0001
,
0010
0100
1000
0000
,
0010
0100
0010
1000
,
0100
0010
0100
0000
,
0010
0100
1000
0001
,
0100
0010
0110
0000
,
0001
0010
0001
1000
,
0010
1000
0100
0000
,
0010
0001
1000
0001
,
0100
0010
1000
0000
,
0100
1000
0010
0100
,
0001
0010
0100
0000
,
0010
0001
0100
0010
,
1000
0000
0000
0001
0000
0000
1000
0000
,
2002
0000
0000
0000
0000
3003
0000
0000
,
0010
0100
0001
0010
,
0001
1000
0010
0000
,
1000
0100
0010
0001
,
1000
0010
0100
0000
,
0001
1000
0010
1000
,
0100
1000
0001
0010
,
0022
0000
0000
0000
0000
0033
0000
0000
,
1000
0000
0010
0100
,
0010
1000
0100
1000
,
0001
1000
0010
0000
,
0100
0001
0010
0001
,
1000
0001
0010
0000
,
0001
0010
0100
1000
,
0001
0010
0100
0000
,
1000
0010
0100
0001
,
1000
0010
0100
0001
,
0220
0000
0330
0000
,
1000
0010
0100
0001
,
0010
0100
1000
0000
,
0010
0100
0001
0100
,
0010
1000
0100
0000
,
0010
0100
1000
0001
,
1000
0010
0100
0000
,
0001
0100
0010
1000
,
0002
0003
1001
0000
,
0100
0010
0100
0001
,
0010
0100
1000
0000
,
0010
1000
0010
0100
,
0001
1000
0100
0000
,
0010
0001
0100
0010
,
1000
0001
1000
0000
,
0010
0100
0001
1000
,
2002
3003
0010
0000
,
2002
3003
0100
0000
,
0110
0000
0001
0000
,
2002
0000
0000
0000
0000
3003
0000
0000
,
0010
1000
0100
1000
,
0001
0010
0100
0000
,
0010
0001
1000
0001
,
0100
0010
1000
0000
,
0100
1000
0001
1000
,
0100
0010
0001
0000
,
0100
0001
0010
0001
,
1000
0001
2002
3003
,
0010
0001
0100
0001
,
1000
0010
1000
0000
,
0100
1000
0001
0010
,
0001
1000
0010
0000
,
0100
0010
1000
0010
,
0100
0001
0010
0000
,
0002
0000
1003
0010
,
1000
0001
0010
0011
,
0100
0010
1000
0001
,
0010
0100
1000
0001
,
1010
0000
0011
0000
,
1001
0000
1100
0000
,
0001
0000
1000
0000
0100
0000
1000
0020
,
0000
0000
0000
0000
0000
0000
0000
0030
;

//---------------dance-single - ----------------
#NOTES:
     dance-single:
     :
     Medium:
     12:
     0.585902,0.539988,0.198305,0.117180,0.027042,455.000000,433.000000,22.000000,13.000000,0.000000,0.000000,0.585902,0.539988,0.198305,0.117180,0.027042,455.000000,433.000000,22.000000,13.000000,0.000000,0.000000:
0000
0000
0000
0000
,
0000
0000
0000
0000
,
1001
0000
1100
0000
,
0101
0000
0011
0000
,
2020
0000
0000
0000
0000
3030
0000
0000
,
0001
0100
0010
0100
0000
0010
0100
0000
,
0010
1000
0100
0010
0000
0010
0100
0000
,
1000
0001
0010
0001
0000
0100
0001
0000
,
1000
0010
0100
0001
0010
0000
0110
0000
,
1000
0100
1000
0010
0000
0100
0010
0000
,
0100
0001
0010
0001
0000
0100
0001
0000
,
0010
0001
1000
0001
0000
0100
0010
0000
,
1000
0001
0100
0000
2020
0000
3030
0000
,
0001
0010
0100
0010
0000
0001
0100
0000
,
0010
1000
0100
1000
0000
0010
0100
0000
,
0010
1000
0100
0010
0000
0100
1000
0000
,
0010
0100
0001
0010
0100
1000
0001
0000
,
0100
0010
1000
0100
0000
0010
0100
0000
,
1000
0001
0010
0001
0000
0100
0010
0000
,
1000
0001
0100
0010
0000
0010
1000
0000
,
0001
0001
0000
1000
1000
0000
0010
0010
,
0000
0100
0001
0100
0010
0000
0110
0000
,
0001
0000
0000
0010
0000
0000
0100
0000
1000
0000
0000
0010
0000
0000
0100
0000
,
0010
1000
0100
0000
0010
0000
0100
1000
,
0001
0000
0000
1000
0000
0000
0010
0000
0100
0000
0000
0001
0000
0000
0010
0000
,
0001
1000
0100
0000
1000
0010
0100
0000
,
0001
0000
0000
0100
0000
0000
0010
0000
1000
0000
0000
0100
0000
0000
0010
0000
,
0100
1000
0001
0000
0100
0010
0100
0001
,
2000
0000
0000
3100
,
1000
0000
0001
0010
0001
0000
0100
0000
,
0010
1000
0100
1000
0001
0010
0001
0000
,
0100
0001
0010
0001
0100
0010
1000
0000
,
0001
0010
0100
1000
0010
0100
0010
0000
,
1000
0100
0010
0001
1000
0010
0100
0000
,
0001
0010
0001
0100
0001
0010
0001
0000
,
1000
0010
1000
0100
1000
0010
1000
0000
,
0010
0100
0010
0001
0010
1000
0100
0000
,
0010
0000
0011
0000
1000
0000
0010
0010
,
0000
0100
0100
0000
0001
0000
1001
0000
,
0100
0010
1000
0100
0000
0100
1000
0000
,
0001
0010
0100
0010
0000
0001
0010
0000
,
0001
0100
0010
1000
0000
0010
0100
0000
,
0001
1000
0100
0010
0001
0000
1000
0000
,
0010
1000
0100
0010
0000
0001
0100
0000
,
0010
0100
0001
1000
0000
0100
1000
0000
,
0001
0010
0100
2000
0000
0010
3010
0000
,
0100
0000
0110
0000
0001
1000
0001
0000
,
1000
0010
0100
0010
0000
1000
0100
0000
,
0010
0001
0100
0001
0000
0010
0001
0000
,
1000
0001
0010
0100
0000
0010
0100
0000
,
1000
0010
0100
0001
2000
0000
3001
0000
,
0010
0100
1000
0001
0000
0100
0010
0000
,
0010
1000
0001
0010
0000
0001
0100
0000
,
0010
0100
0010
1000
0000
0100
1000
0000
,
0001
0010
0100
0000
1000
0000
1001
0000
,
0010
0100
0001
0000
1000
0000
1001
0000
,
0010
0001
0100
0000
0010
1000
0100
1000
,
0020
0000
0000
0030
,
0100
0001
0010
0001
0000
1000
0001
0000
,
1000
0010
0100
0010
0000
1000
0100
0000
,
0010
0100
1000
0001
0000
0001
0100
0000
,
0001
0010
0100
1000
0100
0010
0001
0000
,
1000
0001
0010
0100
0000
0100
0010
0000
,
0001
0100
0010
1000
0000
1000
0010
0000
,
0100
0010
0100
0001
0000
0010
0001
0000
,
1000
0010
0100
0000
0001
0000
1100
0000
,
0010
0100
0001
0010
0000
0001
1000
0000
,
0010
0100
0010
1000
0000
0100
1000
0000
,
0010
1000
0001
1000
0000
0010
0100
0000
,
0001
1000
0100
0010
0001
0010
0100
0000
,
1000
0010
0100
0001
0000
0010
0001
0000
,
0010
0001
0100
0010
0000
1000
0010
0000
,
1000
0001
0010
0001
0000
0100
0100
0000
,
0010
1010
0100
0101
,
0010
0011
1000
1001
,
0010
0110
0001
1001
,
0220
0330
2002
3003
,
0010
0001
0100
0000
0010
1000
0100
0000
,
0010
0100
1000
0001
1000
0010
0100
0002
,
0000
0000
0000
0000
0000
0000
0000
0003
;

//---------------dance-single - ----------------
#NOTES:
     dance-single:
     :
     Hard:
     15:
     0.837003,0.829277,0.135208,0.081125,0.441680,650.000000,635.000000,15.000000,9.000000,0.000000,0.000000,0.837003,0.829277,0.135208,0.081125,0.441680,650.000000,635.000000,15.000000,9.000000,0.000000,0.000000:
// measure 0
0000
0000
0000
0000
,  // measure 1
0000
0000
0000
0000
,  // measure 2
0001
0100
0010
1000
0001
0010
0100
1000
,  // measure 3
0001
0100
0010
0000
1000
0000
0100
0000
1000
0010
0100
0000
0001
0000
0010
0000
,  // measure 4
0100
0100
0100
0000
0010
0100
0010
0100
,  // measure 5
1000
0000
0001
0000
0010
0000
0001
0000
1000
0000
0010
0000
0100
0010
0000
1000
,  // measure 6
0100
1000
0001
0010
0001
0100
0110
0000
,  // measure 7
0001
0000
1000
0000
0100
0000
1000
0000
0010
0000
0100
0000
0010
1000
0000
0001
,  // measure 8
1000
0100
0010
0001
0010
0010
0100
0100
,  // measure 9
1000
0000
0010
0000
0100
0000
0010
0000
1000
0000
0001
0000
0010
0001
0000
0100
,  // measure 10
0010
1000
0001
1000
0010
0100
1001
0000
,  // measure 11
0010
0001
0100
0001
0000
1000
0010
1000
,  // measure 12
0001
0000
0100
0010
1000
0000
0000
0000
0100
0000
1000
0000
0010
0100
0000
0010
,  // measure 13
1000
0000
0100
0000
0010
0000
0100
0000
1000
0000
0001
0000
0010
0001
0000
0100
,  // measure 14
0010
0000
0100
0000
0001
0000
1000
0000
0001
0000
0010
0000
0100
1000
0000
0010
,  // measure 15
1000
0000
0001
0000
1000
0000
0100
0000
0010
0000
0100
0000
1000
0001
0000
0010
,  // measure 16
0001
0000
0100
0010
1000
0000
0001
0000
1000
0000
0100
0000
0010
0000
0001
0000
,  // measure 17
0100
0000
0010
0000
1000
0000
0001
0000
0010
0000
0001
0000
0100
0010
0000
1000
,  // measure 18
0001
0000
0010
0000
0100
0000
1000
0000
0010
0000
1000
0000
0100
0010
0000
0100
,  // measure 19
1000
0001
0010
0002
0000
1003
0010
1000
,  // measure 20
0001
0101
0000
1000
1100
0000
0010
0110
,  // measure 21
0000
0001
0010
1000
0010
0001
1001
0000
,  // measure 22
0110
0000
0000
0001
0000
0000
1000
0000
0100
0000
0000
0010
0000
0000
0100
0000
,  // measure 23
1000
0000
0100
0000
0001
0000
1000
0000
0010
0000
0001
1000
0010
0000
0100
0000
,  // measure 24
0001
0000
0000
1000
0000
0000
0010
0000
0100
0000
0000
0010
0000
0000
1000
0000
,  // measure 25
0001
0000
0010
0000
1000
0000
0001
0000
0100
0000
1000
0010
0100
0000
0001
0000
,  // measure 26
1000
0000
0000
0010
0000
0000
0100
0000
0001
0000
0000
0010
0000
0000
0100
0000
,  // measure 27
1000
0000
0010
0000
1000
0000
0001
0000
0010
0000
0001
0100
0001
0000
0010
0000
,  // measure 28
0200
0000
0000
1300
,  // measure 29
0101
0000
0000
0000
0000
0000
0010
0000
1000
0000
0001
0000
1000
0000
0000
0100
0000
0000
0110
0000
0000
0000
0000
0000
,  // measure 30
1000
0001
0001
0010
0001
0001
0100
0001
,  // measure 31
0001
0000
0010
0000
0010
0000
0100
0000
0010
0000
0100
1000
0001
0000
0100
0000
,  // measure 32
0010
1000
1000
0001
1000
1000
0010
0100
,  // measure 33
0001
0000
0010
0000
0010
0000
0001
0000
1000
0000
0001
0010
0100
0000
1000
0000
,  // measure 34
0010
0100
0001
0000
0010
0000
0100
0000
1000
0010
0100
0000
0001
0000
1000
0000
,  // measure 35
0001
0010
0100
0000
1000
0000
0010
0000
1000
0100
0010
0000
0001
0000
1000
0000
,  // measure 36
0010
0100
0001
0000
0010
0000
0100
0000
1000
0010
0100
0000
0001
0000
1000
0000
,  // measure 37
0100
0010
0110
0000
1000
0001
1000
0021
,  // measure 38
0000
0100
0100
0000
0001
0001
0031
0000
,  // measure 39
1000
0000
0010
0000
0100
0000
0010
0000
1000
0000
0001
0000
0010
0001
0000
1000
,  // measure 40
0100
0000
1000
0000
0010
0000
0100
0000
0001
0000
0010
0100
1000
0000
0000
0000
,  // measure 41
0010
0000
1000
0000
0001
0000
0010
0000
0001
0000
0100
0000
0010
1000
0000
0100
,  // measure 42
1000
0000
0010
0100
0010
0000
1000
0000
0001
0000
0010
0001
0000
0000
0100
0000
,  // measure 43
0010
0000
1000
0000
0001
0000
1000
0000
0100
0000
0010
0000
0001
1000
0000
0001
,  // measure 44
0010
0000
0100
0000
0010
0000
0001
0000
1000
0000
0010
0100
0002
0000
0000
0000
,  // measure 45
0013
0100
1000
0010
0000
0100
0010
1000
,  // measure 46
0100
0000
1000
0001
0010
0000
0001
0000
0100
0000
0010
0000
1000
0001
0000
0001
,  // measure 47
1000
0000
0010
0000
0100
0000
0010
0000
1000
0000
0001
0000
0010
0001
0000
0100
,  // measure 48
0001
0000
0010
0000
0100
0000
1000
0000
0010
0000
1000
0001
0100
0000
0000
0000
,  // measure 49
0010
0000
0100
0000
0001
0000
0100
0000
1000
0000
0001
0000
0010
0100
0000
1000
,  // measure 50
0001
0000
1000
0010
0100
0000
0010
0000
1000
0000
1000
0000
0001
0000
0001
0000
,  // measure 51
0010
0000
0001
0000
0100
0000
0001
0000
1000
0000
0010
0000
0100
0010
0000
1000
,  // measure 52
0010
0000
0100
0000
0001
0000
0010
0000
0001
0000
1000
0010
0100
0000
0010
0000
,  // measure 53
1000
0010
1000
0002
0000
0013
0100
0010
,  // measure 54
0001
0000
1000
0100
1000
0000
0010
0000
0100
0000
0010
0000
1000
0100
0000
0010
,  // measure 55
0001
0000
0100
0001
0100
0000
0010
0000
1000
0000
0010
0000
0100
0001
0000
1000
,  // measure 56
0010
0000
1000
0000
0001
0000
0010
0000
0001
0100
0001
0100
0010
1000
0010
1000
,  // measure 57
0200
0000
0000
0300
,  // measure 58
0010
0000
0100
0000
1000
0000
0001
0000
0100
0000
0010
0000
1000
0001
0000
0010
,  // measure 59
0001
0000
0100
0000
0010
0000
1000
0000
0001
0000
1000
0010
0100
0000
0001
0000
,  // measure 60
0010
0000
0100
0000
0010
0000
0001
0000
1000
0000
0010
0000
0100
0001
0000
1000
,  // measure 61
0010
0000
1000
0000
0001
0000
0100
0000
0010
0000
1000
0001
0010
0000
0001
0000
,  // measure 62
0100
0000
0010
0000
1000
0000
0001
0000
0010
0000
0001
0000
1000
0010
0000
0100
,  // measure 63
0001
0000
1000
0000
0100
0000
0010
0000
0001
0000
1000
0001
0100
0000
0010
0000
,  // measure 64
1000
0100
1000
0002
0000
1003
0010
0100
,  // measure 65
0001
0000
0010
0001
0100
0000
0010
0000
1000
0000
0100
0000
1000
0001
0000
1000
,  // measure 66
0001
0000
0100
0000
0010
0000
1000
0000
0100
0000
0010
0000
0001
0100
0000
0001
,  // measure 67
0010
0000
0001
0000
1000
0000
0010
0000
1000
0000
0100
1000
0001
0000
0100
0000
,  // measure 68
0010
0000
1000
0000
0001
0000
0010
0000
0001
0000
0100
0000
0010
1000
0000
0100
,  // measure 69
1000
0000
0010
0100
0001
0000
0010
0000
0001
0000
0001
0000
1000
0000
1000
0000
,  // measure 70
0100
0000
0010
0000
0100
0000
1000
0000
0010
0000
0100
0000
0001
0010
0000
0001
,  // measure 71
1000
0000
0010
0000
0100
0000
0001
0000
0010
0000
0001
1000
0010
0000
0100
0000
,  // measure 72
0010
1000
0001
0020
0000
0031
0100
0001
,  // measure 73
0011
1100
1010
1001
,  // measure 74
0100
0010
1000
0001
0010
0001
0100
0010
,  // measure 75
1000
0001
0010
0001
1000
0010
0100
1000
,  // measure 76
0001
0010
0010
0010
1000
0100
0100
0100
,  // measure 77
0010
0000
0100
1000
0001
0000
1000
0000
0010
0000
1000
0100
0010
0000
0001
0000
,  // measure 78
0010
0100
1000
0000
0010
0000
0100
0000
0001
0000
1000
0010
0001
0000
0020
0000
,  // measure 79
0000
0000
0000
0000
,  // measure 80
0030
0000
0000
0000
;
