#TITLE:男々道 -otoko PHQ remix-;
#SUBTITLE:;
#ARTIST:Des-ROW・組 Remixed by PHQUASE (Gt.かめりあ);
#TITLETRANSLIT:Dandandou -otoko PHQ remix-;
#SUBTITLETRANSLIT:;
#ARTISTTRANSLIT:Des-ROW Gumi Remixed by PHQUASE (Gt.Camellia);
#GENRE:;
#CREDIT:;
#BANNER:Dandandou_-otoko_PHQ_remix-_banner.png;
#BACKGROUND:Dandandou_-otoko_PHQ_remix-.png;
#LYRICSPATH:;
#CDTITLE:;
#MUSIC:Dandandou -otoko PHQ remix-.ogg;
#OFFSET:-0.750000;
#SAMPLESTART:22.559999;
#SAMPLELENGTH:10.910000;
#SELECTABLE:YES;
#BPMS:0.000000=88.000000
,16.000000=176.000000
,37.000000=88.000000
,38.000000=176.000000
,262.000000=88.000000
,276.000000=176.000000
;
#STOPS:17.000000=0.341000,
20.000000=0.682000,
22.000000=0.341000,
26.000000=0.341000,
28.000000=0.341000,
31.000000=0.682000,
33.000000=0.341000,
276.000000=0.170000,
276.250000=0.170000
;
#BGCHANGES:;
#KEYSOUNDS:;
#ATTACKS:;

//---------------dance-single - ----------------
#NOTES:
     dance-single:
     :
     Easy:
     8:
     0.315162,0.371617,0.195705,0.213497,0.004448,248.000000,226.000000,22.000000,24.000000,0.000000,0.000000,0.315162,0.371617,0.195705,0.213497,0.004448,248.000000,226.000000,22.000000,24.000000,0.000000,0.000000:
0000
0000
0000
0000
,
0000
0000
0000
0000
,
2002
0000
0000
3003
0000
0000
0000
0000
,
0100
0010
0100
1001
,
0010
0000
0000
0000
0001
0000
0000
1000
,
0000
0010
0000
0100
,
0000
0001
0000
0000
0000
0000
0010
0000
,
0000
0000
0001
0000
0000
1000
0000
0000
,
0100
0000
0000
0000
1000
0000
0000
0010
,
0000
0000
0220
0330
0001
0000
0000
0000
,
0010
0001
0000
1000
,
0100
0000
1000
0000
,
0010
0100
0000
0001
,
0010
0000
1001
0000
,
0100
0010
0000
0010
,
1000
0000
0001
0000
,
0010
0001
0000
1000
,
0020
0000
0130
0001
,
0100
0010
1000
0100
,
0010
0000
0001
0001
,
1000
1000
0001
1000
,
2002
3003
0100
0010
,
0100
0001
0010
0100
,
1000
0000
0010
0010
,
0100
0100
0010
0100
,
0220
0330
1000
0100
,
1000
0001
1000
0100
,
0010
0000
0001
0100
,
0001
0010
0001
0100
,
0202
0303
0010
0100
,
0001
0010
0100
1000
,
0010
0000
1000
0100
,
1000
0010
1000
0100
,
2200
3300
0001
0010
,
0100
0010
0001
0010
,
0100
1100
1000
0010
,
0100
0010
1000
0010
,
0100
0110
0001
0100
,
1000
0100
0001
0100
,
1000
0110
0001
0010
,
1000
0010
0001
0010
,
1000
0000
0110
0000
0001
0000
0100
0100
,
0100
0010
1000
0100
,
1100
0000
0000
0000
0010
0000
0100
0100
,
0100
0001
0010
0001
,
0011
0000
0000
0000
1000
0000
0010
0010
,
0010
0100
0010
0100
,
0011
0000
0000
0000
0001
0000
0010
0010
,
0010
0100
1000
0001
,
1001
0000
0110
0000
,
0001
0010
0100
0010
,
0001
0000
1000
0010
,
0100
0010
1000
0001
,
0100
0000
0001
1000
,
0010
0100
0001
0010
,
0100
0000
1000
0010
,
0100
0010
1000
0100
,
0010
0000
0001
0100
,
0010
0100
0001
0010
,
0200
0000
2300
0000
,
3010
0100
0010
1000
,
0001
0000
1001
0000
,
0010
0001
0100
0010
,
1000
0000
1000
0010
,
1000
0001
0100
0010
,
1000
0100
1000
0000
0202
0000
0000
0000
,
0303
0000
0010
0010
0220
0000
0000
0000
,
0330
0000
1000
1000
2200
0000
0000
0000
,
3300
0000
0001
0001
0022
0000
0033
0000
,
1000
0001
2000
0000
0000
0000
0000
0000
0000
0000
3000
0000
0000
0000
0000
0000
;

//---------------dance-single - ----------------
#NOTES:
     dance-single:
     :
     Medium:
     13:
     0.597282,0.836139,0.275766,0.151227,0.075613,470.000000,439.000000,31.000000,17.000000,0.000000,0.000000,0.597282,0.836139,0.275766,0.151227,0.075613,470.000000,439.000000,31.000000,17.000000,0.000000,0.000000:
0000
0000
0000
0000
,
0000
0000
0000
0000
,
1001
0000
0100
0000
0010
0100
0001
0000
,
0010
0100
1000
0100
0010
0001
1001
0000
,
0100
0010
0000
0000
0100
0010
0000
0100
,
0010
0000
1000
0001
0000
0000
1000
0001
,
0000
1000
0001
0000
0000
0000
0010
0001
,
0000
0000
0010
0001
0000
0010
0001
0000
,
1000
0100
0000
0000
1000
0100
0000
1000
,
0100
0000
0220
0330
1001
0000
0010
0100
,
0001
0000
1000
0010
0000
0010
0100
0000
,
0101
0000
0010
0000
0100
0001
1000
0000
,
0100
0000
1000
0010
0000
0010
0100
0001
,
0020
0000
0130
0000
1000
0001
1000
0000
,
0100
0010
0100
1000
0000
0010
0100
0000
,
0001
0010
0001
0000
0100
0001
2000
0000
,
0000
0000
3010
0010
0000
0100
0100
0000
,
0220
0000
0330
0000
0001
0010
1000
0010
,
0000
0001
0010
0001
1000
0100
0001
0100
,
0000
1000
0100
1000
0010
0100
0010
0100
,
0001
1000
0001
1000
0100
1000
0010
0100
,
0001
0010
0001
0000
1100
0000
0001
0010
,
0000
1000
0010
0001
0010
0000
1000
0010
,
0000
0001
0100
0010
1000
0100
1000
0001
,
0010
0001
1000
0010
0100
0001
0010
0100
,
1000
0001
1001
0000
0110
0000
1000
0100
,
0000
1000
0010
1000
0001
0010
0001
0100
,
0000
0010
0100
0000
0001
0001
1000
1000
,
0100
0010
0100
0010
0001
0001
1000
1000
,
0010
0100
0110
0000
1010
0000
0001
0010
,
0000
0001
1000
0100
1000
0000
0010
1000
,
0000
0001
0100
0001
0010
0010
0100
0010
,
0100
0100
1000
0001
1000
1000
0010
0100
,
0010
1000
1001
0000
0010
0001
1000
0001
,
0010
0100
1000
0100
0010
1000
0010
0001
,
0100
0001
1000
0000
0010
0100
0001
0100
,
0010
1000
0010
0001
0010
0100
0001
1000
,
0100
0010
0001
0000
1000
0100
0001
0100
,
1000
0100
0010
0100
1000
0001
0100
0010
,
0100
0001
0010
0000
0001
0010
1000
0010
,
0001
0010
0100
0010
0001
1000
0010
0100
,
0001
0010
0100
0000
1100
0000
0001
1000
,
1100
0000
1000
0001
0101
0000
0010
0100
,
0110
0000
1001
0000
0011
0000
1000
0001
,
0011
0000
1000
0010
1010
0000
0100
0010
,
0110
0000
1001
0000
0001
0100
1000
0100
,
0010
1000
0100
0001
0100
1000
0001
0100
,
1000
0001
1000
0000
0100
0001
0010
0100
,
1000
0001
0010
1000
0001
1000
0010
0001
,
1000
0000
0010
0000
1000
0000
0001
0000
0010
0000
0001
0000
0200
0000
0000
0000
0000
0000
0000
0000
0000
0010
0000
0000
,
0310
0000
1000
0100
0010
0001
1000
0000
,
1001
0000
0010
0000
0100
0001
1000
0000
,
0010
1000
0001
0000
0010
0001
0100
0010
,
2000
0000
3010
0000
0110
0000
0001
0010
,
0100
0000
1000
0010
0100
0000
0001
1000
,
0100
0000
1010
0000
0100
0010
1000
0000
,
0001
0010
0100
0000
1000
0001
0010
0001
,
0100
0000
0011
0000
1000
0010
0100
0010
,
1000
0010
0100
0010
1000
0100
0010
0001
,
0200
0000
0000
0000
0310
1000
0001
0010
,
0001
1000
0100
0010
0001
0100
0010
1000
,
0200
0000
0000
0000
0310
0001
1000
0010
,
1000
0001
0010
0001
0100
0010
1000
0001
,
0200
0000
0000
0000
0310
1000
0100
1000
,
0001
0100
1000
0100
0001
0010
0100
1000
,
0010
0000
0001
0000
0010
0000
0000
0000
0202
0000
0303
0000
0010
0000
1000
0100
,
0000
0100
1000
0000
0010
0000
0100
0000
2020
0000
3030
0000
0100
0000
0001
0010
,
0000
0010
0001
0000
1001
0000
0000
0100
0010
0000
0100
0000
0001
0010
0100
0010
,
0000
0001
1000
0000
0010
1000
0100
0000
0010
0001
0100
0010
1000
0001
0100
0000
,
0010
1001
0220
0000
0000
0000
0000
0000
0000
0000
0330
0000
0000
0000
0000
0000
;

//---------------dance-single - ----------------
#NOTES:
     dance-single:
     :
     Hard:
     16:
     0.795529,0.994538,0.169018,0.204601,0.702759,626.000000,607.000000,19.000000,23.000000,0.000000,0.000000,0.795529,0.994538,0.169018,0.204601,0.702759,626.000000,607.000000,19.000000,23.000000,0.000000,0.000000:
// measure 0
0000
0000
0000
0000
,  // measure 1
0000
0000
0000
0000
,  // measure 2
0110
0000
0000
1000
0001
0000
0010
0000
0001
1000
0100
0000
1010
0000
0000
0000
,  // measure 3
0100
0010
1000
0000
0001
0100
0010
0100
0001
1000
0100
0010
0001
0000
1001
0000
,  // measure 4
0100
0010
0100
0000
0000
0000
0000
0000
0010
0100
0010
0000
0000
0000
1000
0001
,  // measure 5
1000
0000
0000
0000
0001
0010
0001
0000
0000
0000
0000
0000
0001
0010
0001
0000
,  // measure 6
0000
0000
1000
0010
1000
0010
1000
0000
0000
0000
0000
0000
0001
0100
0001
0000
,  // measure 7
0000
0000
0000
0000
0100
0001
0100
0000
0000
0000
0010
1000
0010
0000
0000
0000
,  // measure 8
1000
0100
1000
0000
0000
0000
0000
0000
0001
0010
0001
0000
0000
0000
1000
0001
,  // measure 9
0100
0001
1000
0010
0200
0000
0300
0000
0110
0000
0000
0000
1000
0000
0100
0000
,  // measure 10
1000
0000
0010
0000
0100
0001
0010
0000
0000
0000
0010
0001
1000
0000
0010
0000
,  // measure 11
0100
0000
0010
1000
0100
0000
0000
0000
1000
0001
0100
0000
0010
0000
1000
0000
,  // measure 12
0001
0000
0010
0000
0100
1000
0001
0000
0000
0000
0100
0001
1000
0000
0010
0000
,  // measure 13
0220
0000
0000
0000
0330
0000
0000
0000
0001
0010
0100
0000
1000
0000
0010
0000
,  // measure 14
0100
0000
0001
0000
1000
0100
0010
0000
0001
0000
0100
0001
0010
0000
0100
0000
,  // measure 15
2000
0000
0000
0000
3010
0000
0000
0000
1000
0100
0010
0000
0001
0000
1000
0000
,  // measure 16
0010
0000
1000
0000
0001
0010
0100
0000
1000
0000
0010
0000
1000
0000
0001
0000
,  // measure 17
2002
0000
3003
0000
0110
0000
0001
0010
,  // measure 18
0100
0000
1000
0010
0100
0000
0001
0000
0010
0000
0001
0000
1000
0000
1100
0000
,  // measure 19
0000
0000
0001
0000
0101
0000
0000
0000
0100
0010
0100
0000
0010
0000
1000
0100
,  // measure 20
1000
0000
0001
0000
0010
0001
0010
0000
0001
0000
1000
0010
1000
0000
0001
0000
,  // measure 21
0100
0100
0100
0100
0010
1000
0100
0020
,  // measure 22
0000
0000
0031
1000
0100
0000
1000
0000
0010
0000
0100
0000
0001
0000
0020
0000
,  // measure 23
0000
0000
0130
1000
0001
0000
0000
0000
0100
0001
0100
0000
0010
0000
1000
0100
,  // measure 24
1000
0000
0010
0000
1000
0000
0001
0010
0001
0000
0100
0010
0100
0010
0100
0000
,  // measure 25
0001
0001
0001
0001
1000
0100
0001
0200
,  // measure 26
0000
0000
1300
0000
0001
0100
0001
0000
1000
0000
0010
0000
0001
0000
0020
0000
,  // measure 27
0000
0000
1030
0001
0100
0000
0000
0000
0001
0010
0100
0000
1000
0000
0001
0000
,  // measure 28
0010
0100
1000
0000
0010
1000
0100
0000
1000
0000
0010
0100
0001
0000
0010
0000
,  // measure 29
0100
0100
0100
0100
1000
0010
0001
0020
,  // measure 30
0000
0000
1030
0000
0001
0010
0100
0000
1000
0000
0100
0000
0001
0000
0200
0000
,  // measure 31
0000
0000
1300
0000
0001
1000
0010
0000
0100
0010
1000
0000
0001
0000
0100
0010
,  // measure 32
1000
0000
0001
0000
1000
0100
0010
0000
0001
0000
1000
0100
0010
0000
0001
0000
,  // measure 33
1000
0000
0000
0000
0001
0000
0000
0000
1000
0000
0000
0000
0010
0000
0000
0000
0100
0000
0000
0000
0010
0000
0000
0000
1000
0000
0000
0000
0000
0000
0010
0000
0000
0100
0000
0000
0001
0000
0000
0000
0000
0000
1000
0000
0000
0000
0000
0000
,  // measure 34
0100
0000
0010
0001
1000
0000
0010
0000
0100
0000
0010
1000
0001
0000
0100
0000
,  // measure 35
0001
0000
0000
0000
0010
0000
0000
0000
0100
0000
0000
0000
1000
0000
0000
0000
0100
0000
0000
0000
0010
0000
0000
0000
0001
0000
0000
0000
0000
0000
1000
0000
0000
0010
0000
0000
0100
0000
0000
0000
0000
0000
0001
0000
0000
0000
0000
0000
,  // measure 36
1000
0000
0001
0010
0100
0000
1000
0000
0010
0000
0100
0001
0010
0000
0100
0000
,  // measure 37
1000
0000
0000
0000
0100
0000
0000
0000
0010
0000
0000
0000
0001
0000
0000
0000
0010
0000
0000
0000
0100
0000
0000
0000
1000
0000
0000
0000
0000
0000
0001
0000
0000
0010
0000
0000
0001
0000
0000
0000
0000
0000
1000
0000
0000
0000
0000
0000
,  // measure 38
0001
0000
1000
0100
1000
0000
0001
0000
0100
0000
0010
0100
0010
0000
1000
0000
,  // measure 39
0001
0000
0000
0000
0010
0000
0000
0000
1000
0000
0000
0000
0010
0000
0000
0000
0001
0000
0000
0000
0100
0000
0000
0000
0010
0000
0000
0000
0000
0000
1000
0000
0000
0100
0000
0000
0010
0000
0000
0000
0000
0000
0001
0000
0000
0000
0000
0000
,  // measure 40
0100
0000
0001
1000
0100
0000
0010
0000
0001
0000
1000
0010
0100
0000
0001
0000
,  // measure 41
1000
0000
0000
0000
0010
0000
0000
0000
0001
0000
0000
0000
0010
0000
0000
0000
1000
0000
0000
0000
0100
0000
0000
0000
1000
0000
0000
0000
0000
0000
0100
0000
0000
0010
0000
0000
0100
0000
0000
0000
0000
0000
1000
0000
0000
0000
0000
0000
,  // measure 42
0001
0000
0100
0010
0100
0000
0001
0000
1000
0000
0001
0010
0001
0000
1000
0000
,  // measure 43
0100
0000
0000
0000
0010
0000
0000
0000
0100
0000
0000
0000
1000
0000
0000
0000
0010
0000
0000
0000
1000
0000
0000
0000
0001
0000
0000
0000
0000
0000
0100
0000
0000
0001
0000
0000
0010
0000
0000
0000
0000
0000
0100
0000
0000
0000
0000
0000
,  // measure 44
1000
0000
0010
0100
0001
0000
1000
0000
0100
0000
1000
0001
0010
0000
0100
0000
,  // measure 45
1000
0000
0000
0000
0001
0000
0000
0000
1000
0000
0000
0000
0010
0000
0000
0000
0100
0000
0000
0000
0010
0000
0000
0000
1000
0000
0000
0000
0000
0000
0010
0000
0000
0100
0000
0000
0001
0000
0000
0000
0000
0000
0010
0000
0000
0000
0000
0000
,  // measure 46
0001
0000
0010
0100
1000
0000
0010
0000
1000
0000
0010
0100
0001
0000
0010
0000
,  // measure 47
0001
0000
0000
0000
0100
0000
0000
0000
0010
0000
0000
0000
1000
0000
0000
0000
0100
0000
0000
0000
0010
0000
0000
0000
0001
0000
0000
0000
0000
0000
0100
0000
0000
0010
0000
0000
1000
0000
0000
0000
0000
0000
0100
0000
0000
0000
0000
0000
,  // measure 48
1000
0000
0100
0010
0001
0000
0100
0000
0010
0000
0100
0001
0010
0000
0100
0000
,  // measure 49
1000
0000
0100
0000
0001
0000
0100
0000
1000
0000
0010
0000
0200
0000
0000
0000
0000
0000
0000
0000
0000
0310
0000
0000
,  // measure 50
0110
0000
0000
0000
1000
0000
0100
0000
0010
0100
2000
0000
0000
0000
3001
0000
,  // measure 51
0100
0000
0010
0000
0100
0000
0000
0000
0001
0000
0010
0001
1000
0000
0010
0000
,  // measure 52
1000
0000
0001
0010
0100
0000
0000
0000
1000
0000
0010
0000
1010
0000
0000
0000
,  // measure 53
0001
0100
0101
0000
0010
0002
0000
1003
,  // measure 54
0010
0000
1000
0000
0001
0100
0001
0000
0000
0000
0010
0100
1000
0000
0010
0000
,  // measure 55
0200
0000
0310
0000
0110
0000
0001
1000
,  // measure 56
0000
0100
1000
0010
1000
0001
0010
0100
,  // measure 57
1000
0000
0000
0000
0010
0000
0000
0000
0100
0000
0000
0000
0001
0000
0000
0000
0010
0000
0000
0000
0100
0000
0000
0000
1000
0000
0000
0010
0000
0000
1000
0000
0000
0000
0000
0000
0001
0000
0000
0010
0000
0000
0001
0000
0000
0000
0000
0000
,  // measure 58
1000
0100
1000
0000
0001
0100
0001
0000
0010
0001
0100
0000
0010
1000
0100
0000
,  // measure 59
0020
0000
0000
0000
0230
0000
1300
0010
,  // measure 60
1000
0001
0010
0001
0100
0010
1000
0100
,  // measure 61
0001
0000
0000
0000
0100
0000
0000
0000
1000
0000
0001
0000
0010
0001
1000
0000
,  // measure 62
0010
0000
0000
0000
0100
0000
0000
0000
0001
0010
0100
0000
1000
0000
0010
0000
,  // measure 63
0100
0000
0000
0000
0001
0000
0000
0000
1000
0000
0010
0000
0100
0010
1000
0000
,  // measure 64
0001
0000
0100
0000
0010
0100
0001
0000
0010
0100
1000
0000
0001
0100
0010
0000
,  // measure 65
1000
0001
1000
0001
0100
0010
0100
0010
0200
0000
0001
0000
0001
0000
0010
0010
,  // measure 66
0000
0010
0310
0000
0100
0000
0001
0010
0012
0000
1000
0000
1000
0000
0100
0100
,  // measure 67
0000
0100
0103
0000
1000
0010
0100
0010
1020
0000
0100
0000
0100
0000
1000
1000
,  // measure 68
0000
0000
1000
0000
1030
0000
0000
0000
0001
0000
0010
0000
0100
0000
1000
0000
1001
0000
0000
0000
0100
0000
0010
0000
1000
0000
0001
0010
0100
0000
1000
0000
,  // measure 69
1001
0110
2002
0000
0000
0000
0000
0000
0000
0000
0000
0000
0000
0000
3003
0000
;
