#TITLE:Damage Per Second;
#SUBTITLE:;
#ARTIST:Maozon;
#TITLETRANSLIT:;
#SUBTITLETRANSLIT:;
#ARTISTTRANSLIT:;
#GENRE:CYBER DRUMSTEP;
#CREDIT:;
#BANNER:Damage_Per_Second_banner.png;
#BACKGROUND:Damage_Per_Second.png;
#LYRICSPATH:;
#CDTITLE:;
#MUSIC:Damage Per Second.ogg;
#OFFSET:0.610000;
#SAMPLESTART:12.940000;
#SAMPLELENGTH:10.850000;
#SELECTABLE:YES;
#BPMS:0.000000=177.000000
;
#STOPS:
;
#BGCHANGES:;
#KEYSOUNDS:;
#ATTACKS:;

//---------------dance-single - ----------------
#NOTES:
     dance-single:
     :
     Easy:
     7:
     0.292200,0.361209,0.208892,0.261115,0.000000,235.000000,211.000000,24.000000,30.000000,0.000000,0.000000,0.292200,0.361209,0.208892,0.261115,0.000000,235.000000,211.000000,24.000000,30.000000,0.000000,0.000000:
0000
0000
0000
0000
,
0000
0000
0000
0000
,
0000
0000
0000
0000
,
0000
0000
0000
0000
,
0000
0000
0000
0000
,
0000
0000
0000
0000
,
0002
0000
0000
0000
,
2003
0000
0000
0000
,
3010
0000
0000
0100
0000
0000
0000
0010
,
0000
0000
0000
0100
0000
0000
0100
0000
,
0001
0010
0001
0100
,
0010
1000
0100
0000
,
1000
0010
1000
0100
,
0010
0001
0100
0000
,
1000
0001
0100
0010
,
1000
0100
1001
0000
,
0001
0100
0010
1000
,
0220
0000
0000
0330
,
1000
0010
0100
0010
,
1000
0001
0100
0000
,
0001
0010
0100
0010
,
0001
1000
0100
0000
,
0010
0010
0001
0001
,
1000
1000
0100
0100
,
2002
0000
0000
3003
,
0100
0000
0000
0010
0000
0000
0100
0000
,
1000
0000
0001
0000
,
1000
0000
0001
0110
,
0100
0000
0010
0000
,
0100
0000
0010
0000
,
1000
0000
0100
0000
,
1000
0000
0100
0000
,
0010
0000
0000
0001
0000
0000
0000
0100
,
0000
0000
0000
2200
0000
0000
3300
0000
,
0001
0000
0100
0000
,
0001
0000
0100
0110
,
0010
0000
1000
0000
,
0010
0000
1000
1100
,
0100
0000
0010
0000
,
0001
0000
1000
0000
,
0001
0000
0000
1001
0000
0000
0000
0100
,
0000
0000
0000
0220
0000
0000
0330
0000
,
1000
0010
0100
0001
,
0010
0100
1000
0000
,
0001
0010
0100
0010
,
0001
1000
0010
0000
,
0100
0100
0101
0000
,
0010
0010
1010
0000
,
1000
1000
1100
0000
,
0001
0001
0011
0000
,
1000
0001
0010
0100
,
1000
0001
0010
0000
,
0010
0001
1000
0100
,
1000
0001
0010
0000
,
1000
0010
0001
0010
,
1000
0100
0001
0100
,
1000
0001
0100
0010
,
1000
0000
1001
0000
,
0200
0000
0000
0000
,
0320
0000
0000
0000
,
2030
0000
0000
0000
,
3002
0000
0000
0003
,
2002
0000
0000
3003
,
0220
0000
0000
0330
,
2020
0000
0000
3030
,
0202
0000
0000
0303
,
1000
0100
1000
0010
,
0100
0001
0010
0110
,
0100
1000
0001
0010
,
0001
0100
0020
0000
,
1030
0100
0010
0100
,
1000
0001
0010
0011
,
0001
0000
0000
1000
0000
0000
0000
0010
,
0000
0000
0000
0200
0000
0000
0310
0000
,
0010
1000
0001
0100
,
0001
0010
0100
2200
,
3300
1000
0001
0010
,
0001
0100
0010
0100
,
0002
1000
1000
1000
,
2003
0001
0001
3001
,
0100
0000
0000
0110
0000
0000
0000
2002
,
0000
0000
0000
0000
,
0000
0000
0000
0000
0000
3003
0000
0000
,
1001
0000
0000
0000
;

//---------------dance-single - ----------------
#NOTES:
     dance-single:
     :
     Medium:
     11:
     0.502335,0.614055,0.330745,0.113150,0.026111,404.000000,366.000000,38.000000,13.000000,0.000000,0.000000,0.502335,0.614055,0.330745,0.113150,0.026111,404.000000,366.000000,38.000000,13.000000,0.000000,0.000000:
0000
0000
0000
0000
,
0000
0000
0000
0000
,
0000
0000
0000
0000
,
0000
0000
0000
0000
,
0000
0000
0000
0000
,
0000
0000
0000
0000
,
0110
0000
0010
0000
1000
0100
1000
0000
,
0001
0000
0010
0000
0001
0000
0100
0000
0010
0000
0000
1000
0000
0000
0010
0000
,
1000
0000
0000
1001
0000
0000
0000
0110
,
0000
0000
0000
2002
0000
0000
3003
0000
,
0001
0000
0010
0001
0000
0001
0100
0000
,
0010
1000
0100
1000
0001
0000
0001
1000
,
0010
0000
1000
0100
0000
0100
1000
0000
,
0001
0010
0100
1000
0001
0000
1001
0000
,
1000
0000
0010
0100
0000
0100
0010
0000
,
1000
0000
0001
0000
0010
0000
0001
0000
1000
0000
0000
0100
0000
0000
0010
0000
,
0001
0000
0100
0010
0000
0010
0100
0000
,
2002
0000
0000
3003
,
1000
0100
1000
0000
0001
1000
0000
1000
,
0000
0010
0100
0001
0010
0100
1000
0100
,
0000
1000
0010
0000
1000
0001
0000
0100
,
0000
0010
1000
0100
0010
0001
0010
0000
,
0001
1000
0001
1000
0010
0100
0010
0100
,
0001
0010
0001
0010
0100
1000
0100
1000
,
0002
0000
0000
0003
,
1000
0000
0000
0001
0000
0000
1000
0000
0000
0001
0000
0000
1001
0000
0000
0000
,
0100
0000
0100
0000
0001
0010
0001
0000
,
0010
0000
0010
0000
0100
1000
0100
0000
,
0110
0000
0010
0000
0001
0010
0001
0000
,
0010
0100
1000
0000
0001
0010
0001
0100
,
0010
0000
0010
0000
1000
0100
1000
0000
,
0010
0000
0010
0000
0100
0001
0100
0000
,
1010
0000
0000
0101
0000
0000
0000
1001
,
0000
0000
0000
0110
0000
0000
1100
0000
,
1000
0000
0001
0000
0010
0001
0010
0000
,
0100
0000
1000
0000
0010
1000
0010
0000
,
0110
0000
0100
0000
0001
0010
0001
0000
,
1000
0100
1000
0010
0100
0000
1001
0000
,
0110
0000
0010
0000
1000
0001
0100
0000
,
0001
0010
0100
1000
0001
0000
1001
0000
,
0110
0000
0000
1010
0000
0000
0000
0011
,
0000
0000
0000
2200
0000
0000
3300
0000
,
1000
0000
0001
0100
0000
0100
0001
0000
,
0010
0001
0000
0001
1000
0000
1100
0000
,
0010
0000
0001
0100
0000
0100
0010
0000
,
1000
0010
0000
0010
1000
0000
0101
0000
,
0001
0000
0100
0010
0000
0010
1000
0000
,
0001
0000
0010
0000
0100
0000
0000
0000
1000
0000
0000
0010
0000
0000
1000
0000
,
0001
0000
0100
0010
0000
0010
1000
0000
,
1000
0000
0010
0100
0000
0100
0001
0000
,
1000
0000
0100
0010
0000
0010
0100
0000
,
1000
0000
0001
0010
0000
0010
0001
0000
,
0100
0000
0010
1000
0000
1000
0010
0000
,
0100
0001
0010
0100
1000
0010
1000
0000
,
0001
0000
0100
0001
0000
0001
0010
0000
,
0001
0000
0010
0000
0100
0000
1000
0000
0010
0000
0000
0100
0000
0000
0010
0000
,
1000
0000
0001
0100
0000
0100
0010
0000
,
1000
0010
0100
0010
1000
0001
1000
0000
,
0020
1000
0000
1030
,
0200
0001
0000
0301
,
0002
0010
0000
0013
,
2000
0010
0000
3010
,
0100
0010
0100
0010
,
1000
0001
1000
0001
,
1100
0000
0011
0000
,
1000
0100
0010
0001
0010
0100
1000
0000
,
0010
0000
0010
0000
1000
0100
1000
0000
,
0100
0000
0100
0000
0010
0001
0010
0000
,
0110
0000
0100
0000
1000
0100
1000
0000
,
0100
0010
0001
0000
1000
0100
1000
0010
,
0100
0000
0100
0000
0001
0010
0001
0000
,
0100
0000
0100
0000
0010
1000
0010
0000
,
0101
0000
0000
1010
0000
0000
0000
1001
,
0000
0000
0000
0110
0000
0000
0011
0000
,
0001
0000
1000
0000
0100
1000
0100
0000
,
0010
0000
0001
0000
0100
0001
0100
0000
,
0110
0000
0010
0000
1000
0100
1000
0000
,
0001
0010
0001
0100
0010
0000
1001
0000
,
0110
0000
0100
0000
0001
1000
0010
0000
,
1000
0100
0010
0001
1000
0010
0100
0000
,
0110
0000
0000
0101
0000
0000
0000
2020
,
0000
0000
0000
0000
,
0000
0000
0000
3030
,
0101
0000
0000
0000
;

//---------------dance-single - ----------------
#NOTES:
     dance-single:
     :
     Hard:
     13:
     0.647813,0.794659,0.435191,0.348153,0.217596,521.000000,471.000000,50.000000,40.000000,0.000000,0.000000,0.647813,0.794659,0.435191,0.348153,0.217596,521.000000,471.000000,50.000000,40.000000,0.000000,0.000000:
// measure 0
0000
0000
0000
0000
,  // measure 1
0000
0000
0000
0000
,  // measure 2
0000
0000
0000
0000
,  // measure 3
0000
0000
0000
0000
,  // measure 4
0000
0000
0000
0000
,  // measure 5
0000
0000
0000
0000
,  // measure 6
0011
0000
0000
0000
0001
0000
0100
0000
0000
0000
0010
0000
1000
0000
0001
1000
,  // measure 7
0001
0000
0100
0000
0010
0000
1000
0100
1000
0000
0000
0001
0000
0000
1000
0000
,  // measure 8
1001
0000
0100
0110
0000
0000
1000
2020
,  // measure 9
0000
3030
0001
0202
0000
0303
0000
0000
,  // measure 10
1100
0000
1000
0010
0000
0010
0100
0000
,  // measure 11
0100
0001
0000
0001
0010
0000
0010
1000
,  // measure 12
0010
0000
0010
0001
0000
0001
0100
0000
,  // measure 13
0100
1000
0000
1000
0100
0010
0110
0000
,  // measure 14
1001
0000
1000
0010
0000
0010
0100
0010
,  // measure 15
1000
0000
0001
0000
1000
0010
0000
1000
0001
0000
0000
0010
0000
0000
0100
0000
,  // measure 16
1000
0000
0001
1000
0000
1000
0010
0100
,  // measure 17
0001
0000
0010
0000
0001
0100
0000
0001
1000
0000
0000
0010
0000
0000
0100
0000
,  // measure 18
0001
1000
1000
0000
0010
0010
0000
0110
,  // measure 19
0000
1000
0100
0010
0100
1000
0001
0100
,  // measure 20
0000
0010
0010
0000
0100
0100
0000
1001
,  // measure 21
0000
0001
0010
0100
1000
0010
0200
0000
,  // measure 22
0301
0010
0001
0010
0001
0100
0001
0100
,  // measure 23
0010
1000
0010
1000
0010
0100
0010
0100
,  // measure 24
0220
0000
0000
0330
,  // measure 25
1001
0000
0000
0011
0000
0000
1001
0000
0000
1100
0000
0000
0110
0000
0000
0000
,  // measure 26
1001
0000
0000
0000
1000
0000
0100
0010
0100
0000
0010
0000
0001
0000
0010
0001
,  // measure 27
0000
0000
0100
0000
0001
0000
0100
0010
1000
0000
0100
0000
0020
0000
0000
0000
,  // measure 28
0031
0000
0000
0000
1000
0000
0100
1000
0010
0000
0100
0000
0010
0000
1000
0001
,  // measure 29
1000
0100
0010
0001
0010
0100
1000
0000
,  // measure 30
0101
0000
0000
0000
0001
0000
0010
0001
0100
0000
0010
0000
1000
0000
0100
1000
,  // measure 31
0000
0000
0010
0000
0100
0000
0001
0010
0001
0000
1000
0000
0001
0000
1000
0000
,  // measure 32
0020
0000
0130
2002
0000
3003
0000
0022
,  // measure 33
0000
0033
0000
2020
0000
3030
0100
0000
,  // measure 34
1001
0000
0000
0000
0001
0000
0100
0010
0100
0000
0001
0000
1000
0000
0001
0010
,  // measure 35
0000
0000
0100
0000
1000
0000
0001
0010
0001
0000
0100
0000
0020
0000
0000
0000
,  // measure 36
1030
0000
0000
0000
0001
0000
0100
0001
1000
0000
0010
0000
0100
0000
0001
0000
,  // measure 37
1000
0100
0010
0001
0010
0100
1000
0000
,  // measure 38
0011
0000
0000
0000
0001
0000
1000
0100
1000
0000
0010
0000
0100
0000
0001
0100
,  // measure 39
0000
0000
0001
0000
1000
0000
0010
1000
0100
0000
1000
0000
0001
0000
0000
0000
,  // measure 40
0101
0000
1000
2200
0000
3300
0001
0022
,  // measure 41
0000
0033
1000
2002
0000
0000
3003
0000
,  // measure 42
0001
0100
0010
1000
0000
1000
0100
0000
,  // measure 43
0010
0001
0000
0001
0100
0000
0010
1000
,  // measure 44
0001
1000
0010
0100
0000
0100
0001
0000
,  // measure 45
0001
0010
0000
0010
0100
1000
0001
1000
,  // measure 46
0010
0000
0000
0000
0010
0000
0100
0000
0000
0000
0100
0000
0001
0000
1000
0010
,  // measure 47
0000
0000
0100
0000
0000
0100
0000
0000
0001
0000
0000
1000
0000
0000
0001
0000
,  // measure 48
0010
0000
0001
1000
0000
1000
0010
0000
,  // measure 49
0100
0010
1000
0001
1000
0100
1001
0000
,  // measure 50
0110
0000
0010
1000
0000
1000
0100
0000
,  // measure 51
0100
0010
0000
0010
0001
0000
1001
0000
,  // measure 52
0110
0000
0100
0001
0000
0001
1000
0000
,  // measure 53
1000
0010
0000
0010
0100
0000
0011
0000
,  // measure 54
0001
0000
0000
0000
1000
0000
0100
0000
0000
0000
1000
0000
0001
0000
0010
0001
,  // measure 55
0000
0000
0100
0000
0000
0010
0000
0000
1000
0000
0000
0001
0000
0000
0010
0000
,  // measure 56
0001
0000
1000
0100
0000
1000
0010
0100
,  // measure 57
0000
0000
0101
0000
0000
1100
0000
0000
0011
0000
0000
2020
0000
0000
3030
0000
,  // measure 58
2000
0100
0100
0000
0100
0100
0000
0001
,  // measure 59
0000
0001
0000
0001
0000
0001
0000
0001
,  // measure 60
3002
0010
0010
0000
0010
0010
0000
1000
,  // measure 61
0000
1000
0000
1000
0000
0100
0000
0100
,  // measure 62
1003
0010
0100
0010
1000
0100
0001
0100
,  // measure 63
1000
0001
0010
0001
1000
0010
0100
0010
,  // measure 64
2000
0100
0100
0000
3100
0000
0000
0110
,  // measure 65
0000
1001
0000
0001
1000
0010
0100
0000
,  // measure 66
0011
0000
0000
0000
0010
0000
0100
1000
0100
0000
1000
0000
0001
0000
0100
0010
,  // measure 67
1000
0000
0001
0000
0010
0000
0001
1000
0001
0000
0100
0000
0010
0000
0000
0000
,  // measure 68
1010
0000
0000
0000
1000
0000
0001
0100
0010
0000
1000
0000
0100
0000
0010
0001
,  // measure 69
0010
0000
0001
0000
0100
0000
0001
0000
0010
0100
1000
0100
0010
0000
0000
0000
,  // measure 70
1001
0000
0000
0000
0001
0000
0100
0010
0100
0000
0001
0000
1000
0000
0010
1000
,  // measure 71
0010
0000
0100
0001
0100
0000
0010
0100
0010
0000
1000
0000
0001
0000
0000
0000
,  // measure 72
2100
0000
3001
0012
0000
0103
0000
0220
,  // measure 73
0000
0330
0000
2002
0000
0000
3003
0000
,  // measure 74
1010
0000
0000
0000
0001
0000
0100
0001
0100
0000
0010
0000
1000
0000
0100
1000
,  // measure 75
0000
0000
0001
0000
0010
0000
0001
0100
0010
0000
1000
0000
2000
0000
0000
0000
,  // measure 76
0000
0000
0000
0000
3001
0000
0100
0010
1000
0000
0100
0000
0010
0000
0001
1000
,  // measure 77
0001
0010
0100
1000
0010
0100
0010
1000
,  // measure 78
0002
0100
0010
0100
,  // measure 79
2003
0000
0010
0000
3100
1000
0001
0010
,  // measure 80
0012
0000
1003
2100
0000
3001
0000
0220
,  // measure 81
0000
0000
0000
0000
,  // measure 82
0000
0000
0000
0330
,  // measure 83
1001
0000
0000
0000
;

//---------------dance-single - ----------------
#NOTES:
     dance-single:
     :
     Challenge:
     16:
     0.835567,0.903022,0.522230,0.322042,0.456951,672.000000,612.000000,60.000000,37.000000,0.000000,0.000000,0.835567,0.903022,0.522230,0.322042,0.456951,672.000000,612.000000,60.000000,37.000000,0.000000,0.000000:
0000
0000
0000
0000
,
0000
0000
0000
0000
,
0000
0000
0000
0000
,
0000
0000
0000
0000
,
0000
0000
0000
0000
,
0000
0000
0110
1001
,
0100
0000
0001
0000
1000
0000
0010
0100
0000
0001
1000
0000
0100
0000
0010
0100
,
1000
0000
0001
0000
0010
0001
0000
1000
0100
0000
1000
0010
0100
0001
0010
0000
,
0012
0000
1003
1200
0000
0310
0000
1002
,
0000
1003
0010
0201
0000
0310
1000
1000
,
0001
0010
0100
0001
0000
0001
1000
0010
,
0001
0000
1000
0000
0010
0100
0000
0100
0010
0000
1000
0000
0001
1000
0001
0000
,
0100
0000
0010
0000
0001
0000
1000
0000
0000
0000
1000
0000
0100
0000
0001
0010
,
0001
0000
1000
0000
0100
0010
0000
0010
0100
0000
1000
0000
1001
0000
0001
0000
,
0010
0000
0100
0000
1000
0000
0010
0000
0000
0000
0010
0000
0100
0000
0001
1000
,
0100
0000
0010
0000
0001
1000
0000
0010
0100
0000
0010
1000
0000
0001
1000
0000
,
0010
0000
0100
0000
0001
0000
0010
0000
1000
0000
0010
0000
0100
0000
1000
0001
,
0100
0000
0010
0000
1000
0001
0000
1000
0001
0000
0100
0010
0000
0100
0010
0000
,
2000
0001
0001
0000
3010
0010
1000
0101
,
0000
0000
0010
0000
1000
0000
0100
0000
0001
0000
0100
0000
1000
0010
0100
0000
,
0002
0010
0010
0000
1003
1000
0001
1010
,
0000
0000
0100
0000
0001
0000
0010
0000
1000
0000
0010
0000
0001
1000
0010
0000
,
0100
0100
0010
0010
1000
1000
0001
0001
,
1000
0000
0001
0000
0010
0000
0100
0000
0010
0001
0100
0000
0010
1000
0001
0000
,
0220
0000
0000
0330
,
1001
0000
0000
0011
0000
0000
1100
0000
0000
0101
0000
0000
0110
0000
0000
0000
,
1000
0000
0010
0000
0100
0000
0010
1000
0001
0000
1000
0000
0010
0000
0100
0001
,
1000
0000
0010
0000
0100
0000
0010
1000
0001
0000
0010
0000
0011
0000
0000
0000
,
0201
0000
0000
0000
0310
0000
1000
0000
0001
0000
1000
0010
0100
0000
0001
0000
,
0010
0000
0100
0000
1000
0000
0100
1000
0010
0100
0001
0010
0001
0000
1000
0000
,
1020
0000
0000
0000
0130
0000
0001
0000
0010
0000
0100
1000
0100
0000
1000
0010
,
0100
0000
0001
0000
0010
0000
0001
1000
0100
0000
1000
0001
0010
0100
1000
0000
,
0020
0000
1030
2010
0000
3001
0001
0210
,
0000
0310
0100
2002
0000
3003
0110
0000
,
0012
0000
0000
0000
1003
0000
0100
0010
0100
0000
1000
0000
0001
0000
0010
0001
,
1000
0000
0010
0000
0100
0000
0001
1000
0100
0000
0010
0000
0011
0000
0000
0000
,
2100
0000
0000
0000
3010
0000
0100
0010
0100
0000
0001
0000
0010
0000
0100
1000
,
0100
0000
1000
0000
0010
0000
1000
0001
1000
0000
0010
0100
0010
0000
1000
0000
,
1001
0000
0000
0000
0010
0000
0100
0001
1000
0000
0001
0000
0010
0000
0001
1000
,
0100
0000
1000
0000
0010
0000
0100
0010
1000
0000
0001
0000
0011
0000
0000
0000
,
2100
0000
3010
0210
0000
0301
0000
0012
,
0000
0000
1003
0000
0010
0000
0110
0000
0000
0000
1000
0100
1000
0000
0001
0010
,
0001
0000
1000
0000
0100
0000
0010
0000
0100
0000
0010
0000
0100
0000
1000
0001
,
0100
0000
0010
0000
1000
0000
0010
0000
0100
0000
0001
0000
1000
0010
0100
0000
,
0001
0000
0010
0000
0100
0000
1000
0000
0010
0000
0100
0000
0001
0000
1000
0100
,
0010
0000
0001
0000
1000
0000
0010
0100
0010
0000
1000
0000
1001
0000
0000
0000
,
0210
0000
0000
0000
0001
0000
0001
0000
0000
0000
1000
0000
1300
0000
0100
0001
,
1000
0000
0010
0000
1000
0100
0000
0100
0010
0000
0001
0010
0000
0100
1000
0000
,
0010
0000
0100
0000
0001
0000
0010
0000
0000
0000
0010
0000
0001
0000
1000
0010
,
0100
0000
0010
0000
1000
0001
0000
0001
0010
0000
0100
0000
1100
0000
0000
0000
,
0001
0000
0010
0000
1000
0000
0010
0000
0001
0000
0100
0000
0010
0000
1000
0001
,
0010
0000
0100
0000
1000
0000
0100
0000
0001
0000
0100
0000
1000
0000
0010
0100
,
0001
0000
0100
0000
1000
0000
0100
0000
0010
0000
0100
0000
0001
0000
0010
0100
,
1000
0000
0010
0000
0100
0010
0000
0010
0100
0000
0001
0000
1001
0000
1000
0000
,
0010
0000
0100
0000
1000
0000
0100
0000
0001
0000
0010
0000
0100
0000
1000
0001
,
0010
0000
0100
0000
1000
0010
0000
0010
0100
0000
0010
1000
0000
0001
0100
0000
,
0010
0000
1000
0000
0100
0000
0010
0000
0001
0000
1000
0000
0010
0000
0100
0001
,
1000
0000
1010
0000
0000
0011
0000
0000
1100
0000
0000
0101
0000
0000
0010
0100
,
0002
0010
0010
0000
1003
1000
0010
0110
,
0000
1000
0010
0001
1000
0100
0001
1000
,
0020
0100
0100
0000
1030
1000
0000
0011
,
0000
1000
0100
0001
1000
0010
0002
0000
,
2003
0010
3010
1000
0020
1000
1030
1001
,
0000
0001
0010
1000
0001
0100
0000
1000
,
0020
0100
0130
0010
0200
0010
0310
0101
,
0000
1000
0100
0001
0100
1000
0001
0000
,
0011
0000
0000
0000
1000
0000
0001
0010
0001
0000
1000
0000
0010
0000
0100
0001
,
1000
0000
0010
0000
0100
0000
0001
1000
0100
0000
0010
0000
0110
0000
0000
0000
,
1001
0000
0000
0000
0010
0000
0100
0001
1000
0000
0010
0000
1000
0000
0001
0100
,
0010
0000
1000
0000
0001
0000
1000
0010
1000
0100
0010
0001
1000
0000
0000
0000
,
0201
0000
0000
0000
0310
0000
1000
0001
1000
0000
0001
0010
0001
0000
1000
0100
,
0010
0000
0001
1000
0010
0000
1000
0001
0100
0000
0010
1000
0001
0010
0100
0000
,
2100
0000
3001
0201
0000
0310
0100
1001
,
0000
0001
0010
0102
0000
1003
1010
0000
,
1100
0000
0000
0000
0001
0000
0010
0100
0010
0000
0001
0000
1000
0000
0010
0100
,
0001
0000
1000
0000
0010
0000
0100
0001
1000
0000
0001
0010
0100
0000
0000
0000
,
0012
0000
0000
0000
1003
0000
0010
0100
0010
0000
1000
0001
0010
0000
0100
1000
,
0001
0000
0100
0000
0010
0000
1000
0001
1000
0010
0100
0001
0010
0000
0000
0000
,
0012
0010
0010
0000
1000
1000
0000
1003
,
1020
0100
0100
0000
1030
0100
0001
0010
,
0110
0000
0000
0000
1000
0001
0010
0000
0000
0000
1001
0000
0000
0000
0220
0000
,
0000
0000
0000
0000
,
0000
0000
0000
0330
,
1001
0000
0000
0000
;
