#TITLE:Daisuke;
#SUBTITLE:;
#ARTIST:Y&Co.;
#TITLETRANSLIT:;
#SUBTITLETRANSLIT:;
#ARTISTTRANSLIT:;
#GENRE:EUROBEAT;
#CREDIT:;
#BANNER:Daisuke_banner.png;
#BACKGROUND:Daisuke.png;
#LYRICSPATH:;
#CDTITLE:;
#MUSIC:Daisuke.ogg;
#OFFSET:-0.189000;
#SAMPLESTART:49.930000;
#SAMPLELENGTH:12.000000;
#LASTBEATHINT:309.504669;
#SELECTABLE:YES;
#BPMS:0.000000=157.000000
;
#STOPS:128.000000=0.764000,
170.000000=1.146000,
217.000000=0.191000,
217.500000=0.191000,
234.000000=0.764000,
276.000000=1.146000
;
#BGCHANGES:;
#KEYSOUNDS:;
#ATTACKS:;

//---------------dance-single - ----------------
#NOTES:
     dance-single:
     :
     Easy:
     6:
     0.304750,0.333222,0.156857,0.258813,0.000000,272.000000,252.000000,20.000000,33.000000,0.000000,0.000000,0.304750,0.333222,0.156857,0.258813,0.000000,272.000000,252.000000,20.000000,33.000000,0.000000,0.000000:
0000
0000
0000
0000
,
0000
0000
0000
0000
,
0000
0000
0000
0000
,
0000
0000
0000
0000
,
0001
0100
0001
0100
,
0010
1000
0010
1000
,
0001
1000
0100
0010
,
2002
0000
0000
3003
,
0010
0100
0001
1000
,
0010
0100
0001
1000
,
1000
0100
0001
0100
,
1000
0010
0001
0010
,
0100
0010
1000
0001
,
0100
0010
1000
0001
,
0010
0001
1000
0100
,
1000
0000
0000
0001
0000
0000
1000
0000
,
0020
0000
0130
0100
,
0001
0010
0100
0010
,
0002
0000
0000
0000
,
1003
1010
0010
0100
,
0010
1000
0100
0001
,
0100
1000
0010
0100
,
0020
0000
0000
0000
,
1030
1100
0001
0010
,
0001
1000
0001
0010
,
0001
0100
1100
0000
,
1000
0010
0001
0010
,
1000
0001
0010
0010
,
0200
1000
1300
0000
,
0002
0010
0013
0000
,
1000
0100
0001
0010
,
0100
1000
0010
0001
,
2002
3003
0000
0000
0000
0000
0000
0000
0110
0000
0000
0000
0000
0000
0000
0000
,
0001
0100
1000
2000
,
0000
3100
0101
0000
,
1000
0001
0010
0100
,
0110
0000
0001
1001
,
0100
0010
2000
3100
,
0002
0013
2020
0000
,
3030
0000
0022
0000
,
0033
0000
0100
1000
,
0001
0010
1000
0001
,
0010
0000
0000
0000
0100
0000
0000
0000
2002
3003
0000
0000
0010
0000
0000
0000
,
0100
0001
1000
0010
,
0100
0001
1000
0100
,
1000
0100
0010
0100
,
0010
0001
0010
0010
,
0001
1000
0010
0100
,
0001
1000
0100
1000
,
0010
1000
0001
0100
,
0000
0010
0000
0000
0100
0000
0002
0000
,
0000
0010
0013
2000
,
0000
0100
3100
0010
,
0001
0100
0010
1000
,
0001
0000
2002
3003
0010
0000
0010
0000
,
0100
0000
0001
0001
,
1000
0000
0200
1300
,
0020
0031
1000
0001
,
0100
0000
0000
0000
0010
0000
0000
0000
2002
3003
0000
0000
0000
0000
0000
0000
,
0010
0000
0010
0000
0200
0000
0000
0001
,
0000
0301
0000
0000
1000
0000
0010
0000
,
0110
0000
0001
0010
,
0001
1000
1100
0000
,
0001
1000
0010
0100
,
0001
0010
0100
0000
,
2020
0000
3030
0000
,
0022
0000
0033
0000
,
0100
0001
0100
1000
,
0100
0010
1000
0001
,
2002
3003
0000
0000
0001
0000
0000
0000
0010
0000
0000
0000
0001
0000
0000
0000
,
0100
0010
1000
0100
,
1000
0010
1000
0010
,
0001
0100
0001
0100
,
1000
0010
0100
0001
,
1000
0010
0100
0001
,
1000
0001
0100
0010
,
1000
0000
0010
0000
0000
0100
0000
0000
,
0010
1001
0000
0000
;

//---------------dance-single - ----------------
#NOTES:
     dance-single:
     :
     Medium:
     11:
     0.439198,0.454394,0.282342,0.243128,0.000000,392.000000,356.000000,36.000000,31.000000,0.000000,0.000000,0.439198,0.454394,0.282342,0.243128,0.000000,392.000000,356.000000,36.000000,31.000000,0.000000,0.000000:
0000
0000
0000
0000
,
0000
0000
0000
0000
,
0000
0000
0000
0000
,
0000
0000
0000
0000
,
1000
0000
1100
0000
0001
0010
0100
0000
,
0010
0000
0101
0000
0010
1000
0100
0000
,
1000
0000
0101
0000
0010
1000
0001
0000
,
2002
0000
0000
0000
0000
3003
0000
0000
,
0010
0100
0001
0000
0001
0010
0100
1000
,
0010
1000
0100
0000
1000
0010
0100
0001
,
0010
0001
0100
0000
0010
1000
0001
0000
,
1000
0100
0010
0000
0010
0100
1000
0000
,
0001
1000
0010
0000
0010
0100
0001
0010
,
0001
1000
0010
0000
0100
0010
1000
0100
,
1000
0001
0010
0000
0001
1000
0010
0000
,
0100
0001
0100
0000
0010
0000
0110
0000
,
1000
0001
0010
0000
0100
0100
0000
0010
,
0000
0010
0001
0000
1000
0010
0100
0000
,
0220
0000
0330
0000
,
1010
0000
1010
0000
0001
0001
0000
0100
,
0001
0000
0010
0000
0001
1000
0010
0000
,
1000
0000
0100
0000
1000
0001
0000
0010
,
0002
0000
0000
0003
,
1100
0000
1100
0000
0001
0001
0000
0010
,
0001
0000
1000
0000
0001
0010
0100
0000
,
0010
0000
0100
1000
0020
0000
0030
0000
,
1000
0000
1000
0000
0010
0100
0010
0000
,
1000
0001
0010
0100
1000
0000
1001
0000
,
0010
0000
0100
0001
0010
0000
0000
0000
,
0001
0000
1000
0100
0010
0000
0000
0000
,
0001
0100
1000
0000
1000
0100
0001
0000
,
1000
0010
0001
0000
0001
0010
1000
0000
,
1001
0010
0220
0330
,
0001
0000
0010
0100
0000
2200
0000
3300
,
0000
1000
0101
0000
,
0010
0100
0010
1000
0000
0001
0000
2002
,
0000
3003
0000
0000
0011
0000
1010
0000
,
0100
0000
0010
0100
0000
0010
0000
1000
,
0000
0001
0022
0000
,
0033
1000
2020
0000
,
3030
0000
0001
0000
1000
0010
0100
0000
,
0001
0010
0100
0000
1000
0010
0100
0001
,
0010
0000
0100
0000
1001
0000
0010
0100
,
0010
0000
1000
0100
0010
0001
0100
0010
,
0100
0000
0001
0010
0100
1000
0001
0100
,
0001
0000
1000
0100
1000
0000
0010
0000
,
0100
0010
0100
0000
1010
0000
1000
0100
,
1000
0000
0001
0010
0001
0100
0001
0010
,
0100
0000
1000
0010
1000
0100
1000
0010
,
0100
0000
0001
1000
0100
1000
0010
0000
,
0100
0010
0000
1000
0001
0000
0022
0000
,
0000
0033
0000
1000
,
0000
0010
0000
0000
0010
0000
2020
0000
,
0000
3030
0000
0100
,
0010
0000
1001
1001
0100
0000
0100
0010
,
0100
0000
0000
0000
0001
0000
0001
0010
,
0001
0000
1000
0000
0001
0100
0010
0000
,
1000
0010
0100
0000
0001
0010
0100
1000
,
0001
0100
0110
1000
,
2002
0000
3003
0000
0010
0000
0100
0001
,
0000
2002
0000
3003
0000
0000
1000
0000
,
2020
0000
3030
0000
0001
0000
0010
0001
,
0000
1000
0000
0001
0000
0010
0000
0001
,
0010
0000
0101
0000
0010
1000
0100
0010
,
0000
0001
0000
1001
0000
0000
0100
0000
,
2200
0000
3300
0001
,
0022
0000
0033
1000
,
0001
1000
0100
0000
1000
0001
0100
0000
,
0010
1000
0001
0010
0200
0000
0310
0000
,
1001
0000
0001
0010
0100
0000
0010
0100
,
1000
0001
1000
0100
0010
0000
0100
0010
,
0001
1000
0010
0100
0010
0000
1000
0100
,
1000
0001
0010
0000
0001
0100
0000
0010
,
1000
0000
1000
0100
0010
0000
0001
1000
,
0001
0010
0001
0100
0010
0000
1000
0100
,
1000
0010
1000
0100
0001
0000
0001
0100
,
1000
0000
0001
0010
0100
1000
0000
0001
,
1000
0110
0000
0000
;

//---------------dance-single - ----------------
#NOTES:
     dance-single:
     :
     Hard:
     15:
     0.774199,0.817909,0.439198,0.227442,0.521548,691.000000,635.000000,56.000000,29.000000,0.000000,0.000000,0.774199,0.817909,0.439198,0.227442,0.521548,691.000000,635.000000,56.000000,29.000000,0.000000,0.000000:
// measure 0
0000
0000
0000
0000
,  // measure 1
0000
0000
0000
0000
,  // measure 2
0000
0000
0000
0000
,  // measure 3
0000
0000
0000
0000
,  // measure 4
0001
0010
0011
1000
0010
1000
1001
0000
,  // measure 5
0100
0010
1010
1000
0100
0010
0011
0000
,  // measure 6
0100
0010
1010
1000
0001
0010
0011
0100
,  // measure 7
0220
0000
0000
0330
,  // measure 8
1000
0100
0010
0100
1000
0000
0001
0000
0100
0010
0100
0000
1000
0100
1000
0000
,  // measure 9
0001
0010
0100
0010
0001
0000
1000
0000
0001
0010
0001
0000
0100
0010
0100
0000
,  // measure 10
0001
1000
0100
1000
0001
0000
0010
0000
0001
0100
0001
0000
1000
0100
1000
0000
,  // measure 11
0010
0100
0010
0100
0010
0000
1000
0001
1000
0001
1000
0000
1001
0000
0000
0000
,  // measure 12
0001
0100
0010
0100
0001
0000
1000
0000
0010
0100
0010
0000
1000
0100
1000
0000
,  // measure 13
0010
0100
0001
0100
0010
0000
1000
0000
0001
0010
0001
0000
0100
0010
0100
0000
,  // measure 14
0010
1000
0100
1000
0010
0000
0100
0000
0001
1000
0001
0000
0010
0100
0010
0000
,  // measure 15
0100
1000
0100
1000
0100
0000
0010
0001
0010
0001
0010
0000
0011
0000
0000
0000
,  // measure 16
1000
0100
0001
0100
1000
1000
0010
0110
,  // measure 17
0000
0001
0100
1000
0100
0001
0010
0001
,  // measure 18
0100
0000
0010
0000
0010
0000
1000
0001
0000
0010
0000
0100
1000
0000
0010
0000
,  // measure 19
1010
0000
0011
0000
0100
0110
0000
0010
,  // measure 20
0100
0001
0010
1000
0010
0100
1000
1010
,  // measure 21
0000
0100
0001
0010
0001
1000
0100
1000
,  // measure 22
1000
0000
0100
0000
0010
0000
0001
0100
0000
0010
0000
1000
0001
0000
0100
0000
,  // measure 23
0110
0000
0101
0000
1010
1001
0000
1100
,  // measure 24
1000
0000
0001
0000
0010
0000
0001
1000
0100
0000
1000
0000
0010
0000
0200
0000
,  // measure 25
0000
0000
0310
0000
1000
0000
0001
0010
0100
0000
1000
0000
0010
0000
0100
0001
,  // measure 26
0010
0000
0001
0000
1000
0000
0010
0100
0001
0000
0010
0000
0001
0000
1000
0000
,  // measure 27
0010
0100
0010
1000
1100
0000
0101
0000
,  // measure 28
0010
0000
0100
0000
0001
0000
0010
0001
2000
0000
0010
0000
3010
0000
0100
0000
,  // measure 29
0001
0000
0010
0000
0100
0000
1000
0001
0200
0000
0010
0000
0310
0000
1000
0000
,  // measure 30
0100
0110
0000
0100
1000
1001
0000
0010
,  // measure 31
0100
0000
0001
0000
0011
0000
0010
0000
0001
0100
0001
1000
0010
0100
0010
2000
,  // measure 32
0002
3003
0000
0000
0100
0000
0010
0000
0110
0000
0000
0000
1001
0000
0000
0000
,  // measure 33
0001
0010
0100
1100
0000
0101
0000
0010
,  // measure 34
1000
0001
1000
0010
1010
0000
0101
0000
,  // measure 35
0010
0010
0010
1001
0100
1001
0010
0110
,  // measure 36
0000
0000
1000
0100
1000
0000
0001
0000
0011
0000
0000
0000
1010
0000
0000
0000
,  // measure 37
0100
0000
0001
0010
0100
0000
1000
0000
0010
0000
1100
0000
0000
0000
0101
0000
,  // measure 38
0000
0010
1000
2100
0000
0001
0001
3002
,  // measure 39
0000
0010
0010
0023
0000
0100
0100
0130
,  // measure 40
0000
0000
0010
0000
0001
0000
1000
0000
0010
0000
0100
0010
0100
0000
0001
0000
,  // measure 41
1000
0010
0100
0000
0001
0000
0010
0000
0100
0000
1000
0000
0010
0000
0100
0000
,  // measure 42
0001
0010
0100
0010
0100
1000
0010
0200
0002
0303
0000
0000
1000
0010
0100
0010
,  // measure 43
1000
0000
0001
0000
0010
0001
0010
0000
0100
0010
0100
0000
1000
0001
0010
0001
,  // measure 44
1000
0000
0001
0000
0100
0010
0100
0000
1000
0100
1000
0000
0001
0010
0100
0010
,  // measure 45
0001
0000
1000
0000
0010
0100
0010
0000
1000
0100
1000
0000
0001
0010
0001
0010
,  // measure 46
0001
0000
1000
0010
1000
0010
1000
0000
0110
0000
0000
0000
0001
1000
0100
1000
,  // measure 47
0001
0000
0100
0000
0010
0100
0010
0000
1000
0001
1000
0000
0010
1000
0100
1000
,  // measure 48
0010
0000
0100
0000
0001
0010
0001
0000
0100
0010
0100
0000
0010
1000
0001
1000
,  // measure 49
0010
0000
0100
0000
0001
1000
0001
0000
1000
0010
1000
0000
0001
0100
0001
0100
,  // measure 50
0001
0000
1000
0100
1000
0100
1000
0000
1010
0000
0000
0000
0102
0000
0000
0000
,  // measure 51
0000
0010
0000
0013
0000
1020
0000
0130
,  // measure 52
0001
0020
0000
0130
1000
0001
0200
0000
,  // measure 53
0000
0010
0000
0001
0000
0301
0000
0010
,  // measure 54
0100
0000
1000
0000
2200
3300
0202
0303
0010
0000
0100
0000
0010
0000
1000
0000
,  // measure 55
0200
0000
0300
0000
1000
0001
0010
0001
,  // measure 56
0200
0000
0300
0000
0010
1000
0100
0000
,  // measure 57
0010
0001
0100
0000
0010
0100
1000
0001
,  // measure 58
0010
0100
0010
0100
0001
1000
0001
2000
0002
3003
0000
0000
0010
0000
0100
0000
,  // measure 59
0110
0000
1001
0000
0010
0100
0001
0011
,  // measure 60
0000
1100
0000
1001
0000
0010
0100
0001
,  // measure 61
0010
0000
0001
1000
0001
0000
0100
0000
0010
0000
0010
0000
0010
0000
1000
0000
,  // measure 62
0100
0000
1010
0000
0000
0000
0101
0000
0000
0000
0010
0100
0001
0000
0010
0000
,  // measure 63
0011
0000
0000
0000
1010
0000
0000
0000
0100
0000
0001
1000
0001
0000
0010
0000
,  // measure 64
0001
1000
0010
0110
0000
1000
1000
2000
,  // measure 65
0000
0100
3100
0200
0000
0001
0301
0002
,  // measure 66
0000
0010
0013
0010
0000
0100
0010
0100
,  // measure 67
0000
0110
0000
0001
0010
0100
1000
0010
,  // measure 68
0100
0000
0010
0000
1000
0000
0001
0000
1000
0010
1000
0010
0100
0001
0100
0002
,  // measure 69
0020
0033
0000
0000
0100
0010
1000
0010
0100
0000
0001
0000
0010
0001
0010
0000
,  // measure 70
0100
1000
0100
0000
1000
0010
0100
0010
1000
0000
0001
0000
0010
0001
0010
0000
,  // measure 71
0100
1000
0100
0000
1000
0001
0010
0001
1000
0000
0010
0000
0100
0001
0100
0000
,  // measure 72
0010
1000
0010
0000
0100
0010
0100
0010
0100
0000
0001
1000
0001
1000
0001
0000
,  // measure 73
0101
0000
0000
0000
1000
0100
0010
0100
1000
0000
0001
0000
0010
0001
0010
0000
,  // measure 74
0100
0010
0100
0000
0001
1000
0100
1000
0001
0000
0010
0000
0100
1000
0100
0000
,  // measure 75
0010
0001
0010
0000
0100
1000
0001
0100
0010
0000
0100
0000
0010
1000
0001
0000
,  // measure 76
0010
0100
1000
0000
0010
1000
0100
1000
0010
0000
0100
0001
0010
0001
0100
0000
,  // measure 77
0010
0100
0001
1000
0010
0000
0000
0000
0000
0000
0000
0000
0000
0000
0000
0000
;
