#TITLE:DUE TOMORROW;
#SUBTITLE:;
#ARTIST:Mr.T;
#TITLETRANSLIT:;
#SUBTITLETRANSLIT:;
#ARTISTTRANSLIT:;
#GENRE:TECHNO;
#CREDIT:;
#BANNER:DUE TOMORROW_banner.png;
#BACKGROUND:DUE TOMORROW.png;
#LYRICSPATH:;
#CDTITLE:;
#MUSIC:DUE TOMORROW.ogg;
#OFFSET:-0.170000;
#SAMPLESTART:40.959999;
#SAMPLELENGTH:9.620000;
#SELECTABLE:YES;
#BPMS:0.000000=400.000000
,336.000000=25.000000
,340.000000=400.000000
,468.000000=200.000000
,500.000000=400.000000
,564.000000=200.000000
;
#STOPS:
;
#BGCHANGES:;
#KEYSOUNDS:;
#ATTACKS:;

//---------------dance-single - ----------------
#NOTES:
     dance-single:
     :
     Easy:
     9:
     0.366608,0.680154,0.144714,0.096476,0.000000,266.000000,251.000000,15.000000,10.000000,0.000000,0.000000,0.366608,0.680154,0.144714,0.096476,0.000000,266.000000,251.000000,15.000000,10.000000,0.000000,0.000000:
0000
0000
0000
0000
,
0000
0000
0000
0000
,
0000
0000
0000
0000
,
0000
0000
0000
0000
,
0000
0000
0000
0000
,
0000
0000
0000
0000
,
0000
0000
0000
0000
,
0000
0000
0000
0000
,
0000
0000
0000
0000
,
0000
0000
0000
0000
,
0000
0000
0000
0000
,
0000
0000
0000
0000
,
0001
0000
0000
0000
,
0001
0000
0000
0000
,
0010
0000
0000
0000
,
0010
0000
0000
0000
,
1000
0000
0000
0000
,
1000
0000
0000
0000
,
0200
0000
0000
0000
,
0000
0000
0300
0000
,
1000
0000
0001
0000
,
1000
0000
0001
0000
,
0100
0000
0010
0000
,
0100
0000
0010
0000
,
1000
0000
0100
0000
,
1000
0000
0100
0000
,
0010
0000
0001
0000
,
0010
0000
0001
0000
,
1000
0000
0001
0000
,
0100
0000
0010
0000
,
1000
0000
0010
0000
,
0100
0000
0001
0000
,
0010
0000
0001
0000
,
1000
0000
0100
0000
,
1001
0000
0000
0000
,
0110
0000
0000
0000
,
1000
0000
0010
0000
,
1000
0000
0001
0000
,
0010
0000
0001
0000
,
1000
0000
0010
0000
,
1000
0000
0100
0000
,
1000
0000
0001
0000
,
0100
0000
0001
0000
,
1000
0000
0100
0000
,
1000
0000
0010
0000
,
1000
0000
0100
0000
,
1000
0000
0001
0000
,
1000
0000
0010
0000
,
0100
0000
0001
0000
,
0100
0000
0010
0000
,
2002
0000
0000
0000
,
0000
0000
3003
0000
,
0001
0000
0010
0000
,
0100
0000
1000
0000
,
0001
0000
0010
0000
,
0100
0000
1000
0000
,
1000
0000
0010
0000
,
0100
0000
0001
0000
,
0010
0000
0001
0000
,
1000
0000
0100
0000
,
1000
0000
0001
0000
,
0010
0000
0001
0000
,
1000
0000
0100
0000
,
1000
0000
0010
0000
,
0100
0000
0001
0000
,
1000
0000
0010
0000
,
1000
0000
0100
0000
,
0010
0000
0001
0000
,
1000
0000
1001
0000
,
0001
0000
1001
0000
,
0100
0000
0110
0000
,
0010
0000
0110
0000
,
1000
0000
1001
0000
,
0001
0000
0011
0000
,
0010
0000
0110
0000
,
0100
0000
1100
0000
,
1000
0000
0001
0000
,
0010
0000
0001
0000
,
1000
0000
0010
0000
,
1000
0000
0001
0000
,
0100
0000
0001
0000
,
0100
0000
0010
0000
,
1000
0000
0100
0000
,
1000
0000
0001
0000
,
2000
3002
0203
0320
,
1030
0000
0100
0000
,
1000
0000
0100
0000
,
1000
0000
0100
0000
,
1000
0000
0010
0000
,
0100
0000
0001
0000
,
0100
0000
0001
0000
,
0100
0000
0001
0000
,
0010
0000
0001
0000
,
1000
0000
0001
0000
,
1000
0000
0001
0000
,
0100
0000
0010
0000
,
0100
0000
0010
0000
,
1000
0000
0100
0000
,
0010
0000
0001
0000
,
1000
0001
1000
0001
,
1000
0000
0000
0000
,
0001
0000
0010
0000
,
0100
0000
1000
0000
,
0001
0000
0010
0000
,
0100
0000
1000
0000
,
0001
0000
0100
0000
,
0010
0000
1000
0000
,
0010
0000
0100
0000
,
0001
0000
0010
0000
,
0001
0000
1000
0000
,
0100
0000
0010
0000
,
0001
0000
1000
0000
,
0100
0000
0010
0000
,
0001
0000
0100
0000
,
0010
0000
1000
0000
,
0001
0000
0100
0000
,
0010
0000
0100
0000
,
1000
0000
0000
0000
,
0000
0000
0000
0000
0000
0000
0001
1000
,
0000
0000
0000
0000
,
0020
0000
0000
0000
0000
0000
0000
0100
,
0130
0000
0000
0000
0000
0000
0000
0001
,
0100
0000
0000
0000
0000
0000
0000
0010
,
1000
0100
0000
0010
0001
0100
0000
2002
,
0000
0000
3003
0000
,
1000
0000
0001
0000
,
1000
0000
0001
0000
,
1000
0000
0001
0000
,
1000
0000
0001
0000
,
0100
0000
0010
0000
,
0100
0000
0010
0000
,
0100
0000
0010
0000
,
0100
0000
0010
0000
,
1000
0000
1000
0000
,
0001
0000
0001
0000
,
0010
0000
0010
0000
,
0100
0000
0100
0000
,
1000
0001
1000
0001
,
1000
0000
1001
0000
,
0010
0100
0010
0100
,
0010
0000
0110
0000
,
1001
0000
0000
0000
;

//---------------dance-single - ----------------
#NOTES:
     dance-single:
     :
     Medium:
     12:
     0.554046,0.680154,0.048238,0.106123,0.004824,402.000000,397.000000,5.000000,11.000000,0.000000,0.000000,0.554046,0.680154,0.048238,0.106123,0.004824,402.000000,397.000000,5.000000,11.000000,0.000000,0.000000:
0000
0000
0000
0000
,
0000
0000
0000
0000
,
0000
0000
0000
0000
,
0000
0000
0000
0000
,
0000
0000
0000
0000
,
0000
0000
0000
0000
,
0000
0000
0000
0000
,
0000
0000
0000
0000
,
0000
0000
0000
0000
,
0000
0000
0000
0000
,
0000
0000
0000
0000
,
0000
0000
0000
0000
,
1000
0000
0001
0000
,
1000
0001
1000
0000
,
0010
0000
0100
0000
,
0010
0100
0010
0000
,
1000
0000
0010
0000
,
0100
0001
0010
0000
,
2002
0000
0000
0000
,
0000
3003
0000
0000
,
1000
0000
0000
0100
0000
0000
1000
0000
,
0000
0100
0000
0000
1000
0000
0010
0000
,
0100
0000
0000
0001
0000
0000
0100
0000
,
0000
0001
0000
0000
0010
0000
0001
0000
,
1000
0000
0000
0001
0000
0000
0100
0000
,
0000
0010
0000
0000
1000
0000
0010
0000
,
0100
0000
0000
0001
0000
0000
0010
0000
,
0000
0100
0000
0000
1000
0000
0001
0000
,
0010
0000
0000
0001
0000
0000
0100
0000
,
0000
0010
0000
0000
1000
0000
0100
0000
,
1000
0000
0000
0010
0000
0000
0100
0000
,
0000
0001
0000
0000
0010
0000
0001
0000
,
1000
0000
0000
0100
0000
0000
0010
0000
,
0000
0001
0000
0000
0100
0000
0010
0000
,
1000
0001
0010
0100
,
0010
0001
1000
0000
,
0010
0100
0010
0000
,
1000
0001
1000
0000
,
0001
0100
0001
0000
,
1000
0100
1000
0000
,
0010
0100
0010
0000
,
0100
0001
0100
0000
,
0001
0010
0100
1000
,
0100
0010
0001
0000
,
1000
0010
1000
0000
,
0001
0010
0001
0000
,
0100
0010
0100
0000
,
0010
1000
0010
0000
,
1000
0100
0010
0000
,
0100
0010
0001
0000
,
1000
0100
0010
0001
,
0010
0100
1000
0000
,
0001
0000
0000
0010
0000
0000
0001
0000
,
0000
0010
0000
0000
0100
0000
1000
0000
,
0100
0000
0000
1000
0000
0000
0100
0000
,
0000
1000
0000
0000
0001
0000
0010
0000
,
0100
0000
0000
0010
0000
0000
0100
0000
,
0000
0010
0000
0000
0001
0000
1000
0000
,
0001
0010
0001
0000
,
1000
0010
1000
0000
,
0010
0000
0000
0100
0000
0000
0001
0000
,
0000
1000
0000
0000
0001
0000
0100
0000
,
0010
0000
0000
1000
0000
0000
0100
0000
,
0000
0010
0000
0000
0001
0000
1000
0000
,
0010
0000
0000
1000
0000
0000
0100
0000
,
0000
0010
0000
0000
0001
0000
0100
0000
,
0020
0000
0000
0000
,
0200
0000
0330
0000
,
0001
0100
1000
0000
,
1000
0100
0001
0000
,
0001
0010
0001
0000
,
0010
0100
1000
0000
,
1000
0100
0001
0000
,
0001
0100
1000
0000
,
1000
0010
0100
0000
,
0001
0100
0010
0000
,
0100
0001
0100
0000
,
0010
1000
0010
0000
,
1000
0100
1000
0000
,
0001
0100
0001
0000
,
1000
0010
0001
0000
,
0001
0010
1000
0000
,
0001
0010
0100
1000
,
0100
1000
0001
0000
,
1002
0203
0320
2030
,
3001
0010
0001
0010
,
0001
0010
0001
0010
,
0001
0010
0001
0010
,
0001
0000
0010
0000
,
0100
1000
0100
1000
,
0100
1000
0100
1000
,
0100
1000
0100
1000
,
0100
0000
0010
0000
,
0100
0010
0100
0010
,
0100
0010
0100
0010
,
0100
0010
0100
0010
,
0100
0000
1000
0000
,
0001
0010
0100
1000
,
0100
0010
0100
0010
,
0001
0010
0100
1000
,
0001
0000
0000
0000
,
1000
0000
0010
0100
,
0010
0100
0010
0000
,
1000
0000
0001
0010
,
0001
0010
0001
0000
,
0100
0000
0010
1000
,
0010
1000
0010
0000
,
0100
0000
0001
1000
,
0001
1000
0001
0000
,
1000
0000
0100
1000
,
0100
0010
0100
0000
,
0010
0000
0001
0010
,
0100
0010
0001
0000
,
1000
0000
0010
0100
,
0010
0001
0010
0000
,
1000
0001
1000
0001
,
1000
0000
1001
0000
,
0110
0000
0000
0000
,
0000
0000
0000
0000
0000
0000
1000
0001
,
0000
0000
0000
0000
,
0220
0000
0000
0000
0330
0000
0000
0001
,
1000
0000
0000
0000
0000
0000
0000
0000
0000
0000
0000
0000
0000
0000
0010
0100
,
0010
0000
0000
0000
0000
0000
0000
1000
,
0010
0100
0000
0001
0100
0010
0000
0100
,
0020
0000
0000
0030
,
1000
0100
1000
0100
,
1000
0100
1000
0100
,
0010
0001
0010
0001
,
0010
0001
0010
0001
,
1000
0010
1000
0010
,
1000
0010
1000
0010
,
0100
0001
0100
0001
,
0100
0001
0100
0001
,
1000
0100
0001
0100
,
1000
0100
0001
0100
,
1000
0010
0001
0010
,
1000
0010
0001
0010
,
1000
0100
0010
0001
,
1000
0100
0010
0001
,
0100
0010
0100
0001
,
0010
0100
1000
0001
,
0100
0000
0000
0000
;

//---------------dance-single - ----------------
#NOTES:
     dance-single:
     :
     Hard:
     18:
     0.988187,2.788631,0.086828,0.164009,0.144714,717.000000,708.000000,9.000000,17.000000,0.000000,0.000000,0.988187,2.788631,0.086828,0.164009,0.144714,717.000000,708.000000,9.000000,17.000000,0.000000,0.000000:
// measure 0
0000
0000
0000
0000
,  // measure 1
0000
0000
0000
0000
,  // measure 2
0000
0000
0000
0000
,  // measure 3
0000
0000
0000
0000
,  // measure 4
0000
0000
0000
0000
,  // measure 5
0000
0000
0000
0000
,  // measure 6
0000
0000
0000
0000
,  // measure 7
0000
0000
0000
0000
,  // measure 8
0000
0000
0000
0000
,  // measure 9
0000
0000
0000
0000
,  // measure 10
0000
0000
0000
0000
,  // measure 11
0000
0000
0000
0000
,  // measure 12
0001
1000
0010
1000
,  // measure 13
0001
0010
1000
0010
,  // measure 14
0001
0100
1000
0100
,  // measure 15
0010
1000
0100
0010
,  // measure 16
0001
1000
0100
0001
,  // measure 17
0100
1000
0010
0100
,  // measure 18
0202
0000
0000
0000
,  // measure 19
0000
0000
0303
0000
,  // measure 20
1000
0000
0010
1000
0000
0001
0010
0000
,  // measure 21
0001
0100
0000
0010
1000
0100
1000
0000
,  // measure 22
0001
0000
0100
0010
0000
1000
0100
0000
,  // measure 23
1000
0001
0000
0010
0001
1000
0010
0000
,  // measure 24
0100
0000
0010
1000
0000
0100
1000
0000
,  // measure 25
0001
0010
0000
0001
1000
0100
0010
0000
,  // measure 26
0001
0000
1000
0001
0000
0010
0001
0000
,  // measure 27
1000
0010
0000
0100
0010
0100
0002
0000
,  // measure 28
1003
0000
0100
0010
0000
0010
0100
0000
,  // measure 29
1000
0010
0000
0100
0001
0010
0100
0000
,  // measure 30
1000
0000
0010
0100
0000
0100
0010
0000
,  // measure 31
1000
0001
0000
0010
0001
1000
0100
0000
,  // measure 32
0010
0000
0100
1000
0000
0001
0010
0000
,  // measure 33
0100
0010
0000
0001
0010
0100
1000
0000
,  // measure 34
0010
0000
0100
0000
0001
1000
0000
1000
,  // measure 35
0001
0010
0100
1000
0001
1000
0010
0000
,  // measure 36
0100
0010
0100
0000
0001
0010
0001
0000
,  // measure 37
1000
0010
1000
0000
0001
0010
0001
0000
,  // measure 38
0100
0010
0100
0000
0010
1000
0010
0000
,  // measure 39
1000
0100
1000
0000
0001
0100
0001
0000
,  // measure 40
1000
0001
0010
0000
0001
1000
0010
0000
,  // measure 41
0100
0001
1000
0000
0100
1000
0001
0000
,  // measure 42
0100
0010
0100
0000
0010
0000
0100
0001
,  // measure 43
0010
0100
1000
0001
0010
0100
1000
0000
,  // measure 44
0001
0010
0001
0000
0100
0010
0100
0000
,  // measure 45
0010
1000
0010
0000
1000
0100
1000
0000
,  // measure 46
0010
0100
0010
0000
1000
0001
1000
0000
,  // measure 47
0001
0010
0001
0000
1000
0100
1000
0000
,  // measure 48
0100
0010
0100
0000
0010
0001
0010
0000
,  // measure 49
0001
1000
0001
0000
1000
0010
1000
0000
,  // measure 50
0100
0010
0100
0000
0001
0000
1000
0001
,  // measure 51
1000
0100
0010
0001
1000
0100
0020
0000
,  // measure 52
0031
0000
0100
0010
0000
1000
0100
0000
,  // measure 53
1000
0001
0000
0010
0001
1000
0010
0000
,  // measure 54
0100
0000
0001
0010
0000
0100
1000
0000
,  // measure 55
0010
0100
0000
0001
1000
0100
1000
0000
,  // measure 56
0010
0000
0100
0010
0000
1000
0100
0000
,  // measure 57
1000
0001
0000
0010
0100
1000
0001
0000
,  // measure 58
0100
0000
0010
1000
0000
0100
1000
0000
,  // measure 59
0001
0010
0000
0001
0100
0010
0100
0000
,  // measure 60
0001
0000
0010
0001
0000
1000
0001
0000
,  // measure 61
0010
0001
0000
0100
0001
0100
0010
0000
,  // measure 62
1000
0000
0100
1000
0000
0010
1000
0000
,  // measure 63
0001
1000
0000
0010
1000
0100
0010
0000
,  // measure 64
0001
0000
1000
0010
0000
0100
0001
0000
,  // measure 65
0010
0100
0000
1000
0001
0100
0010
0000
,  // measure 66
1000
0000
0001
0000
0010
0001
0000
0001
,  // measure 67
1000
0010
0100
0001
0010
0100
2000
0000
,  // measure 68
3001
0010
0100
0000
0010
0100
1000
0000
,  // measure 69
1000
0010
0100
0000
0010
0100
0001
0000
,  // measure 70
0010
0001
0100
0000
0010
1000
0100
0000
,  // measure 71
1000
0100
0010
0000
0100
0010
0001
0000
,  // measure 72
0010
0001
1000
0000
0010
1000
0001
0000
,  // measure 73
0100
0001
1000
0000
0100
1000
0001
0000
,  // measure 74
0100
0010
0100
0010
0100
0000
0001
0000
,  // measure 75
1000
0010
0100
0001
1000
0010
0200
0000
,  // measure 76
0301
0010
0100
0000
0010
0100
1000
0000
,  // measure 77
1000
0010
0100
0000
0010
0100
0001
0000
,  // measure 78
0010
0001
0100
0000
0010
1000
0100
0000
,  // measure 79
1000
0001
0010
0000
0001
1000
0010
0000
,  // measure 80
0100
0001
1000
0000
0010
1000
0001
0000
,  // measure 81
0010
0100
1000
0000
0001
0010
0100
0000
,  // measure 82
1000
0010
1000
0010
1000
0000
0001
0000
,  // measure 83
0010
0001
0100
0010
1000
0100
0010
0001
,  // measure 84
0200
0010
1000
0010
0302
0010
1000
0010
0203
1000
0010
0001
0302
0010
1000
0100
2003
0100
0001
0100
3020
0100
1000
0100
2030
0100
0001
0100
3200
0001
0010
1300
,  // measure 85
1000
0010
0100
0001
,  // measure 86
1000
0100
0010
0001
,  // measure 87
0100
0010
1000
0001
,  // measure 88
0010
0001
0100
0000
0010
1000
0100
0000
,  // measure 89
0010
0100
1000
0010
,  // measure 90
0100
0001
0010
0100
,  // measure 91
1000
0010
0100
0001
,  // measure 92
1000
0100
0010
0000
0100
0010
0001
0000
,  // measure 93
0010
0001
0100
0010
,  // measure 94
1000
0001
0010
0100
,  // measure 95
1000
0001
0010
0001
,  // measure 96
0100
0010
1000
0000
0010
0100
0001
0000
,  // measure 97
0010
0100
1000
0100
,  // measure 98
0001
0100
1000
0010
,  // measure 99
1000
0001
0010
0100
1000
0010
0100
0001
,  // measure 100
0020
0000
0000
0000
,  // measure 101
0130
1000
0001
1000
,  // measure 102
0010
0100
0010
0000
1000
0000
0001
0000
,  // measure 103
0010
0001
1000
0010
,  // measure 104
1000
0100
1000
0000
0001
0000
0010
0000
,  // measure 105
0001
0100
0010
1000
,  // measure 106
0001
0010
0100
0000
0010
0000
0100
0000
,  // measure 107
1000
0010
0100
0001
,  // measure 108
1000
0010
0100
0000
0010
0000
0100
0000
,  // measure 109
0001
0010
0100
0000
0010
0000
0100
0000
,  // measure 110
1000
0010
0100
0000
0001
0000
0010
0000
,  // measure 111
0001
1000
0100
0000
1000
0000
0010
0000
,  // measure 112
0100
0001
1000
0000
0100
0000
0010
0000
,  // measure 113
0001
1000
0010
0000
0100
0000
0001
0000
,  // measure 114
0010
0001
1000
0000
0010
0000
0100
0000
,  // measure 115
0001
0010
0001
1000
0001
0010
0001
1000
,  // measure 116
0100
0010
0100
0001
0100
1000
0100
0001
,  // measure 117
0100
0000
0000
0000
,  // measure 118
0000
0000
0000
0000
0000
0000
0011
0011
,  // measure 119
0000
0000
0000
0000
,  // measure 120
2020
0000
0000
0000
3030
0000
0000
1001
,  // measure 121
1001
0000
0000
0000
0000
0000
0000
0000
0000
0000
0000
0000
0000
0000
0100
0001
,  // measure 122
1000
0000
0000
0000
0000
0000
0000
0000
0000
0000
0000
0000
0000
0000
0010
0100
,  // measure 123
0001
0000
0011
0000
0000
0000
1000
0010
0100
0000
0110
0000
0000
0000
1000
0000
,  // measure 124
0001
0000
0010
0100
1000
0001
1000
0010
0100
0000
0010
0000
1010
0000
0000
0000
,  // measure 125
0100
0000
0001
0000
0010
0001
1000
0000
,  // measure 126
0001
0000
1000
0000
0010
0100
0001
0000
,  // measure 127
1000
0000
0010
0000
0100
0001
0010
0000
,  // measure 128
0001
0000
1000
0000
0010
0100
0001
0000
,  // measure 129
1000
0000
0010
0000
0100
0001
1000
0000
,  // measure 130
0100
0000
1000
0000
0010
1000
0001
0000
,  // measure 131
0010
0001
0100
0010
1000
0000
0001
0000
,  // measure 132
1000
0010
0100
0001
0010
0000
0001
0000
,  // measure 133
1000
0010
0100
0010
1000
0000
0001
0000
,  // measure 134
0010
0001
0100
0001
0010
0000
0100
0000
,  // measure 135
1000
0001
0010
0001
1000
0000
0010
0000
,  // measure 136
0100
0001
1000
0001
0100
0000
0010
0000
,  // measure 137
1000
0001
1000
0001
1000
0000
0010
0000
,  // measure 138
0100
0010
0100
0010
0100
0000
0001
0000
,  // measure 139
0010
0001
0100
0010
1000
0100
0001
0100
,  // measure 140
1000
0010
0100
0001
0010
1000
0010
0001
,  // measure 141
0100
0000
0000
0000
;

//---------------dance-double - ----------------
#NOTES:
     dance-double:
     :
     Hard:
     18:
     0.944084,2.652601,0.067533,0.154361,0.130242,685.000000,678.000000,7.000000,16.000000,0.000000,0.000000,0.944084,2.652601,0.067533,0.154361,0.130242,685.000000,678.000000,7.000000,16.000000,0.000000,0.000000:
00000000
00000000
00000000
00000000
,
00000000
00000000
00000000
00000000
,
00000000
00000000
00000000
00000000
,
00000000
00000000
00000000
00000000
,
00000000
00000000
00000000
00000000
,
00000000
00000000
00000000
00000000
,
00000000
00000000
00000000
00000000
,
00000000
00000000
00000000
00000000
,
00000000
00000000
00000000
00000000
,
00000000
00000000
00000000
00000000
,
00000000
00000000
00000000
00000000
,
00000000
00000000
00000000
00000000
,
00100000
00010000
10000000
00100000
,
01000000
00001000
00010000
00000010
,
00000100
00000001
00001000
00000010
,
00010000
00001000
01000000
00100000
,
10000000
00010000
10000000
00100000
,
01000000
00001000
00100000
00010000
,
00022000
00000000
00000000
00000000
,
00000000
00000000
00033000
00000000
,
00100000
00000000
00010000
10000000
00000000
00100000
01000000
00000000
,
00001000
00010000
00000000
00000100
00010000
00000100
00001000
00000000
,
00000010
00000000
00000100
00000001
00000000
00001000
00000010
00000000
,
00010000
00000100
00000000
00010000
00001000
00100000
00001000
00000000
,
00010000
00000000
00100000
01000000
00000000
00100000
10000000
00000000
,
00010000
00100000
00000000
00001000
00010000
00000010
00010000
00000000
,
00000100
00000000
00001000
00000001
00000000
00000010
00000001
00000000
,
00001000
00000010
00000000
00010000
00001000
00010000
00000100
00000000
,
00010000
00000000
00001000
00100000
00000000
00001000
00010000
00000000
,
00001000
01000000
00000000
00010000
00100000
01000000
10000000
00000000
,
00010000
00000000
00100000
00001000
00000000
00100000
00000100
00000000
,
00010000
00000100
00000000
00001000
00000001
00000010
00000100
00000000
,
00010000
00000000
00000010
00000100
00000000
00000010
00001000
00000000
,
00000001
00000010
00000000
00000100
00010000
00001000
00010000
00000000
,
00001000
00000000
00100000
00000000
00001000
00010000
00000000
00010000
,
00000020
00000000
00002030
00000000
,
00003001
00000010
00000001
00000000
00001000
00000010
00001000
00000000
,
00000100
00010000
00000100
00000000
00100000
00001000
00100000
00000000
,
00010000
10000000
00010000
00000000
01000000
00010000
01000000
00000000
,
00001000
00010000
00001000
00000000
00010000
00000010
00010000
00000000
,
00000100
00001000
00000100
00000000
00010000
00000010
00010000
00000000
,
00001000
00000001
00001000
00000000
00000010
00000100
00000010
00000000
,
00001000
00000001
00001000
00000001
00000010
00000000
00000001
00000000
,
00001000
00000100
00010000
00000100
00020000
00000000
00032000
00000000
,
00103000
00010000
00100000
00000000
00010000
10000000
00010000
00000000
,
10000000
00100000
10000000
00000000
00010000
01000000
00010000
00000000
,
00100000
00001000
00100000
00000000
00000100
00010000
00000100
00000000
,
00001000
00000010
00001000
00000000
00000001
00000100
00000001
00000000
,
00001000
00000100
00001000
00000000
00000010
00010000
00000010
00000000
,
00010000
00001000
00010000
00000000
00001000
01000000
00001000
00000000
,
00100000
00010000
10000000
01000000
00100000
00000000
00010000
00000000
,
00100000
00001000
00010000
00000100
00001000
00000000
00000010
00000000
,
00001000
00000000
00000001
00000010
00000000
00000001
00000100
00000000
,
00000010
00001000
00000000
00000100
00010000
00001000
00010000
00000000
,
00001000
00000000
00100000
00010000
00000000
10000000
00100000
00000000
,
01000000
00010000
00000000
00100000
00001000
00010000
00001000
00000000
,
00010000
00000000
00000010
00000100
00000000
00000001
00000100
00000000
,
00000010
00001000
00000000
00000100
00010000
00001000
00010000
00000000
,
00001000
00000000
00100000
01000000
00000000
10000000
00100000
00000000
,
01000000
00010000
00000000
00100000
00001000
00010000
00001000
00000000
,
00010000
00000000
00000100
00001000
00000000
00000010
00001000
00000000
,
00000010
00001000
00000000
00000100
00001000
00000001
00001000
00000000
,
00000100
00000000
00010000
00001000
00000000
00100000
00001000
00000000
,
00100000
00001000
00000000
00010000
00001000
00100000
01000000
00000000
,
10000000
00000000
00100000
10000000
00000000
00010000
10000000
00000000
,
00100000
01000000
00000000
00001000
00010000
00000100
00010000
00000000
,
00001000
00000000
00010000
00000000
00000010
00000100
00000000
00000100
,
00000001
00000010
00000100
00001000
00000200
00000000
00000000
00000000
,
00010300
00001000
00100000
00000000
00010000
10000000
00100000
00000000
,
01000000
00010000
00100000
00000000
00001000
00010000
00000100
00000000
,
00001000
00000010
00000100
00000000
00000001
00000010
00000100
00000000
,
00010000
00000100
00001000
00000000
00000010
00010000
00001000
00000000
,
00010000
00001000
00100000
00000000
00010000
01000000
00100000
00000000
,
10000000
00010000
00100000
00000000
00001000
01000000
00010000
00000000
,
00100000
00010000
00100000
00010000
00100000
00000000
00001000
00000000
,
00010000
00000010
00010000
00000010
00010000
00000000
00000100
00000000
,
00001000
00000001
00000010
00000000
00000001
00000100
00000010
00000000
,
00010000
00000100
00001000
00000000
00000100
00010000
00001000
00000000
,
00100000
00010000
10000000
00000000
00100000
01000000
00010000
00000000
,
10000000
01000000
00100000
00000000
00010000
01000000
00001000
00000000
,
00010000
00000010
00010000
00000000
00001000
01000000
00001000
00000000
,
00010000
00000100
00001000
00000000
00000100
00010000
00001000
00000000
,
01000000
00010000
01000000
00010000
00100000
00000000
00001000
00000000
,
00010000
00000100
00001000
00000010
00000100
00000000
00000001
00000000
,
00000020
00000001
00000100
00000031
00002000
00000100
00000010
00000100
00003200
00010000
00001000
00010300
00002000
00100000
00010000
00103000
00020000
10000000
01000000
10030000
00200000
01000000
10000000
01300000
20000000
01000000
00010000
30100000
02000000
00001000
00010000
03001000
,
00010000
00000010
00000100
00000001
,
00001000
00000100
00100000
00001000
,
00010000
00001000
01000000
00100000
,
10000000
00010000
10000000
00000000
00100000
10000000
01000000
00000000
,
00100000
00010000
01000000
00001000
,
00010000
00100000
00010000
00001000
,
00010000
00000010
00001000
00000100
,
00001000
00000010
00000100
00000000
00000010
00000100
00000001
00000000
,
00010000
00000100
00001000
00000100
,
00010000
00001000
00100000
01000000
,
10000000
00010000
00100000
00001000
,
00010000
00000010
00010000
00000000
00000001
00001000
00000001
00000000
,
00000100
00000010
00001000
00000000
00000001
00000000
00000010
00000000
,
00000100
00010000
00001000
00000000
00010000
00000000
00001000
00000000
,
00100000
00001000
00010000
00001000
00100000
00000100
00010000
00001000
,
00020000
00000000
00000000
00000000
,
01030000
10000000
00100000
01000000
,
00010000
00100000
00001000
00010000
,
00000010
00000100
00001000
00000100
,
00000001
00000010
00000100
00001000
,
00000010
00010000
00001000
00010000
,
00100000
00010000
00100000
01000000
,
10000000
01000000
00010000
01000000
,
10000000
01000000
00010000
00100000
,
00001000
00010000
00000100
00000000
00001000
00000000
00000001
00000000
,
00000010
00000100
00010000
00001000
,
00100000
00010000
10000000
00000000
01000000
00000000
10000000
00000000
,
00010000
00100000
00001000
00010000
,
00000010
00000100
00000010
00000000
00001000
00000000
00000001
00000000
,
00000010
00000100
00010000
00000001
,
00001000
00000100
00010000
00001000
,
00010000
00001000
00010000
00001000
00010000
00001000
00010000
00001000
,
00100000
00000000
00000000
00000000
,
00000000
00000000
00000000
00000000
00000000
00000000
11000000
11000000
,
00000000
00000000
00000000
00000000
,
00011000
00000000
00000000
00000000
00000000
00000000
00000000
00000011
,
00000011
00000000
00000000
00000000
00000000
00000000
00000000
00000000
00000000
00000000
00000000
00000000
00000000
00000000
00010000
00100000
,
01000000
00000000
00000000
00000000
00000000
00000000
00000000
00000000
00000000
00000000
00000000
00000000
00000000
00000000
00001000
00000100
,
00000010
00000000
00000010
00000000
00000000
00000000
00010000
00001000
00100000
00000000
00100000
00000000
00000000
00000000
00001000
00000000
,
00010000
00100000
01000000
10000000
00010000
00100000
00101000
00000000
,
00010000
00000000
00000010
00000000
00001000
00000100
00010000
00000000
,
00000100
00000000
00010000
00000000
00000001
00000010
00000100
00000000
,
00001000
00000000
00000100
00000000
01000000
00001000
00010000
00000000
,
00001000
00000000
00100000
00000000
00010000
10000000
01000000
00000000
,
00100000
00000000
01000000
00000000
10000000
00010000
00100000
00000000
,
00001000
00000000
00010000
00000000
00000010
00000100
00000001
00000000
,
00001000
00000010
00000100
00000010
00010000
00000000
00001000
00000000
,
00100000
00010000
10000000
00010000
00100000
00000000
00001000
00000000
,
00010000
00000000
01000000
00000000
10000000
00100000
10000000
00000000
,
00010000
00000000
00100000
00000000
00001000
00010000
00000100
00000000
,
00001000
00000000
00000001
00000000
00000010
00000100
00001000
00000000
,
00000001
00000000
00001000
00000000
00000010
00010000
00001000
00000000
,
00100000
00000000
00001000
00000000
01000000
00100000
10000000
00000000
,
00010000
00000000
00100000
00000000
00000100
00010000
00001000
00000000
,
00010000
00001000
00010000
00001000
00010000
00001000
00010000
00001000
,
00100000
00000100
00010000
00001000
00100000
00000100
00001000
00000010
,
00000100
00000000
00000000
00000000
;
