#TITLE:DM STAR ~関西energy style~;
#SUBTITLE:;
#ARTIST:NAOKI;
#TITLETRANSLIT:DM STAR kansai energy style;
#SUBTITLETRANSLIT:;
#ARTISTTRANSLIT:;
#GENRE:SPEED RAVE;
#CREDIT:;
#BANNER:DM_STAR_banner.png;
#BACKGROUND:DM_STAR.png;
#LYRICSPATH:;
#CDTITLE:;
#MUSIC:DM STAR.ogg;
#OFFSET:-0.420000;
#SAMPLESTART:39.850002;
#SAMPLELENGTH:12.300000;
#LASTBEATHINT:305.067200;
#SELECTABLE:YES;
#BPMS:0.000000=155.000000
,168.000000=155.080002
;
#STOPS:294.000000=0.194000,
297.500000=0.194000,
301.000000=0.194000
;
#BGCHANGES:;
#KEYSOUNDS:;
#ATTACKS:;

//---------------dance-single - ----------------
#NOTES:
     dance-single:
     :
     Easy:
     6:
     0.252767,0.275858,0.105031,0.137348,0.000000,219.000000,206.000000,13.000000,17.000000,0.000000,0.000000,0.252767,0.275858,0.105031,0.137348,0.000000,219.000000,206.000000,13.000000,17.000000,0.000000,0.000000:
0000
0000
0000
0000
,
0000
0000
0000
0000
,
0000
0000
0000
0000
,
0000
0000
0000
0000
,
0000
0000
0000
0000
,
0010
0000
0010
0000
,
1000
0000
1000
0000
,
0001
0000
0001
0000
,
0100
0000
0100
0000
,
2002
0000
0000
0000
0000
3003
0000
0000
,
0010
0100
0010
1000
,
0100
0100
0100
0000
,
0010
0001
1000
0100
,
1000
1000
1000
0000
,
0001
0100
0010
1000
,
0001
0001
0001
0000
,
0010
0100
1000
0001
,
0200
0000
0000
0300
,
0010
0000
0000
1000
0000
0000
0010
0000
,
0100
0001
0100
0000
,
0001
0000
0000
0010
0000
0000
0001
0000
,
1000
0100
0100
0000
,
1000
0000
0000
0001
0000
0000
1000
0000
,
0010
0100
0010
0000
,
1010
0000
0101
0000
,
2002
0000
3003
0000
,
0010
0000
0100
0010
,
1000
0100
0100
0000
,
0101
0000
0010
0001
,
1000
0100
1000
0000
,
1001
0000
0010
0100
,
0001
1000
0100
0000
,
0011
0000
1000
0010
,
0100
0010
1000
0000
,
0002
0000
0010
0013
,
2000
0000
3100
0000
,
2000
0000
0010
3010
,
0002
0000
0103
0000
,
0010
1000
0010
0000
,
0100
0001
0100
0000
,
0001
0010
0001
0000
,
2000
0000
3010
0010
,
0100
0001
0010
0001
,
0100
0010
0010
0000
,
1000
0100
0010
0100
,
1000
1000
1000
0000
,
0010
0100
0001
0100
,
0010
0010
0010
0000
,
1000
0001
1000
0001
,
0110
0000
1001
0000
,
0010
0000
0000
0001
0000
0000
0010
0000
,
0100
1000
0100
0000
,
1000
0000
0000
0010
0000
0000
1000
0000
,
0001
0100
0001
0000
,
0010
0001
0001
0000
,
1000
0100
0100
0000
,
2000
0000
3010
0000
,
0002
0000
0103
0000
,
1001
0000
0100
0000
,
0010
0010
0010
0000
,
2000
0000
3100
0100
,
1000
0001
0010
0000
,
0002
0000
0103
0000
,
0010
0010
0010
0000
,
1001
0000
0100
0010
,
1000
0001
1000
0001
,
2000
0000
3010
0100
,
0001
0010
1000
0000
,
0020
0000
0031
0100
,
1000
0100
0001
0000
,
1001
0000
0100
0010
,
1000
0100
1000
0000
,
0020
0000
0130
0001
,
0100
0001
0001
1000
,
0000
1000
0000
1000
0000
0010
0000
0000
,
0010
0000
0100
0000
0010
0000
0000
1001
;

//---------------dance-single - ----------------
#NOTES:
     dance-single:
     :
     Medium:
     9:
     0.377419,0.429112,0.161586,0.153507,0.012119,327.000000,307.000000,20.000000,19.000000,0.000000,0.000000,0.377419,0.429112,0.161586,0.153507,0.012119,327.000000,307.000000,20.000000,19.000000,0.000000,0.000000:
0000
0000
0000
0000
,
0000
0000
0000
0000
,
0000
0000
0000
0000
,
0000
0000
0000
0000
,
0000
0000
0000
0000
,
0001
0000
0100
0000
0010
0100
0010
0000
,
1000
0100
2000
0000
0000
0000
3001
0000
,
0100
0000
0010
0000
1000
0100
0010
0000
,
0001
0100
0110
0000
,
2000
0002
0000
0000
0000
3003
0000
0000
,
0100
0010
0100
0000
0001
0000
0010
0001
,
0000
1000
0010
0100
,
0010
1000
0001
0000
1000
0000
0100
1000
,
0000
0100
0010
0001
,
1000
0001
0100
0000
0010
0000
1000
0001
,
0000
0010
0100
1000
,
0001
0100
0010
0000
1000
0000
0100
0010
,
0200
0000
0300
0000
,
1000
0000
0000
0001
0000
0000
1000
0000
0000
0000
0010
0000
0100
0000
0000
0000
,
0001
0010
0100
1000
,
0010
0000
0000
0100
0000
0000
0001
0000
0000
0000
0010
0000
0001
0000
0000
0000
,
1000
0100
0010
0001
,
1000
0000
0000
0010
0000
0000
0100
0000
0000
0000
0010
0000
1000
0000
0000
0000
,
0001
0010
0100
1000
,
0010
0100
0010
0000
1000
0001
1000
0000
,
0010
1000
0100
0010
0001
0000
0001
0000
,
0101
0000
0010
0000
1000
0000
0100
1000
,
0000
0010
2000
0000
0000
0000
3001
0000
,
0011
0000
0000
0000
0010
0001
1000
0100
,
0000
0100
1000
0000
0010
0000
0010
0000
,
0100
0000
0001
0000
1000
0100
1000
0001
,
0000
0100
0010
0000
0100
0000
0001
0000
,
1001
0000
0000
0000
0100
0010
0100
0010
,
0000
0010
2000
0000
0001
0000
3001
0000
,
0020
0000
0000
0230
0000
0000
0000
0000
,
1300
0001
1000
0010
,
0200
0000
0000
0301
0000
0000
0001
0000
,
1000
0101
0010
0001
,
0010
0000
0110
0000
1000
0001
1000
0000
,
0010
0000
0110
0000
1000
0010
0100
0000
,
0001
0000
1001
0000
0010
0100
0001
0000
,
2000
0100
0100
3100
,
0010
0001
0010
0000
0001
0000
1000
0100
,
0000
0100
1000
0010
,
0100
0001
0100
0000
0010
0000
1000
0100
,
0000
1000
0001
0010
,
0001
1000
0001
0000
0100
0000
0010
0100
,
0000
0010
0010
0010
,
1000
0001
1000
0000
0001
0000
0010
0100
,
0000
1000
0001
1000
,
0020
0000
0000
0230
0000
0000
0310
0000
,
1000
0000
1000
0000
0001
0000
0010
0001
,
0000
1000
0100
0000
1000
0000
0010
0000
,
0100
0010
0100
0000
0001
0000
1001
0000
,
0010
0002
0000
1003
,
0010
0000
0100
0000
0010
1000
0010
0000
,
0100
0000
0001
0010
0000
0001
1000
0000
,
0100
0110
0001
1000
,
2002
0000
3003
0000
0010
0000
0100
0010
,
0000
1000
0002
0000
0000
0000
0013
0000
,
0101
0000
0000
0000
0010
1000
0001
0100
,
0000
0010
1000
0000
0100
0000
0100
0000
,
0110
0000
0000
0000
0001
0010
0100
1000
,
0000
0010
0100
0000
0010
0000
0010
0000
,
1010
0000
0011
0000
,
1000
0000
0001
0000
1000
0001
0100
0010
,
1000
0000
1100
0000
0001
0010
0001
0100
,
0000
0001
2000
0000
0000
0000
3010
0000
,
0101
0000
0000
0000
0001
0010
0100
0010
,
0000
0001
1000
0000
0010
0000
0100
0000
,
1010
0000
0000
0000
0100
0001
1000
0001
,
0000
0010
0100
0000
1000
0000
0001
0000
,
2002
0000
3003
0000
0010
0100
0001
0100
,
0000
0010
0100
0000
0000
1000
0100
0000
,
0010
0001
0000
0000
1000
0001
0000
0001
,
1000
0000
0000
0000
0100
0000
0000
0110
;

//---------------dance-single - ----------------
#NOTES:
     dance-single:
     :
     Hard:
     12:
     0.535543,0.551716,0.242379,0.169665,0.092912,464.000000,434.000000,30.000000,21.000000,0.000000,0.000000,0.535543,0.551716,0.242379,0.169665,0.092912,464.000000,434.000000,30.000000,21.000000,0.000000,0.000000:
// measure 0
0000
0000
0000
0000
,  // measure 1
0000
0000
0000
0000
,  // measure 2
0000
0000
0000
0000
,  // measure 3
0000
0000
0000
0000
,  // measure 4
0000
0000
0000
0000
,  // measure 5
0010
0100
0001
0100
0010
1000
0100
1000
,  // measure 6
0001
0010
0010
0000
0001
1000
0010
0100
,  // measure 7
0001
0010
0100
0010
0001
1000
0100
0010
,  // measure 8
0100
1000
0001
0010
0001
1000
1001
0000
,  // measure 9
0010
0020
0000
0000
0000
0000
0030
0000
,  // measure 10
1000
0000
0100
0000
0100
0000
0010
0000
0100
0000
0000
1000
0000
0000
0001
0000
,  // measure 11
0010
1000
0010
0001
0100
0010
0100
0000
,  // measure 12
0001
0000
0010
0000
0010
0000
0001
0000
1000
0000
0000
0100
0000
0000
1000
0000
,  // measure 13
0010
1000
0010
0001
0010
0100
0010
0000
,  // measure 14
0100
0000
0001
0000
0100
0000
1000
0000
0100
0000
0000
0110
0000
0000
1000
0000
,  // measure 15
0001
0010
1000
0010
0100
0001
0100
0000
,  // measure 16
1000
0000
0010
0000
0100
0000
0010
0000
1000
0000
0000
0011
0000
0000
0001
0000
,  // measure 17
0200
0010
0010
0310
,  // measure 18
1000
0000
0000
1010
0000
0000
0001
0000
0000
0000
0010
0000
0001
0000
0100
0000
,  // measure 19
0001
1000
0100
0001
0100
1000
0010
0000
,  // measure 20
0100
0000
0000
0101
0000
0000
0010
0000
0000
0000
1000
0000
0001
0000
0010
0000
,  // measure 21
0100
1000
0100
0001
0100
0010
0110
0000
,  // measure 22
0001
0000
0000
0011
0000
0000
1000
0000
0000
0000
0010
0000
0100
0000
0001
0000
,  // measure 23
0100
0010
1000
0100
0001
0100
1000
0000
,  // measure 24
0001
1000
0010
1000
0001
0100
0001
1000
,  // measure 25
0100
0000
0010
0000
0100
0010
0100
0010
0100
0000
0000
0000
1001
0000
0000
0000
,  // measure 26
0100
0010
0020
0000
1030
0001
0100
0001
,  // measure 27
0000
1000
0010
0100
0001
0010
0100
0000
,  // measure 28
1020
0000
0130
0000
0001
1000
0010
0100
,  // measure 29
0000
0100
0010
1000
0100
0001
0100
0000
,  // measure 30
0010
0100
0100
0000
1000
0001
0010
0001
,  // measure 31
0000
0100
0010
0100
0001
0010
1000
0000
,  // measure 32
0202
0000
0303
0000
0010
1000
0100
0010
,  // measure 33
0000
0010
0100
1000
0001
0100
0110
0000
,  // measure 34
0002
0000
0000
0023
0000
0000
0000
0000
,  // measure 35
0031
1000
0100
0010
,  // measure 36
0200
0000
0000
2300
0000
0000
3001
0000
,  // measure 37
0100
0110
0000
1001
,  // measure 38
1000
0000
0010
0000
0000
0100
0000
0000
0001
0000
0000
0100
0000
0000
0010
0000
,  // measure 39
1000
0000
0001
0000
0000
0010
0000
0000
0001
0000
0000
1000
0000
0000
0001
0000
,  // measure 40
0100
0000
0010
0000
0000
1000
0000
0000
0001
0000
0000
0010
0000
0000
0100
0000
,  // measure 41
1000
0000
1001
0000
0010
0100
0001
0000
,  // measure 42
1000
0000
0010
0000
0010
0000
0100
0000
0001
0000
0000
0010
0000
0000
0001
0000
,  // measure 43
1000
0100
0001
0100
0010
0100
1000
0000
,  // measure 44
0001
0000
0100
0000
0100
0000
0010
0000
1000
0000
0000
0100
0000
0000
0010
0000
,  // measure 45
0001
0010
1000
0010
0100
0001
0100
0000
,  // measure 46
1000
0000
0100
0000
0100
0000
0001
0000
0100
0000
0000
0110
0000
0000
0010
0000
,  // measure 47
0001
0100
1000
0100
0010
0100
0001
0000
,  // measure 48
1000
0000
0010
0000
0010
0000
0100
0000
0001
0000
0000
1001
0000
0000
1000
0000
,  // measure 49
0200
0010
0010
0310
,  // measure 50
0001
0000
0100
0001
0000
0000
0011
0000
,  // measure 51
1000
0000
0010
1000
0001
0010
0100
0010
,  // measure 52
0000
0001
1000
0000
0100
1000
0010
0100
,  // measure 53
0000
0010
1000
0010
0100
0001
0010
0000
,  // measure 54
0001
0100
0010
0000
1000
0100
0010
0001
,  // measure 55
0000
1000
0010
0100
0001
0010
0100
0000
,  // measure 56
1010
0010
0000
0010
0101
0100
0000
0100
,  // measure 57
0010
0000
0100
0000
0001
1000
0001
1000
0001
0000
0000
0000
0110
0000
0000
0000
,  // measure 58
2000
0000
0010
0000
3010
0100
0001
0010
,  // measure 59
0000
0010
0001
1000
0100
0001
0100
0000
,  // measure 60
1020
0000
0130
0000
0001
0100
0010
1000
,  // measure 61
0000
1000
0100
0001
0100
1000
0010
0000
,  // measure 62
0202
0000
0303
0000
0010
1000
0100
0010
,  // measure 63
0000
0010
0001
1000
0010
0100
0010
0000
,  // measure 64
2001
3001
1002
1003
,  // measure 65
0100
0000
0010
0000
0100
0000
0010
0000
0001
0000
1000
0000
0001
1000
0001
1000
,  // measure 66
0010
0100
0100
0000
0001
1000
0100
0010
,  // measure 67
0000
0100
1000
0001
0100
0010
1000
0000
,  // measure 68
0022
0000
0033
0000
1000
0010
0100
0010
,  // measure 69
0000
1000
0001
0100
1000
0100
0001
0000
,  // measure 70
1000
0010
0010
0000
0100
0010
1000
0001
,  // measure 71
0000
0010
0100
1000
0001
0010
0100
0000
,  // measure 72
2020
0000
3030
0000
0001
0010
1000
0010
,  // measure 73
0000
0100
0010
0000
0110
0001
0100
0000
,  // measure 74
1000
0100
0000
0110
1000
0010
0000
0001
,  // measure 75
0010
0000
0110
1000
0100
0000
0000
0011
;
