#TITLE:DAWN;
#SUBTITLE:;
#ARTIST:Melodyout;
#TITLETRANSLIT:;
#SUBTITLETRANSLIT:;
#ARTISTTRANSLIT:;
#GENRE:;
#CREDIT:;
#BANNER:DAWN_banner.png;
#BACKGROUND:DAWN.png;
#LYRICSPATH:;
#CDTITLE:;
#MUSIC:DAWN.ogg;
#OFFSET:-0.260000;
#SAMPLESTART:82.710999;
#SAMPLELENGTH:10.000000;
#LASTBEATHINT:244.500000;
#SELECTABLE:YES;
#DISPLAYBPM:145.000000:190.000000;
#BPMS:0.000000=145.000000
,84.000000=130.000000
,100.000000=140.000000
,116.000000=145.000000
,148.000000=190.000000
,212.000000=188.000000
,220.000000=189.000000
,228.000000=190.000000
;
#STOPS:
;
#BGCHANGES:;
#KEYSOUNDS:;
#ATTACKS:;

//---------------dance-single - ----------------
#NOTES:
     dance-single:
     :
     Easy:
     7:
     0.304550,0.342218,0.204005,0.102002,0.005100,209.000000,189.000000,20.000000,10.000000,0.000000,0.000000,0.304550,0.342218,0.204005,0.102002,0.005100,209.000000,189.000000,20.000000,10.000000,0.000000,0.000000:
0000
0000
0000
0000
,
0000
0000
0000
0000
,
0000
0000
0000
0000
,
0000
0000
0000
0000
,
1000
0010
1000
0001
,
0010
0001
1001
0000
,
0100
0001
1000
0100
,
1000
0001
1001
0000
,
0010
0100
0001
1000
,
0100
0010
0011
0000
,
0001
0100
0010
1000
,
0001
1000
1100
0000
,
0001
0000
0000
0000
0000
1000
0000
0000
0000
0000
0001
0000
0000
0000
0000
0000
,
0010
0001
1000
0000
,
0010
1000
0100
0000
,
1000
0001
0010
0000
,
0100
1000
0001
1000
,
0020
0100
0130
0001
,
2000
0100
3100
0010
,
0002
1000
1003
0010
,
0100
0000
0000
0010
0100
0000
1001
0000
,
1010
0000
0011
0000
,
1001
0000
1100
0000
,
0101
0000
0011
0000
,
1001
0000
0110
0000
,
0001
0010
0001
0000
,
1000
0100
1000
0000
,
0010
1000
0001
1000
,
0022
0000
0000
0000
0000
0033
0000
0000
,
1000
0100
0010
0100
,
1000
0100
0010
0000
,
0001
0100
0010
0100
,
0001
0100
0010
0000
,
0001
1000
0100
1000
,
0001
0100
0010
0000
,
1000
0010
0100
0010
,
1000
0001
0010
0000
,
0001
0100
0000
0100
,
0010
1000
0000
1000
,
0100
0010
0000
0010
,
0001
1000
1010
0000
,
0100
0010
0000
0010
,
1000
0001
0000
0001
,
1000
0100
0000
0010
,
0001
0010
0100
1000
,
0002
0103
0000
0100
,
0010
1000
0100
0000
,
2000
3010
0200
0301
,
0010
0001
1000
0010
,
0100
0001
0100
0001
,
1000
0010
1000
0000
,
1000
0100
1000
0100
,
0010
0001
0011
0000
,
1000
0001
1000
0001
,
0100
0010
0110
0000
,
1000
0010
0100
0001
,
1000
0001
1100
0000
,
0001
0010
0100
0010
,
0001
1000
0110
0000
,
1000
0001
0010
1000
,
0010
0001
1000
0202
,
0303
0000
0000
0000
;

//---------------dance-single - ----------------
#NOTES:
     dance-single:
     :
     Medium:
     12:
     0.565384,0.559993,0.244806,0.091802,0.091802,388.000000,364.000000,24.000000,9.000000,0.000000,0.000000,0.565384,0.559993,0.244806,0.091802,0.091802,388.000000,364.000000,24.000000,9.000000,0.000000,0.000000:
0000
0000
0000
0000
,
0000
0000
0000
0000
,
0000
0000
0000
0000
,
0000
0000
0000
0000
,
0001
0010
0100
0010
0001
0010
0100
0010
,
0001
0010
0100
0000
1000
0100
1100
0000
,
1000
0010
0100
0010
1000
0010
0100
0010
,
1000
0010
0100
0000
0001
0010
0011
0000
,
1000
0001
0010
0001
1000
0001
0010
0001
,
1000
0001
0010
0000
0100
0010
0110
0000
,
0001
0100
1000
0100
0001
0100
1000
0100
,
0001
0100
0010
0000
1000
0001
1001
0000
,
0100
0000
0000
0000
0000
0100
0000
0000
0000
0000
0100
0000
0000
0000
0000
0000
,
0001
0000
0010
0000
0100
0000
0000
0000
0010
0000
0000
0001
0000
0000
1000
0000
,
0010
0000
0100
0000
0001
0000
0000
0000
1000
0000
0000
0100
0000
0000
0010
0000
,
0001
0000
1000
0000
0010
0000
0000
0000
0100
0000
0000
0001
0000
0000
1000
0000
,
0001
0010
0100
0010
0001
0000
1100
0000
,
0010
0100
0001
0100
0010
1000
0100
0000
,
0010
0100
1000
0010
0100
0001
0010
0000
,
0001
0100
0010
1000
0100
0010
0100
0000
,
1000
0000
0000
0001
0000
0000
0010
0000
0001
0000
0000
0000
0110
0000
0000
0000
,
0020
0000
0000
1030
0000
0000
0001
0000
1001
0000
0000
0000
0000
0000
0000
0000
,
2100
0000
0000
3010
0000
0000
0100
0000
0101
0000
0000
0000
0000
0000
0000
0000
,
0012
0000
0000
0103
0000
0000
0010
0000
1010
0000
0000
0000
0000
0000
0000
0000
,
0210
0000
0000
0301
0000
0000
0010
0000
0011
0000
0000
0000
0000
0000
0000
0000
,
1000
0000
0100
0000
0010
0000
0100
0000
1000
0000
0000
0011
0000
0000
1000
0000
,
0001
0000
0100
0000
0010
0000
0100
0000
0001
0000
0000
1010
0000
0000
0100
0000
,
0001
0000
0010
0000
0100
0000
1000
0000
0010
0000
0000
1001
0000
0000
0100
0000
,
0010
0000
0000
1010
0000
0000
0100
0000
0000
0001
0000
0000
0010
0000
0100
0000
,
1000
0100
0001
0100
1000
0100
0001
0100
,
1000
0000
0100
0000
0001
0000
0100
0000
1000
0000
0000
1010
0000
0000
0100
0000
,
0001
0010
1000
0010
0001
0010
1000
0010
,
0001
0010
1000
0010
0002
0100
0103
0000
,
0010
1000
0100
1000
0010
1000
0100
1000
,
0010
0000
0100
0000
1000
0000
0100
0000
0010
0000
0000
0101
0000
0000
0010
0000
,
0100
1000
0100
0010
0100
1000
0100
0010
,
1000
0100
0010
0100
1000
0001
0010
0000
,
0001
0000
0100
0010
0000
0010
0100
0000
,
0000
0001
1000
0000
0001
0010
1000
0000
,
0110
0000
1000
0100
0000
1000
0010
0000
,
0000
0100
0100
0000
1000
0100
0001
0000
,
0110
0000
0001
1000
0000
1000
0010
0000
,
0000
0100
0001
0000
1000
0100
0010
0100
,
1000
0000
0001
0010
0000
0010
0001
0000
,
1000
0010
0100
0001
0010
0100
1000
0000
,
0002
0000
0013
0000
0001
0100
0010
0100
,
0000
0100
0010
0000
1000
0100
1000
0000
,
0010
0100
0001
0000
1000
0010
0100
0001
,
0000
0001
0010
0100
1000
0001
1000
0000
,
0010
0100
0001
0000
1000
0100
0010
0000
,
0001
0100
0010
0000
0010
1000
0100
0000
,
0010
0100
1000
0010
0100
0001
0010
0000
,
0001
0100
0010
1000
0100
0010
0001
0000
,
0010
0100
1000
0100
0010
0100
1000
0100
,
0010
0000
0100
0000
1000
0000
0000
0000
1001
0000
0000
0010
0000
0000
0100
0000
,
0001
1000
0100
1000
0001
1000
0100
1000
,
0001
1000
0100
1000
0010
0100
0020
0000
,
1030
0001
0100
0010
1000
0001
0100
0010
,
1000
0000
0100
0000
0010
0000
0001
0000
0010
0000
0000
1100
0000
0000
0001
0000
,
0100
0010
1000
0001
0010
0100
1000
0001
,
0100
1000
0010
0001
0100
0010
0220
0000
,
0330
0000
0000
0000
;

//---------------dance-single - ----------------
#NOTES:
     dance-single:
     :
     Hard:
     16:
     0.897620,0.932365,0.244806,0.112203,1.040424,616.000000,592.000000,24.000000,11.000000,0.000000,0.000000,0.897620,0.932365,0.244806,0.112203,1.040424,616.000000,592.000000,24.000000,11.000000,0.000000,0.000000:
// measure 0
0000
0000
0000
0000
,  // measure 1
0000
0000
0000
0000
,  // measure 2
0000
0000
0000
0000
,  // measure 3
0000
0000
0000
0000
,  // measure 4
0001
0100
0010
0000
1000
0000
0010
0100
0001
0000
1000
0000
0100
0010
0001
0000
,  // measure 5
1000
0000
0001
1000
0010
0000
0100
0000
0010
0000
0110
0000
1000
0001
1000
0000
,  // measure 6
0010
0100
0001
0000
1000
0000
0100
0010
0001
0000
1000
0000
0010
1000
0100
0000
,  // measure 7
0010
0000
0100
1000
0001
0000
0100
0000
0010
0000
0110
0000
0100
0001
1000
0000
,  // measure 8
0001
0010
0100
0010
0001
0000
1000
0010
0100
0010
1000
0000
0010
0100
0010
0100
,  // measure 9
0010
0000
1000
0001
1000
0000
0010
0000
0100
0000
0101
0000
1000
0010
1000
0000
,  // measure 10
0010
0100
0001
0100
0010
0000
1000
0100
0010
0100
1000
0000
0001
1000
0010
1000
,  // measure 11
0001
0000
0010
0100
0010
0000
0001
0000
0100
0000
0110
0000
1000
0100
1000
0000
,  // measure 12
0001
0100
0001
0000
0000
0000
0000
0000
0000
0000
1000
0010
1000
0000
0000
0000
0000
0000
0000
0000
0010
0100
0010
0000
0000
0000
0000
0000
0000
0000
0000
0000
,  // measure 13
1000
0000
0001
0000
0010
0001
0000
0100
0000
0001
0000
1000
0100
0000
0010
0000
,  // measure 14
0001
0000
1000
0000
0010
0100
0000
0010
0000
1000
0000
0100
0010
0000
0001
0000
,  // measure 15
0100
0000
0001
0000
1000
0010
0000
1000
0000
0001
0000
0010
0100
0000
1000
0000
,  // measure 16
0001
0000
0000
0110
0000
0000
1000
0000
0010
0000
0100
0000
0001
1000
0010
0000
,  // measure 17
1000
0000
1000
0100
1000
0000
1000
0000
0001
0000
0001
0010
0001
0000
0001
0000
,  // measure 18
0100
0000
0100
0010
0100
0000
0100
0000
0010
1000
0001
1000
0010
0000
0100
0000
,  // measure 19
0001
0000
0001
0010
0001
0000
0001
0000
1000
0000
1000
0010
1000
0000
1000
0000
,  // measure 20
0001
0000
0000
0100
0010
0000
1000
0000
1001
0000
0000
0000
0220
0000
0330
0000
,  // measure 21
1000
0000
0010
0100
0000
0000
0001
0000
0011
0000
1000
0001
0000
0000
1000
0000
,  // measure 22
0010
0000
1000
0100
0000
0000
0100
0000
0110
0000
0001
1000
0000
0000
0010
0000
,  // measure 23
1000
0000
0001
0010
0000
0000
0001
0000
1100
0000
0010
0100
0000
0000
0001
0000
,  // measure 24
0100
0000
0010
1000
0000
0000
0001
0000
1010
0000
0100
0001
0000
0000
0001
0000
,  // measure 25
0100
0000
0010
1000
0000
0000
0001
0010
0001
0000
0010
0000
1100
0000
0000
0000
,  // measure 26
0001
0000
0100
0010
0000
0000
0010
0100
0001
0000
1000
0000
1100
0000
0000
0000
,  // measure 27
0010
0000
0100
0001
0000
0000
0001
1000
0100
0000
1000
0000
0110
0000
0000
0000
,  // measure 28
0001
0010
0000
0001
0100
0000
0001
0010
0000
0100
1000
0000
0010
0100
0010
0000
,  // measure 29
1000
0100
1000
0100
1000
0100
1000
0100
1000
0100
1000
0100
1000
0100
1000
0100
,  // measure 30
1000
0000
0001
0000
0010
0001
0010
0000
0001
0000
0101
0000
0001
0000
0000
0000
,  // measure 31
0010
0001
0010
0001
0010
0001
0010
0001
0010
0001
0010
0001
0010
0001
0010
0001
,  // measure 32
0010
0000
0100
0000
1000
0001
1000
0000
0010
0000
0110
0000
0200
0000
0300
0000
,  // measure 33
0001
1000
0100
1000
0001
1000
0100
1000
0001
1000
0100
1000
0001
1000
0100
1000
,  // measure 34
0001
0000
0100
0000
0010
0100
0010
0000
1000
0000
1100
0000
1000
0000
0000
0000
,  // measure 35
0010
0100
0001
0100
0010
0100
0001
0100
0010
0100
0001
0100
0010
0100
0001
0100
,  // measure 36
0010
0000
1000
0000
0100
1000
0001
0000
0100
0000
0110
0000
0010
0000
0000
0000
,  // measure 37
1100
0000
0000
0000
0001
0000
1000
0010
2000
0000
0001
0000
3001
0010
0002
0000
,  // measure 38
0100
0000
0103
0010
0100
0000
0001
0000
1000
0010
0100
0001
1000
0000
0000
0000
,  // measure 39
0001
0010
0002
0000
1000
0000
1003
0010
2000
0000
0001
0000
3001
0010
0002
0000
,  // measure 40
0100
0000
0103
0010
0100
0000
0001
0000
0010
0001
1000
0100
1000
0000
0000
0000
,  // measure 41
0010
0100
0010
0000
0010
0000
1000
0100
1000
0000
1000
0000
0001
0010
0001
0000
,  // measure 42
0001
0000
0100
0010
0100
0000
0100
0000
0001
0100
0010
1000
0200
0000
0000
0000
,  // measure 43
1300
0001
1000
0000
0001
0000
0001
0010
0001
0000
0010
0000
0100
0010
0100
0000
,  // measure 44
0100
1000
0001
0100
0010
1000
0001
0010
0100
1000
0000
0000
,  // measure 45
0012
0000
0000
0000
1003
0000
0000
0000
0010
0100
0010
0000
1000
0000
0001
0000
,  // measure 46
0010
0000
0001
0000
0100
0000
0010
0000
1000
0100
1000
0000
0010
0000
0000
0000
,  // measure 47
0100
0001
0100
0000
0010
0000
1000
0000
0100
0010
0100
0000
1000
0000
0001
0000
,  // measure 48
0100
0000
0010
0100
0010
0000
0100
0000
0001
0000
1000
0000
1001
0000
0000
0000
,  // measure 49
0001
0010
0001
0000
0010
0000
0000
0000
0010
0100
0010
0000
0100
0000
0000
0000
,  // measure 50
0100
1000
0100
0000
1000
0000
0000
0000
1000
0010
1000
0000
0010
0000
0000
0000
,  // measure 51
0100
0000
0001
0100
0000
0010
1000
0000
0100
1000
0000
0001
,  // measure 52
0010
0000
0001
0100
0000
0010
1000
0001
0010
0200
0000
0000
,  // measure 53
1300
0001
1000
0001
1000
0001
1000
0001
1000
0001
1000
0001
1000
0001
1000
0001
,  // measure 54
0010
0100
0010
0100
0010
0100
0010
0100
0010
0000
0000
1100
0000
0000
0001
0000
,  // measure 55
0100
0010
0100
0010
0100
0010
0100
0010
0100
0010
0100
0010
0100
0010
0100
0010
,  // measure 56
1000
0001
1000
0001
1000
0001
1000
0001
1000
0000
0010
0000
0110
0000
0000
0000
,  // measure 57
0001
0010
0100
0010
0001
0010
0100
0010
0001
0010
0100
0010
0001
0010
0100
0010
,  // measure 58
0001
1000
0010
1000
0001
1000
0010
1000
0001
0000
0000
0110
0000
0000
1000
0000
,  // measure 59
0010
1000
0001
0100
0010
1000
0001
0100
0010
1000
0001
0100
0010
1000
0001
0100
,  // measure 60
0001
0010
0100
1000
0001
0010
0100
1000
0010
0000
0010
0000
1000
0001
0010
0100
;
