#TITLE:DAWN OF FALCON;
#SUBTITLE:;
#ARTIST:L.E.D.-G;
#TITLETRANSLIT:;
#SUBTITLETRANSLIT:;
#ARTISTTRANSLIT:;
#GENRE:;
#CREDIT:;
#BANNER:DAWN OF FALCON_banner.png;
#BACKGROUND:DAWN OF FALCON.png;
#LYRICSPATH:;
#CDTITLE:;
#MUSIC:DAWN OF FALCON.ogg;
#OFFSET:0.668000;
#SAMPLESTART:28.719999;
#SAMPLELENGTH:13.000000;
#LASTBEATHINT:265.000000;
#SELECTABLE:YES;
#BPMS:0.000000=155.000000
;
#STOPS:68.000000=2.710000
;
#BGCHANGES:;
#KEYSOUNDS:;
#ATTACKS:;

//---------------dance-single - ----------------
#NOTES:
     dance-single:
     :
     Easy:
     6:
     0.264870,0.326170,0.154508,0.090887,0.000000,204.000000,187.000000,17.000000,10.000000,0.000000,0.000000,0.264870,0.326170,0.154508,0.090887,0.000000,204.000000,187.000000,17.000000,10.000000,0.000000,0.000000:
0000
0000
0000
0000
,
0000
0000
0000
0000
,
0000
0000
0000
0000
,
0000
0000
0000
0000
,
0000
0000
0000
0000
,
0001
0000
0001
0000
,
1000
0000
1000
0000
,
0010
0000
0100
0000
,
0010
0000
0110
0000
,
1000
1000
1000
0000
,
0001
0001
0001
0000
,
0100
0100
0100
0000
,
0010
0010
0010
0000
,
1000
0100
1100
0000
,
0001
0010
0011
0000
,
1000
0001
1001
0000
,
0110
0000
1001
0000
,
0110
1000
0100
1000
,
0000
0001
0100
0001
,
0000
1000
0010
1000
,
0000
0001
0100
0020
,
0030
0100
0010
1000
,
0000
0001
0100
0010
,
0000
1000
0100
0010
,
0001
0000
2002
0000
0000
0000
0000
3003
,
0000
0001
0010
0100
,
0000
1000
0001
0100
,
0000
0010
1000
0001
,
0000
1000
0010
0100
,
0000
0001
0010
0100
,
0000
1000
0100
1000
,
0000
0001
0010
0100
,
0010
0002
0000
1000
,
1003
0001
0100
0010
,
0000
1000
0001
0100
,
0000
0010
1000
0100
,
0000
0010
0001
0100
,
0000
0010
0010
0110
,
0000
0100
0100
0110
,
0000
1000
0001
1000
,
0001
0200
0000
0320
,
0000
1030
1000
1000
,
1000
0001
0001
0001
,
0000
0100
0100
0100
,
0100
0010
0010
0010
,
0000
1000
0100
1000
,
0100
0010
0010
0010
,
0000
0001
0100
0001
,
0100
0010
0010
0010
,
0000
1000
0010
0100
,
0001
0010
0100
1000
,
0000
0001
0100
0010
,
1000
0100
0010
0001
,
0000
1000
0010
1000
,
1100
0001
0010
0001
,
0101
1000
0010
0100
,
0001
0000
2002
0000
0000
0000
0000
3003
,
0000
1000
0010
1000
,
0100
1000
0010
1000
,
0000
0001
0010
0001
,
0100
0001
0010
0001
,
0000
0100
0010
1000
,
0001
0010
0100
0110
,
0000
1000
0001
0100
,
0010
2002
0000
3003
,
1010
0101
0000
0000
;

//---------------dance-single - ----------------
#NOTES:
     dance-single:
     :
     Medium:
     9:
     0.407692,0.444777,0.281749,0.099975,0.081798,314.000000,283.000000,31.000000,11.000000,0.000000,0.000000,0.407692,0.444777,0.281749,0.099975,0.081798,314.000000,283.000000,31.000000,11.000000,0.000000,0.000000:
0000
0000
0000
0000
,
0000
0000
0000
0000
,
0000
0000
0000
0000
,
0000
0000
0000
0000
,
0000
0000
0000
0000
,
0001
1000
0001
1000
,
0010
0100
0010
0100
,
0001
0000
0100
0000
0010
1000
0100
0000
,
0010
0001
0100
0000
0010
1000
0100
0000
,
0012
1000
1000
1003
,
2010
0001
0001
3001
,
0012
0103
2010
3100
,
1001
0110
1001
0110
,
1000
0000
0001
0000
0100
0010
0100
0000
,
0001
0000
1000
0000
0010
0100
0010
0000
,
1000
0000
0010
0000
1000
0001
1000
0000
,
0001
0000
0000
0010
0000
0000
0100
0000
0000
1000
0000
0000
0001
0000
0000
0000
,
1001
0100
1000
0100
,
1000
0001
0100
0001
,
0100
0010
1000
0010
,
1000
0001
0010
1001
,
1001
0110
1000
0010
,
1000
0001
0010
0001
,
0010
0000
0001
0100
0001
0010
0100
1000
,
0100
0010
0200
0000
0000
0000
1300
0000
,
1001
0000
1000
0000
0010
0000
0100
0010
,
0100
0000
0001
0000
0010
0000
0100
0010
,
0100
0000
1000
0000
0100
0000
0010
0001
,
0010
0000
0001
0000
0100
0000
0010
1000
,
0010
0000
0100
0000
0001
0000
0010
0100
,
1000
0000
0010
0000
1000
0000
0100
0010
,
0001
0000
1000
0000
0010
0000
0100
0001
,
0100
0000
0010
1000
0001
0100
0010
0000
,
1001
0000
1000
0000
0010
0000
0100
0001
,
0010
0000
0001
0000
1000
0000
0010
0100
,
0001
0000
1000
0000
0010
0000
0100
0001
,
1000
0000
0001
0000
0100
0000
0010
1000
,
0001
0000
0100
0010
0100
0010
1000
0001
,
1000
0000
0010
1000
0010
1000
0001
0100
,
0001
0000
0000
0000
1000
0000
0100
0000
0010
0000
0001
0000
1000
0000
0000
0001
,
0000
0000
1000
0000
0010
0000
0000
0100
0000
0000
0010
0000
0100
0000
0000
0001
,
0000
1000
0001
0000
0001
0000
0100
0000
,
0100
0010
0010
1000
,
1000
0010
0010
0001
,
0001
0100
0100
1000
,
1000
0020
0100
0100
,
0100
1000
1000
1000
,
1030
0201
0010
0010
,
0010
0001
0001
0001
,
0301
0000
0000
1000
0000
0000
0010
0000
0000
1000
0000
0010
,
1000
0000
0000
0001
0000
0000
0100
0000
0000
0001
0000
0100
,
0001
0000
0000
1000
0000
0000
0001
0000
0000
1000
0000
0001
,
1000
0000
0000
0010
0000
0000
0100
0000
0000
0010
0000
0100
,
0010
1000
1100
0101
,
1100
0001
0011
1010
,
0011
0000
0000
1000
0000
0000
0001
0000
0000
0100
0000
0010
,
0100
2002
0000
0000
,
3003
0000
0000
0001
0000
0000
0011
0000
0000
1000
0000
0010
,
1000
0000
0000
0010
0000
0000
1010
0000
0000
0100
0000
0001
,
0100
0000
0000
0001
0000
0000
1001
0000
0000
1000
0000
0010
,
0100
0000
0000
0000
0001
0000
0000
0000
0011
0000
0000
0000
0010
0000
0000
0100
,
0000
0000
0000
1000
0000
0000
0001
0000
0000
0000
0000
0000
0101
0000
0000
0000
0000
0000
0100
0000
0000
0000
0010
0000
,
1000
0000
0000
0100
0000
0000
1100
0000
0000
0010
0000
0001
,
1000
0000
0000
0001
0000
0000
1000
0000
0010
0000
0000
0100
,
0010
2002
0000
3003
,
0110
1001
0000
0000
;

//---------------dance-single - ----------------
#NOTES:
     dance-single:
     :
     Hard:
     13:
     0.605046,0.681992,0.518055,0.163596,0.349914,466.000000,409.000000,57.000000,18.000000,0.000000,0.000000,0.605046,0.681992,0.518055,0.163596,0.349914,466.000000,409.000000,57.000000,18.000000,0.000000,0.000000:
// measure 0
0000
0000
0000
0000
,  // measure 1
0000
0000
0000
0000
,  // measure 2
0000
0000
0000
0000
,  // measure 3
0000
0000
0000
0000
,  // measure 4
0000
0000
0000
0000
,  // measure 5
0010
0100
1000
0001
0100
0010
1000
0001
,  // measure 6
0010
0001
1000
0100
1000
0001
0100
0010
,  // measure 7
1000
0100
0010
0001
0100
0010
1000
0001
,  // measure 8
0010
0100
1000
0001
0010
0100
0110
0000
,  // measure 9
1100
0000
0000
0000
1010
0000
0000
0000
1000
0000
0010
0000
1000
0001
1000
0000
,  // measure 10
0001
0000
0011
0000
0001
0100
0001
1000
,  // measure 11
0010
0000
0000
0000
1010
0000
0000
0000
0100
0000
0001
0000
0010
0001
1000
0000
,  // measure 12
0010
0100
0001
1000
0001
0010
0100
0000
,  // measure 13
1000
0010
1000
0100
1000
0010
1000
1000
,  // measure 14
0001
0010
0001
0100
0001
0010
0001
0001
,  // measure 15
1000
0010
0100
0001
0010
0100
1000
0100
,  // measure 16
0010
0000
0000
0011
0000
0000
1001
0000
0000
1100
0000
0000
2002
0000
3003
0000
,  // measure 17
0110
0000
0000
0000
1001
0000
0000
0100
0000
0000
0010
0000
0110
0000
0000
1000
,  // measure 18
0000
0000
0010
0000
1010
0000
0000
1000
0000
0000
0001
0000
0101
0000
0000
0100
,  // measure 19
0000
0000
0001
0000
0011
0000
0000
0010
0000
0000
0100
0000
1100
0000
0000
1000
,  // measure 20
0000
0000
0001
0000
1001
0000
0000
0100
0000
0000
0010
0000
0220
0000
0330
0000
,  // measure 21
2002
0000
3003
0000
0100
0000
0010
0100
0000
0010
0100
0000
0001
0000
1000
0001
,  // measure 22
0000
1000
0001
0000
0100
0000
0001
0100
0000
0010
0100
0000
0010
0000
1000
0010
,  // measure 23
0000
1000
0100
0000
1000
0000
0100
0000
0010
0000
0001
0000
1000
0000
0100
0000
,  // measure 24
0010
0000
0001
0000
2002
0000
0000
0000
3003
0000
0000
0000
0100
0010
0000
0100
,  // measure 25
0000
0001
0010
0100
0010
0000
0001
0000
1000
0010
1000
0000
0001
0000
0100
0000
,  // measure 26
0001
0010
0001
0100
1000
0100
0001
0010
,  // measure 27
1000
0000
0010
0000
0001
0000
1000
0000
0010
0100
0010
0000
1000
0000
0001
0000
,  // measure 28
0010
0100
1000
0001
1000
0001
0100
0010
,  // measure 29
0100
0000
0010
0000
1000
0000
0100
0000
1000
0001
0100
0000
0010
0000
1000
0000
,  // measure 30
0001
0000
0100
0000
0001
0000
0010
0000
0001
1000
0100
0000
1000
0000
0001
0000
,  // measure 31
0100
0010
1000
0001
1000
0010
0100
0010
,  // measure 32
1000
0001
0010
0100
1000
0100
0110
0000
,  // measure 33
1001
0000
0000
0000
0100
0000
0001
0000
1000
0001
0010
0000
0001
0000
0010
0000
,  // measure 34
0001
0100
0010
1000
0010
1000
0001
0100
,  // measure 35
0001
0000
0100
0000
0010
0000
1000
0000
0001
0100
0001
0000
1000
0000
0100
0000
,  // measure 36
0010
0001
1000
0001
0010
0100
1000
0001
,  // measure 37
1001
0000
0100
0010
0100
1000
0100
0010
,  // measure 38
0100
0001
0010
0001
0010
0100
0010
1000
,  // measure 39
0010
0000
0100
0000
0010
0000
0001
0000
0100
0000
1000
0000
1100
0000
0000
0110
,  // measure 40
0000
0000
0011
0000
1001
0000
0000
1001
0000
0000
1001
0000
0110
0000
0000
0110
,  // measure 41
0000
0000
0010
0100
0020
0000
0000
0000
1000
0000
0000
0000
0100
0000
0000
0000
,  // measure 42
1030
0000
0000
0100
0000
0000
0001
0000
0000
0010
0000
0001
,  // measure 43
1000
0000
0001
0200
0000
0000
0010
0000
0000
1000
0000
0000
,  // measure 44
0310
0000
0001
0100
0000
0000
1010
0000
0000
1000
0001
1000
,  // measure 45
0001
2100
0001
0010
,  // measure 46
3001
0000
0000
0012
0000
0000
1003
0000
0000
0100
0000
0001
,  // measure 47
1000
0000
0010
0200
0000
0000
0001
0000
0000
0010
0000
0000
,  // measure 48
1300
0000
0000
0120
0000
0000
1030
0000
0000
1000
0001
0100
,  // measure 49
0010
0000
0000
1100
0000
0000
1100
0000
0000
0001
0000
0010
,  // measure 50
0001
0000
0000
0101
0000
0000
0101
0000
0000
1000
0000
0010
,  // measure 51
1000
0000
0000
0011
0000
0000
0011
0000
0000
1000
0000
0100
,  // measure 52
1000
0000
0000
1010
0000
0000
1010
0000
0000
0001
0000
0100
,  // measure 53
0001
1010
0101
0011
,  // measure 54
1100
0000
0000
0101
0000
0000
1100
0000
0000
1010
0000
1000
,  // measure 55
0001
0000
1000
0010
0000
0100
0010
0000
0100
0010
0000
1001
,  // measure 56
0000
0010
0000
2002
0000
0000
0000
0000
0000
0000
0000
0000
,  // measure 57
3003
0000
0000
0100
0000
0010
1000
0000
0001
0010
0000
0100
,  // measure 58
1000
0000
0001
1000
0000
0010
0100
0000
0001
0010
0000
0001
,  // measure 59
0100
0000
0010
1000
0000
0100
1000
0000
0010
0100
0000
0001
,  // measure 60
0010
0000
0000
0000
0000
0000
0000
0000
0001
0000
0000
0000
1000
0000
0000
0000
0000
0000
0000
0000
0010
0000
0000
0000
0100
0000
0000
0000
0000
0000
0000
0000
0010
0000
0000
0000
1000
0000
0000
0000
0000
0000
0000
0000
0000
1001
0000
0000
,  // measure 61
0000
0000
0000
0001
0000
0000
0100
0000
0000
0000
0010
0000
0100
0000
0000
0000
0001
0000
1000
0000
0000
0000
0001
0000
,  // measure 62
0010
0000
0100
1000
0000
0100
0001
0000
0100
1000
0000
0010
,  // measure 63
0001
0000
0010
1000
0000
0000
0001
0000
1001
0000
0000
0100
,  // measure 64
0010
2020
0000
3030
,  // measure 65
0101
0011
0000
0000
;

//---------------dance-single - ----------------
#NOTES:
     dance-single:
     :
     Challenge:
     15:
     0.724497,0.752656,0.445345,0.181774,0.772538,558.000000,509.000000,49.000000,20.000000,0.000000,0.000000,0.724497,0.752656,0.445345,0.181774,0.772538,558.000000,509.000000,49.000000,20.000000,0.000000,0.000000:
0000
0000
0000
0000
,
0000
0000
0000
0000
,
0000
0000
0000
0000
,
0000
0000
0000
0000
,
0000
0000
0000
0000
,
1000
0000
0001
0000
0010
0001
0010
0000
0100
0000
1000
0000
0010
0000
0100
0000
,
0001
0000
0010
0000
1000
0000
0010
0000
0100
0000
0001
0000
0100
1000
0100
0000
,
1000
0000
0001
0000
0100
0010
0100
0000
0001
0000
0010
0000
0100
0000
1000
0000
,
0010
0000
0100
0000
0001
0010
0001
0100
0010
0000
1000
0000
0100
0000
0000
0000
,
1100
0000
0000
0000
1100
0000
0000
0000
0010
0000
0001
0000
0010
0100
0010
0000
,
0011
0000
0011
1000
0000
1000
0100
1000
,
0010
0000
0000
0000
0110
0000
0000
0000
1000
0000
0001
0000
1000
0100
0010
0000
,
0001
0000
0000
0000
1100
0000
0110
0000
0000
0000
0001
0000
1000
0000
0010
0100
,
0010
0000
1000
0000
0010
0000
1000
0000
0001
0000
0100
0000
0001
1000
0100
0000
,
1000
0000
0010
0000
1000
0000
0010
0000
0100
0000
0001
0000
0100
0010
1000
0000
,
0001
0000
0010
0000
0100
0000
1000
0000
0001
0000
1000
0000
0010
0100
0010
0000
,
1010
0000
0000
0101
0000
0000
0011
0000
0000
1100
0000
0000
2002
0000
3003
0000
,
0220
0000
0330
0000
0000
0000
0000
0000
0000
0000
0000
0000
1001
0000
0000
0000
0000
0000
0100
0000
0000
0010
0000
0000
0000
0000
0000
0000
0000
0000
0100
0000
0000
0000
0000
0000
0101
0000
0000
0000
0000
0000
0001
0000
0000
0010
0000
0000
,
0000
0000
0010
0000
0011
0000
1000
0100
0000
0000
1000
0000
1010
0000
0100
0010
,
0000
0000
0010
0000
0110
0000
0100
0001
0000
0000
1000
0000
0011
0000
0001
0100
,
0000
0000
0010
0000
1010
0000
1000
0001
0000
0000
0010
0000
0022
0000
0033
0000
,
2200
0000
3300
0000
0010
0000
0100
1000
0000
0100
1000
0000
0001
0000
0010
0001
,
0000
0010
0001
0000
1000
0000
0010
0100
0000
0001
0010
0000
0001
0000
0010
0100
,
0000
0010
1000
0000
0010
0000
0001
0000
0010
0000
0001
0000
1000
0100
0010
0001
,
0100
0010
0001
0010
0200
0000
0000
0000
0000
0000
0000
0000
0301
1000
0000
0001
,
0000
0100
0010
0100
0001
0000
1000
0000
0100
1000
0100
1000
0001
0000
0010
0000
,
0100
1000
0010
0100
0001
0010
0001
1000
,
0010
0100
0010
0100
0001
0000
1000
0000
0100
0010
0100
0010
0100
0000
1000
0000
,
0001
0100
0010
1000
0100
1000
0010
1000
,
0010
0100
0010
0000
1000
0000
0001
0000
0010
0001
1000
0001
0010
0000
0100
0000
,
1000
0000
0010
0000
0100
0000
0001
0000
1000
0010
0100
0010
1000
0000
0001
0000
,
1000
0000
0100
0010
0100
0000
1000
0000
0001
0000
0010
0000
0100
0000
1000
0000
,
0001
0001
0011
0001
0100
0100
2200
3300
,
0202
0000
0303
0000
1000
0000
0010
0000
1000
0001
1000
0001
0100
0000
0010
0000
,
1000
0000
0001
0010
0100
0000
0010
0000
0001
0000
1000
0000
0100
0000
1000
0000
,
0001
0010
0100
0010
0001
0000
1000
0000
0010
0100
1000
0100
0010
0000
1000
0000
,
0001
0010
0001
0100
1000
0100
0010
0100
,
0110
0000
0001
0010
0001
0010
0100
1000
,
0100
1000
0010
0100
0010
0100
0001
1000
,
0001
0000
1000
0001
1000
0000
0010
0000
0100
0000
0010
0000
1010
0000
0000
0101
,
0000
0000
1000
0010
0100
0000
0000
0011
0000
0000
1100
0000
1001
0000
0000
0110
,
0000
0000
0000
0000
0000
0000
0010
0000
0000
1000
0000
0000
0100
0000
0000
0000
0000
0000
0000
0000
0000
0000
0000
0000
1100
0000
0000
0000
0000
0000
0000
0000
0000
0000
0000
0000
0001
0000
0000
0000
0000
0000
0000
0000
0010
0000
0000
0000
,
0001
0000
0010
0100
0000
0000
1000
0000
0000
0010
0000
0100
,
0001
0010
0100
1000
0000
0000
1001
0000
0000
0010
0000
0100
,
0001
0000
1000
0100
0000
0000
1010
0000
0000
0100
0001
0100
,
1000
0100
0010
0100
0000
0000
0011
0000
0000
1000
0000
0010
,
1000
0000
0001
0010
0000
0000
1100
0000
0000
0110
0000
0010
,
0100
1000
0100
0010
0000
0000
0101
0000
0000
1010
0000
1000
,
0100
0000
1000
0001
0010
0100
0010
0100
1000
0001
0010
0100
,
1000
0000
1000
0010
0000
0100
0010
0000
0100
0001
1000
0100
,
1000
0010
0100
0010
0000
1000
0010
0000
1000
0100
1000
0001
,
0010
0001
1000
0010
0000
0100
0001
0000
1000
0100
0000
1000
,
0010
0100
0001
0010
0000
0100
1000
0000
0100
0010
0001
0010
,
0100
1000
0100
1000
0000
0010
1000
0000
0001
0100
0000
0001
,
0010
0000
0100
1000
0000
0100
0010
0000
0100
1000
0000
0001
,
0100
0010
1000
0010
0000
0100
0010
0100
0001
0011
0000
1100
,
0000
0110
0000
2002
0000
0000
0000
0000
0000
3003
0000
0000
,
0010
0100
0010
1000
0100
1000
0001
0010
0001
1000
0100
0010
,
0100
1000
0001
0100
0010
1000
0010
0100
0001
0010
0001
0100
,
2000
0000
0000
3100
0001
0100
0010
1000
0010
1000
0100
1000
,
0001
0010
0001
1000
0010
0100
0010
1000
0001
0100
0000
0110
,
0000
1000
0001
0010
0000
0001
0010
0000
0100
1000
0010
1000
,
0001
0100
0010
1000
0000
0100
1000
0000
0001
0010
0001
0010
,
1000
0010
0100
0010
0000
0000
0011
0000
1100
0000
0000
1000
,
0001
0000
0000
0220
0000
0000
0330
0000
0000
1000
0001
1000
,
0001
0220
0000
0000
,
0000
0330
0000
0000
;
