#TITLE:Crazy Jackpot;
#SUBTITLE:;
#ARTIST:Hommarju;
#TITLETRANSLIT:;
#SUBTITLETRANSLIT:;
#ARTISTTRANSLIT:;
#GENRE:UK HARDCORE;
#CREDIT:;
#BANNER:Crazy Jackpot_banner.png;
#BACKGROUND:Crazy Jackpot.png;
#LYRICSPATH:;
#CDTITLE:;
#MUSIC:Crazy Jackpot.ogg;
#OFFSET:-0.990000;
#SAMPLESTART:91.349998;
#SAMPLELENGTH:11.300000;
#LASTBEATHINT:321.028351;
#SELECTABLE:YES;
#BPMS:0.000000=170.000000
;
#STOPS:
;
#BGCHANGES:;
#KEYSOUNDS:;
#ATTACKS:;

//---------------dance-single - ----------------
#NOTES:
     dance-single:
     :
     Easy:
     7:
     0.306365,0.339061,0.050859,0.084765,0.000000,253.000000,247.000000,6.000000,10.000000,0.000000,0.000000,0.306365,0.339061,0.050859,0.084765,0.000000,253.000000,247.000000,6.000000,10.000000,0.000000,0.000000:
0000
0000
0000
0000
,
0000
0000
0000
0000
,
0000
0000
0000
0000
,
0000
0000
0000
0000
,
1000
0001
1000
0001
,
0100
0010
0100
0010
,
1000
0001
0010
0100
,
2002
0000
0000
3003
,
0100
0000
0010
0010
,
1000
0000
0001
0001
,
0010
0000
0001
1000
,
0100
0000
1000
1000
,
0010
0000
0100
0010
,
1000
0000
0001
0100
,
0001
0000
0010
1000
,
0001
0000
0100
0010
,
1000
1000
1000
0000
,
0001
0001
0001
0000
,
0100
0100
0100
0000
,
0010
0010
0010
0000
,
1000
0001
1000
0001
,
0100
0010
0100
0010
,
1000
0100
0010
0001
,
0100
0100
0200
0300
,
0001
1000
0010
1000
,
0001
0000
0100
0000
,
0010
1000
0100
1000
,
0010
0000
0100
0000
,
0001
0010
0100
0010
,
0001
0000
1000
0000
,
0010
1000
0001
0100
,
0020
0000
0030
0000
,
0100
0001
0100
0010
,
0100
0001
1000
0000
,
0100
1000
0100
0010
,
0100
1000
0001
0000
,
0010
0001
1000
0001
,
0100
0010
1000
0000
,
0100
1000
0001
0100
,
0010
0010
0010
0010
,
1000
1000
1000
0000
,
0001
0001
0001
0000
,
0100
0100
0100
0000
,
0010
0010
0010
0000
,
0100
0001
0100
0000
,
0010
1000
0010
0000
,
1000
0001
1000
0000
,
0010
1000
0010
0000
,
0100
0001
0100
0000
,
0001
0010
0001
0000
,
1000
0100
1000
0000
,
0001
0010
0001
0000
,
1000
0010
0100
0000
,
0001
0010
0100
0000
,
1000
0001
0100
0010
,
0220
0000
0000
0000
0000
0330
0000
0000
,
1000
1000
0001
0001
,
0100
0100
0110
0000
,
0010
0010
1000
1000
,
0100
0100
0110
0000
,
0001
1000
0001
1000
,
0010
0100
0010
0100
,
0001
1000
0100
0010
,
2002
0000
0000
0000
0000
3003
0000
0000
,
1000
0010
1000
0100
,
1000
0001
1000
0000
,
0001
0010
0001
0100
,
0001
1000
0001
0000
,
0100
0001
0100
0010
,
0100
0001
0100
0000
,
0010
1000
0010
0100
,
0010
1000
0010
0000
,
1000
0001
0010
0001
,
0100
0010
1000
0000
,
0001
1000
0100
1000
,
0010
0100
0001
0000
,
2000
0010
0000
3010
,
0002
0010
0000
0013
,
1000
0010
0100
0010
,
1000
0001
0010
0100
,
0110
0000
0000
0000
;

//---------------dance-single - ----------------
#NOTES:
     dance-single:
     :
     Medium:
     12:
     0.537653,0.542497,0.220389,0.101718,0.046621,444.000000,418.000000,26.000000,12.000000,0.000000,0.000000,0.537653,0.542497,0.220389,0.101718,0.046621,444.000000,418.000000,26.000000,12.000000,0.000000,0.000000:
0000
0000
0000
0000
,
0000
0000
0000
0000
,
0000
0000
0000
0000
,
0000
0000
0000
0000
,
0001
1000
0100
1000
0010
0000
0100
0000
,
0010
0100
0001
0100
0010
0000
1000
0000
,
0100
1000
0001
0100
0010
0000
1000
0000
,
0010
0100
0001
1000
0010
0000
1001
0000
,
1000
0010
1000
0010
1000
0010
1000
0010
,
0000
0010
0100
0001
0100
0000
0001
0000
,
0010
0001
0010
0001
0010
0001
0010
0001
,
0000
1000
0100
1000
0001
0000
0010
0000
,
0001
1000
0100
1000
0001
1000
0100
1000
,
0000
0010
0100
0010
1000
0010
0100
0000
,
0001
1000
0010
1000
0001
0100
0010
1000
,
0000
0100
1000
0010
1000
0001
0100
0000
,
0001
0000
1000
0010
1000
0001
1000
0000
,
0001
0000
0010
0001
1000
0001
0010
0000
,
0100
0000
1000
0001
1000
0010
1000
0000
,
0010
0000
0100
0001
1000
0010
0100
0000
,
0001
0011
0001
0011
,
1000
1100
1000
1100
,
0010
0100
0010
0100
,
0101
1100
0202
0303
,
0010
0000
1000
0100
1000
0010
0100
0010
,
0000
0100
0001
0100
0010
0000
1000
0000
,
0100
0000
1000
0001
0010
0001
1000
0010
,
0000
0100
0010
0100
0001
0000
1000
0000
,
0100
0000
1000
0001
1000
0100
0010
0001
,
0000
1000
0010
0100
0001
0000
1000
0000
,
0010
0000
0100
0001
1000
0010
1000
0001
,
0000
0010
0001
1000
0100
0000
1000
0000
,
0010
0100
0010
0100
0010
0000
1000
0000
,
0001
0010
0001
0010
0001
0000
0100
0000
,
0010
1000
0010
1000
0010
0000
0100
0000
,
0001
1000
0001
1000
0001
0000
1000
0000
,
0010
0000
1000
0000
0001
1000
0001
0000
,
0100
0000
0001
0000
1000
0010
1000
0000
,
0001
0000
0000
0000
0100
0000
0000
0000
0010
0000
0000
0100
0000
0000
0010
0000
,
1000
1010
0001
0011
,
0100
0100
0100
0100
,
0010
0010
0010
0010
,
1000
1000
1000
1000
,
0001
0001
0001
0001
,
0010
0010
0010
0010
,
0100
0100
0100
0100
,
1000
0000
1000
0000
1000
0001
1000
0000
,
0001
0000
0001
0000
0001
1000
0001
0000
,
0100
0010
1010
0100
,
0001
0010
0011
0100
,
1000
0010
1010
0100
,
0001
0010
0011
0100
,
1000
1100
1000
1100
,
0001
0101
0001
0101
,
0100
0110
0010
0110
,
2002
0000
0000
0000
0000
3003
0000
0000
,
0001
0010
0100
1000
0002
0000
1003
0000
,
1000
0010
0100
0001
2000
0000
3001
0000
,
0100
0010
1000
0010
0200
0000
0301
0000
,
0010
0001
1000
0001
0020
0000
0130
0000
,
1000
0010
1000
0010
1000
0001
0100
0000
,
0001
0010
0001
0010
0001
1000
0100
0000
,
1000
0100
0001
0100
1000
0100
0001
0000
,
0220
0000
0000
0330
,
0010
0001
0100
0010
0100
0001
0010
0000
,
0001
1000
0100
1000
0010
0100
0010
0000
,
1000
0100
0010
0100
1000
0001
0100
0000
,
0001
0010
0100
0010
0001
1000
0001
0000
,
1000
0010
1000
0001
0100
0010
1000
0000
,
0001
0100
0010
0100
0001
1000
0010
0000
,
1000
0010
0100
0010
1000
0001
1000
0000
,
0010
1000
0100
1000
0001
0000
1001
0000
,
0100
0000
0010
0000
0000
0100
0000
0000
0010
0000
0000
0100
0000
0000
0010
0000
,
0000
1000
0000
0000
0001
0000
0000
1000
0000
0000
0001
0000
0200
0000
0000
0000
,
0300
0000
0001
0000
0000
1000
0000
0000
0010
0000
0000
1000
0000
0000
0001
0000
,
1000
0100
0010
0100
2000
0000
3001
0000
,
0000
0000
0010
0000
0000
0100
0000
0000
0010
0000
0000
1000
0000
0000
0001
0000
,
0000
1000
0000
0000
0100
0000
0000
0010
0000
0000
0001
0000
1000
0000
0010
0000
,
0100
0010
1000
0001
0010
0000
1001
0000
,
0100
0010
1000
0001
0010
0000
0110
0000
,
1001
0000
0000
0000
;

//---------------dance-single - ----------------
#NOTES:
     dance-single:
     :
     Hard:
     16:
     0.830699,0.847652,0.525544,0.093242,0.559450,686.000000,624.000000,62.000000,11.000000,0.000000,0.000000,0.830699,0.847652,0.525544,0.093242,0.559450,686.000000,624.000000,62.000000,11.000000,0.000000,0.000000:
// measure 0
0000
0000
0000
0000
,  // measure 1
0000
0000
0000
0000
,  // measure 2
0000
0000
0000
0000
,  // measure 3
0000
0000
0000
0000
,  // measure 4
0010
1000
0010
1000
0001
0100
0001
0100
,  // measure 5
0010
0100
0001
1000
0010
1000
0100
0001
,  // measure 6
0100
0000
1000
0000
0001
0010
0001
0000
1000
0000
0010
0000
0110
0000
0000
0000
,  // measure 7
0100
0000
0001
0000
1000
0010
1000
0000
0001
0000
0100
0000
0110
0000
0000
0000
,  // measure 8
0100
0000
0001
0010
0001
0010
0001
0010
0001
0000
0010
0000
0001
0000
1000
0000
,  // measure 9
0000
0000
0010
0100
0010
0000
1000
0000
0010
0100
0010
0100
0001
0000
1000
0000
,  // measure 10
0010
0000
1000
0100
1000
0100
1000
0100
1000
0000
0001
0000
0010
0000
0100
0000
,  // measure 11
0000
0000
1000
0001
1000
0000
0010
0000
0100
0001
0100
0001
0100
0000
0010
0000
,  // measure 12
1000
0000
0001
0100
0001
0100
0001
0100
0001
0000
1000
0000
0010
0000
0100
0000
,  // measure 13
0000
0000
0010
0100
0001
0000
1000
0000
0010
1000
0010
1000
0010
0000
0100
0000
,  // measure 14
0010
0000
1000
0001
1000
0001
1000
0001
1000
0000
0010
0000
0100
0000
0001
0000
,  // measure 15
0000
0000
1000
0010
0100
0000
0001
0000
0100
0001
0100
0001
0100
0000
0010
0000
,  // measure 16
1000
0000
0001
0010
0001
0010
0001
0010
0001
0000
1000
0000
0010
0000
0100
0000
,  // measure 17
0010
0000
1000
0100
1000
0100
1000
0100
1000
0000
0001
0000
0010
0000
0100
0000
,  // measure 18
0010
0000
0001
1000
0001
1000
0001
1000
0001
0000
0100
0000
0010
0000
1000
0000
,  // measure 19
0010
0000
0100
0001
0100
0001
0100
0001
0100
0000
0010
0000
1000
0000
0100
0000
,  // measure 20
1100
0101
0011
1010
,  // measure 21
0011
0101
1010
1100
,  // measure 22
1000
0001
1000
0010
0100
0001
0010
0100
,  // measure 23
1100
0101
0110
0101
,  // measure 24
0001
0000
0010
0100
0010
0100
0010
0100
0010
0000
0001
0000
1000
0000
0100
0000
,  // measure 25
0000
0000
1000
0010
1000
0000
0001
0000
0100
0010
0100
0000
0001
0000
1000
0000
,  // measure 26
0010
0000
1000
0100
1000
0100
1000
0100
1000
0000
0001
0000
0100
0000
0010
0000
,  // measure 27
0000
0000
0100
0010
0100
0000
0001
0000
0010
0001
1000
0000
0010
0000
0100
0000
,  // measure 28
0010
0000
1000
0001
1000
0001
1000
0001
1000
0000
0010
0000
0100
0000
0001
0000
,  // measure 29
0000
0000
0010
0100
0010
0000
0001
0000
1000
0100
1000
0000
0010
0000
0100
0000
,  // measure 30
0001
0000
1000
0010
1000
0010
1000
0010
1000
0000
0001
0000
1000
0000
0010
0000
,  // measure 31
0000
0000
0100
0001
1000
0000
0010
0000
0100
0010
0100
0000
0001
1000
0001
0000
,  // measure 32
0010
0000
0001
0000
1000
0000
0010
0100
0000
0100
0010
0000
1000
0000
0100
0000
,  // measure 33
0010
0000
0001
0000
1000
0000
0100
0010
0000
0010
0100
0000
0020
0000
0000
0000
,  // measure 34
0031
0000
1000
0000
0010
0000
0100
0001
0000
0001
0100
0000
0010
0000
1000
0000
,  // measure 35
0100
0000
1000
0000
0001
0000
0100
0010
0000
0010
0100
0000
0001
0000
0000
0000
,  // measure 36
1001
0000
1000
0000
0010
0000
0100
0000
0010
0000
0000
1010
0000
0000
0101
0000
,  // measure 37
0000
0000
1000
0000
0001
0000
0010
0000
0011
0000
0000
1100
0000
0000
0110
0000
,  // measure 38
0010
0000
0001
0000
1000
0000
0010
0000
0110
0000
0000
1001
0000
0000
0100
0000
,  // measure 39
0010
0000
1000
0010
1000
0000
0001
0100
0001
0000
1000
0100
1000
0000
0001
0010
,  // measure 40
0002
0010
1000
0013
,  // measure 41
2000
0100
0001
3100
,  // measure 42
0020
0001
0100
0031
,  // measure 43
0200
0010
1000
0310
,  // measure 44
0001
0010
0001
0100
0010
1000
0100
1000
,  // measure 45
0010
0100
1000
0100
0010
0100
0001
0010
,  // measure 46
0100
1000
0100
1000
0001
0010
0001
0010
,  // measure 47
0100
0000
0010
0000
0100
1000
0100
0000
1000
0000
0001
0000
0010
0000
0001
0000
,  // measure 48
0101
1010
1100
0101
,  // measure 49
0011
1010
0101
1100
,  // measure 50
1001
0110
1001
0110
,  // measure 51
1010
0101
0011
0101
,  // measure 52
1000
0010
1000
0010
0100
0001
0100
0001
,  // measure 53
0010
0001
0010
0001
1000
0100
1000
0100
,  // measure 54
1000
0010
0100
0001
0010
0001
0100
0010
,  // measure 55
2002
0000
0000
3003
,  // measure 56
0001
0000
0100
0000
1000
0100
1000
0000
0100
0000
0001
0000
0020
0000
0000
0000
,  // measure 57
0031
0000
0010
0000
1000
0010
1000
0000
0010
0000
0001
0000
0200
0000
0000
0000
,  // measure 58
0310
0000
1000
0000
0100
0010
0100
0000
1000
0000
0010
0000
0200
0000
0000
0000
,  // measure 59
0301
0000
0010
0000
0100
1000
0100
0000
0010
0000
0001
0000
0200
0000
0000
0000
,  // measure 60
0301
0000
0010
0000
1000
0010
1000
0000
0010
0000
0001
0000
0101
0000
0000
0000
,  // measure 61
1000
0000
0010
0000
0100
0001
0100
0000
0001
0000
0010
0000
0110
0000
0000
0000
,  // measure 62
0010
0000
0001
0000
1000
0100
1000
0000
0010
0000
0100
0000
0110
0000
0000
0000
,  // measure 63
0001
0010
1000
0001
0100
1000
1001
0000
,  // measure 64
1000
0000
0010
1000
0000
0001
0100
0000
0001
1000
0001
1000
0001
0000
0000
0000
,  // measure 65
0100
0000
0010
1000
0000
0001
0100
0000
0001
0010
0001
0010
0001
0000
0000
0000
,  // measure 66
1000
0000
0010
0100
0000
0001
0100
0000
0010
1000
0010
1000
0010
0000
0000
0000
,  // measure 67
0100
0000
0001
0010
0000
0100
1000
0000
0001
1000
0001
0000
0100
0010
0100
0000
,  // measure 68
0001
0000
0010
0001
0000
1000
0100
0000
1000
0010
1000
0010
1000
0000
0000
0000
,  // measure 69
0100
0000
0001
0010
0000
0100
1000
0000
0010
0100
0010
0100
0010
0000
0000
0000
,  // measure 70
0100
0000
0010
1000
0000
0001
0100
0000
0010
1000
0010
1000
0010
0000
0000
0000
,  // measure 71
0100
0000
0001
0100
0000
0010
1000
0000
0001
1000
0001
0000
0100
0010
0100
0000
,  // measure 72
0000
0000
0110
0000
0000
1001
0000
0000
1010
0000
0000
0101
0000
0000
0011
0000
,  // measure 73
0000
1100
0000
0000
1010
0000
0000
1100
0000
0000
0001
0000
1001
0000
1001
0000
,  // measure 74
0000
0000
1010
0000
0000
0101
0000
0000
0011
0000
0000
1001
0000
0000
1010
0000
,  // measure 75
1000
0000
0001
0000
0010
0000
0001
0000
1000
0000
0010
0100
0010
0000
0000
0000
,  // measure 76
0100
0000
0001
0010
0000
0001
0100
0000
0010
1000
0000
0010
0100
0000
0001
1000
,  // measure 77
0000
0010
1000
0000
0100
0010
0000
0100
1000
0000
0001
0100
0010
0000
0110
0000
,  // measure 78
0100
0000
0001
0000
1000
0010
1000
0000
0001
0000
0100
0000
1001
0000
0000
0000
,  // measure 79
0010
0000
1000
0000
0001
0010
0001
0000
0100
0000
0010
0000
0110
0000
0000
0000
,  // measure 80
1001
0000
0000
0000
;
