#TITLE:Crafty Savior;
#SUBTITLE:;
#ARTIST:HuΣeR;
#TITLETRANSLIT:;
#SUBTITLETRANSLIT:;
#ARTISTTRANSLIT:HuMeR;
#GENRE:;
#CREDIT:;
#BANNER:Crafty_Savior_banner.png;
#BACKGROUND:Crafty_Savior.png;
#LYRICSPATH:;
#CDTITLE:;
#MUSIC:Crafty Savior.ogg;
#OFFSET:-0.590000;
#SAMPLESTART:81.040001;
#SAMPLELENGTH:11.400000;
#SELECTABLE:YES;
#BPMS:0.000000=170.000000
;
#STOPS:
;
#BGCHANGES:;
#KEYSOUNDS:;
#ATTACKS:;

//---------------dance-single - ----------------
#NOTES:
     dance-single:
     :
     Easy:
     6:
     0.238520,0.299237,0.053286,0.213146,0.000000,188.000000,182.000000,6.000000,24.000000,0.000000,0.000000,0.238520,0.299237,0.053286,0.213146,0.000000,188.000000,182.000000,6.000000,24.000000,0.000000,0.000000:
0000
0000
0000
0000
,
0000
0000
0000
0000
,
0000
0000
0000
0000
,
0000
0000
0000
0000
,
0001
0000
0000
0010
0000
0000
0001
0000
,
1000
0000
0000
0100
0000
0000
0000
0000
,
1000
0010
0100
0001
,
0010
0100
1001
0000
,
0020
0000
0000
0000
,
0130
0000
0100
0001
,
2000
0000
3010
0100
,
0001
0000
1100
0000
,
0010
0000
0000
0001
0000
0000
0010
0000
,
0001
1000
0100
0000
,
1000
0000
0010
0100
,
0002
0000
0013
0010
,
0001
0100
0010
0000
,
1000
0100
0010
0000
,
0001
1000
0100
0000
,
0010
0100
1000
0000
,
0010
0100
0001
0000
,
1000
0010
0100
0000
,
0020
0000
0130
0001
,
2000
0000
3001
0010
,
0200
0000
0000
0000
,
1300
0000
0010
0000
,
0200
0000
0000
0000
,
0301
0000
0010
0000
,
0001
0000
0000
1000
0000
0000
0100
0000
,
2000
0000
3010
0000
,
0100
0001
0100
0000
,
0010
1000
0010
0000
,
1010
0000
0100
0001
,
0020
0000
0031
1000
,
0200
0000
1300
0001
,
0020
0000
0130
0000
,
2000
0000
3010
0100
,
0002
0000
0103
0010
,
0100
0000
0001
0000
,
2002
0000
0000
0000
,
0000
0000
3003
0000
,
0010
0000
0010
0000
,
1000
0000
1000
0000
,
0001
0000
0001
0000
,
0100
0010
0100
0000
,
0010
0000
0010
0000
,
0001
0000
0001
0000
,
1000
0000
1000
0000
,
0200
0000
0000
0300
,
0010
0000
0000
0001
0000
0000
0000
0000
,
1000
0000
0000
0100
0000
0000
0000
0000
,
1000
0000
0000
0010
0000
0000
0000
0000
,
0100
0000
0000
0001
0000
0000
0000
0000
,
0001
0000
0000
0100
0000
0000
0001
0000
,
1000
0000
0000
0010
0000
0000
1000
0000
,
0002
0000
1003
0100
,
2000
0000
3010
0000
,
0100
0010
2000
0000
,
3001
0010
0200
0000
,
0310
0001
2000
0000
,
3010
0100
0002
0000
,
0013
0100
2000
0000
,
3001
0100
0020
0000
,
1030
0000
1001
0000
,
0010
0000
0110
0000
,
0001
0010
0001
0000
,
1000
0100
1000
0000
,
0001
0000
0000
0100
0000
0000
0010
0000
,
1000
0000
0000
0100
0000
0000
0010
0000
,
0001
0000
0000
0001
0000
0000
0001
0000
,
1000
0000
0000
1000
0000
0000
1000
0000
,
0010
0100
0001
0000
,
1000
0010
0100
0000
,
0001
0000
1000
0000
,
0010
0000
0100
0000
0010
0000
0100
0010
;

//---------------dance-single - ----------------
#NOTES:
     dance-single:
     :
     Medium:
     10:
     0.463085,0.531976,0.071049,0.275313,0.044405,365.000000,357.000000,8.000000,31.000000,0.000000,0.000000,0.463085,0.531976,0.071049,0.275313,0.044405,365.000000,357.000000,8.000000,31.000000,0.000000,0.000000:
0000
0000
0000
0000
,
0000
0000
0000
0000
,
0000
0000
0000
0000
,
0000
0000
0000
0000
,
0010
0001
1000
0100
0000
0000
0100
0000
,
1000
0010
0100
0001
0000
0000
0010
0000
,
0001
0000
0011
0000
1000
0100
1000
0000
,
0010
0100
0001
0010
0200
0000
1300
0000
,
0001
0000
0010
0001
0000
0001
0010
0000
,
0001
0100
0000
0100
0010
1000
0010
0000
,
1000
0000
0100
1000
0000
1000
0100
0000
,
0010
0001
0000
0001
1000
0010
1000
0000
,
0010
0000
0100
0010
0000
0010
1000
0000
,
0001
0010
0000
0001
1000
0100
1000
0000
,
0010
0100
0000
0010
0100
0000
0001
0000
,
0010
0100
1000
0000
0010
0100
0001
0000
,
0100
0010
1000
0200
0000
0000
1300
0000
,
0001
0010
0100
0020
0000
0000
0031
0000
,
0100
0001
1000
0020
0000
0000
0130
0000
,
0010
1000
0001
0200
0000
0000
0301
0000
,
0010
0100
1000
0002
0000
0000
0103
0000
,
0001
1000
0100
0020
0000
0000
0031
0000
,
1010
0000
0100
0010
0100
0000
0010
0000
,
0101
0000
1000
0100
1000
0000
0001
0000
,
0020
0000
0000
0000
,
0031
0000
0000
0000
0001
0000
1000
0010
,
0200
0000
0001
0000
,
0301
0000
0010
0000
0001
1000
0010
0100
,
0020
0000
0000
2030
0000
0000
3100
0000
,
0010
0001
0000
0001
0000
1000
0010
0000
,
0100
0000
0000
0010
0000
0000
0100
0000
0000
0000
0000
0000
0001
0000
0010
0000
,
0100
0000
0100
0000
1000
0001
1000
0001
,
0020
0000
0100
0130
,
2000
0000
0001
3001
,
0021
0000
0100
0130
,
2000
0000
0000
0000
3010
0000
0010
0100
,
0001
0000
0001
0010
0100
0000
1000
0001
,
0100
0000
0010
1000
0100
0000
0010
0001
,
0020
0000
0130
1000
0200
0000
1300
0001
,
0020
0000
0001
0031
,
0001
0000
1000
0010
0100
0010
1000
0000
,
0001
0000
0000
0001
0000
0000
0001
0000
0010
0000
0100
0000
0010
0000
0000
0000
,
0100
0000
1000
0001
0010
0100
1000
0000
,
0010
0000
0000
0100
0000
0000
0010
0000
1000
0000
0100
0000
0010
0000
0000
0000
,
0001
0010
0100
1000
0010
0100
0010
0000
,
1000
0000
0000
1000
0000
0000
1000
0000
0010
0000
0100
0000
0010
0000
0000
0000
,
1000
0001
0010
0001
0100
0010
0100
0000
,
0001
0000
0001
0010
0000
0010
0100
0000
0100
1000
0000
1000
,
0001
0000
0100
0000
0000
0000
0000
0000
0010
0000
0000
0000
,
1000
0000
0100
0020
0000
0000
0130
0000
,
0010
0000
0001
0020
0000
0000
0130
0000
,
1000
0000
0001
0200
0000
0000
0301
0000
,
0001
0000
1000
0200
0000
0000
1300
0000
,
0001
0010
0100
1000
0000
0000
0110
0000
,
1000
0100
0010
0001
0000
0000
1001
0000
,
0100
0010
0100
0010
1000
0000
0001
0000
,
0010
0100
1000
0001
0100
0010
1000
0000
,
0010
1000
0001
2000
0000
0000
3100
0000
,
0010
0001
1000
0200
0000
0000
0310
0000
,
0010
0100
1000
0002
0000
0000
0103
0000
,
0010
1000
0100
0010
0100
1000
0001
0000
,
1000
0010
0001
0020
0000
1000
1030
0000
,
0001
0100
1000
0200
0000
0001
0301
0000
,
1010
0000
0100
0010
0100
0000
0001
0010
,
0100
0000
1000
0001
1000
0010
0100
0000
,
0001
0000
0010
0100
0001
0000
0100
1000
,
0010
0000
0100
0001
1000
0100
0010
0000
,
0100
0000
0000
0100
0000
0000
0100
0000
,
1000
0000
0000
1000
0000
0000
1000
0000
,
0002
0000
0000
0010
0000
0000
0013
0000
,
2000
0000
0000
0010
0000
0000
3010
0000
,
0100
0001
1000
0200
0000
0000
0310
0000
,
0001
0100
0010
2000
0000
0000
3001
0000
,
0010
0000
0011
0000
0001
1000
0000
1000
,
0000
0010
0100
0010
1000
0100
0001
0100
;

//---------------dance-single - ----------------
#NOTES:
     dance-single:
     :
     Hard:
     13:
     0.636900,0.731467,0.284194,0.301957,0.261992,502.000000,470.000000,32.000000,34.000000,0.000000,0.000000,0.636900,0.731467,0.284194,0.301957,0.261992,502.000000,470.000000,32.000000,34.000000,0.000000,0.000000:
// measure 0
0000
0000
0000
0000
,  // measure 1
0000
0000
0000
0000
,  // measure 2
0000
0000
0000
0000
,  // measure 3
0000
0000
0000
0000
0000
0000
0000
0001
,  // measure 4
0100
0010
1000
0010
0000
0100
0001
0010
,  // measure 5
0001
0000
0100
0000
0010
0000
1000
0000
0000
0000
0100
0000
1000
0000
0010
0100
,  // measure 6
0010
0000
0110
0000
0001
1000
0100
0010
,  // measure 7
0000
0000
0001
0000
1000
0000
0010
0000
0100
0000
0001
1000
0001
0000
0000
0000
,  // measure 8
0100
0000
0110
0020
0000
1000
1030
0000
,  // measure 9
0001
0010
0000
0011
0000
1000
0010
0100
,  // measure 10
0001
1000
0000
1002
0000
0010
0013
0000
,  // measure 11
0001
1000
0100
0010
0000
0100
1000
0001
,  // measure 12
0010
0001
0000
1001
0000
0100
0010
1000
,  // measure 13
0100
0010
0000
0010
0001
1000
0001
0100
,  // measure 14
0010
0000
0000
0010
0000
0000
0010
0000
1000
0000
0000
0000
1001
0000
0000
0000
,  // measure 15
0001
0100
1000
0001
0010
1000
0100
0000
,  // measure 16
1000
0010
0100
0020
0000
1030
0100
1000
,  // measure 17
0010
0000
0100
0000
0010
0000
0001
0000
0000
0000
0001
0000
0010
0000
0100
0001
,  // measure 18
0100
0001
0010
0002
0000
0103
0010
0100
,  // measure 19
0001
0010
0100
1000
0000
0000
1001
0000
,  // measure 20
0010
0001
1000
0020
0000
0130
0100
0001
,  // measure 21
1000
0000
0100
0000
0001
0000
0200
0000
0000
0000
0000
0000
1300
0000
0001
0010
,  // measure 22
0001
0000
0000
0000
0100
0000
0010
1000
0010
0000
0000
0000
1000
0000
0001
0100
,  // measure 23
0001
0000
0000
0000
0100
0000
0010
0000
1000
0000
0010
0100
0010
0000
0000
0000
,  // measure 24
2002
0000
0000
3003
,  // measure 25
0010
0000
0000
0010
0000
0000
0010
0000
0000
0000
1000
0000
0001
0000
0010
0001
,  // measure 26
0200
0000
0000
0010
0000
0000
1300
0001
,  // measure 27
0010
0000
0000
1000
0000
0000
0100
0000
0010
0000
0001
0000
1000
0000
0100
0000
,  // measure 28
2000
0000
0000
3020
0000
0000
0230
0000
,  // measure 29
0001
0000
0000
0001
0300
0000
0001
0000
0000
0000
1000
0000
0100
0000
0010
0000
,  // measure 30
0100
0000
0000
1000
0000
0000
1001
0000
0000
0000
0010
0000
0100
0000
0001
0000
,  // measure 31
0000
0000
0000
0000
0011
0000
0000
0000
1000
0000
0100
0000
0010
0100
0010
0000
,  // measure 32
0200
0000
0000
0000
1300
0000
0000
0000
0001
0000
0010
0000
0001
1000
0001
0000
,  // measure 33
0200
0000
0000
0000
0310
0000
0000
0000
1000
0000
0010
0000
0100
0010
0100
0000
,  // measure 34
0002
0000
0000
0000
0013
0000
0000
0000
0001
0000
0100
0000
0010
1000
0010
0000
,  // measure 35
1000
0000
1100
0000
0010
0001
1000
0010
,  // measure 36
0200
0000
0000
0000
0301
0000
1000
0001
0020
0000
0000
0000
0130
0000
1000
0001
,  // measure 37
0200
0000
0000
0000
0310
0000
1000
0001
0020
0000
0000
0000
0031
0000
1000
0100
,  // measure 38
1000
0000
0001
0000
0100
0000
0010
0100
0010
0000
1000
0000
0001
0000
0010
0001
,  // measure 39
1000
0010
0100
0001
1000
0100
0010
0000
,  // measure 40
0011
0000
0000
0001
0000
0000
1000
0000
0010
0000
0001
0000
0010
0000
1000
0000
,  // measure 41
0000
0001
0100
1000
0100
0001
0010
0000
,  // measure 42
0001
0000
0000
1000
0000
0000
1000
0000
0100
0000
0001
0000
0100
0000
1000
0000
,  // measure 43
0010
0000
0100
0010
0000
0100
0010
0000
1000
0000
0001
0000
1000
0000
0001
0000
,  // measure 44
0020
0000
0000
0000
0031
1000
0001
0000
0100
0000
0010
0000
1000
0000
0001
0000
,  // measure 45
0010
0000
0001
0010
0000
0001
0010
0000
0100
0000
1000
0000
0100
0000
0010
0000
,  // measure 46
0001
0000
0100
0001
0000
1000
0010
0000
1000
0000
0001
0000
0010
0000
0100
0000
,  // measure 47
1000
0100
1000
0001
0010
0001
0100
0010
0100
0001
1000
0001
,  // measure 48
0000
0000
1001
0000
0011
0000
1100
0000
0010
0000
0100
0000
,  // measure 49
0001
0010
0100
1100
0000
1000
0010
1000
,  // measure 50
0001
0000
1000
0000
0100
0000
0210
0000
0000
0000
0000
0000
0301
0000
0100
1000
,  // measure 51
0100
1000
0010
1010
0000
0100
0001
0010
,  // measure 52
0100
0010
0001
0201
0000
0000
0310
0000
,  // measure 53
1000
0001
0010
0011
0000
1000
0100
0010
,  // measure 54
0100
1000
0001
0201
0000
0000
0310
0000
,  // measure 55
1000
0100
1000
0100
0010
0001
0010
0001
,  // measure 56
0100
0000
0010
0100
0010
0000
1000
0000
0001
0000
0010
0000
0200
0000
0000
0000
,  // measure 57
1300
0010
0100
0120
0000
1030
0001
0100
,  // measure 58
0001
0000
0010
0000
0100
0000
0120
0000
0000
0000
0000
0000
0031
1000
0100
0000
,  // measure 59
1000
0010
0100
0210
0000
0301
0010
0100
,  // measure 60
1000
0000
0010
0000
0100
0000
0001
0000
1000
0001
1000
0001
0010
0000
0100
0000
,  // measure 61
1000
0100
0001
0101
0000
1000
0010
0100
,  // measure 62
0001
0000
0010
0000
1000
0000
1010
0000
0000
0000
0010
0000
0001
1000
0001
0000
,  // measure 63
0100
0000
0000
0000
0010
0000
1000
0010
0100
0000
0000
0000
0001
0000
0010
0001
,  // measure 64
0100
0000
0000
0000
0010
0100
0010
0000
1000
0000
0000
0000
1001
0000
0000
0000
,  // measure 65
0020
0000
0000
1030
0100
1000
0002
0000
0000
0013
0001
1000
,  // measure 66
0200
0000
0000
0310
0001
1000
0100
0000
0000
0110
0000
0000
,  // measure 67
1002
0000
0000
0010
0000
0000
0013
0000
,  // measure 68
2000
0000
0000
0100
0000
0000
3100
0000
,  // measure 69
0020
0000
0000
0001
0000
0000
1030
0000
,  // measure 70
0200
0000
0000
1000
0000
0000
0301
0000
,  // measure 71
0100
1000
0010
1000
0000
0001
0100
0010
,  // measure 72
1000
0001
0010
0100
0000
0000
0110
0000
,  // measure 73
0001
0000
1001
0000
0100
0010
0100
0010
,  // measure 74
0000
1000
0001
1000
0100
0001
0010
0110
;
