#TITLE:Colorful Cookie;
#SUBTITLE:;
#ARTIST:Lucky Vacuum;
#TITLETRANSLIT:;
#SUBTITLETRANSLIT:;
#ARTISTTRANSLIT:;
#GENRE:HAPPY HARDCORE;
#CREDIT:;
#BANNER:Colorful Cookie_banner.png;
#BACKGROUND:Colorful Cookie.jpg;
#LYRICSPATH:;
#CDTITLE:;
#MUSIC:Colorful Cookie.ogg;
#OFFSET:-0.540000;
#SAMPLESTART:79.190002;
#SAMPLELENGTH:16.000000;
#SELECTABLE:YES;
#BPMS:0.000000=180.000000
;
#STOPS:
;
#BGCHANGES:;
#KEYSOUNDS:;
#ATTACKS:;

//---------------dance-single - ----------------
#NOTES:
     dance-single:
     :
     Easy:
     7:
     0.264995,0.358052,0.138044,0.120789,0.000000,215.000000,199.000000,16.000000,14.000000,0.000000,0.000000,0.264995,0.358052,0.138044,0.120789,0.000000,215.000000,199.000000,16.000000,14.000000,0.000000,0.000000:
0000
0000
0000
0000
,
0000
0000
0000
0000
,
0000
0000
0000
0000
,
0000
0000
0000
0000
,
0000
0000
0000
0000
,
0000
0000
0000
0000
,
0000
0000
0000
0000
,
0000
0000
0000
0000
,
0010
0001
0010
0000
,
0100
1000
0100
0000
,
1000
0010
1000
0000
,
0001
0100
0001
0000
,
1000
0010
1000
0100
,
1000
0010
0100
0000
,
0001
0010
0001
0100
,
0001
0000
1000
0000
,
2002
0000
0000
0000
0000
3003
0000
0000
,
0100
0010
0100
0000
,
0001
0100
0001
0000
,
1000
0010
1000
0000
,
0010
0100
0010
0000
,
1000
0010
0100
0000
,
0001
0010
0100
0000
,
0010
0000
0001
0000
,
2002
0000
0000
0000
0000
3003
0000
0000
,
0100
0010
0100
0000
,
0001
0010
0001
0000
,
1000
0010
1000
0000
,
0100
1000
0100
0000
,
1000
0001
0100
0000
,
0001
1000
0010
0000
,
0100
0001
1000
0000
,
0010
1000
0001
0000
,
1000
0010
1000
0100
,
0010
0000
0110
0000
,
0001
0010
0100
0010
,
0001
0000
1001
0000
,
0100
0010
1000
0100
,
1000
0000
0101
0000
,
0010
0100
0001
0010
,
0001
0000
1000
0000
,
0020
0000
0000
0030
,
0200
0000
0000
0300
,
0002
0000
0000
0003
,
2000
0000
0000
3000
,
0010
0000
0110
0000
,
0100
0000
0101
0000
,
0001
0000
1001
0000
,
1000
0000
1010
0000
,
0010
1000
0001
0100
,
0001
1000
0001
0000
,
0100
0010
1000
0001
,
0100
0001
0010
0000
,
0001
0000
1001
0000
,
1000
0000
1001
0000
,
0100
0100
0010
0010
,
0110
0000
1001
0000
,
0220
0000
0000
0000
0000
0000
0000
0330
,
0000
0000
0000
0000
,
1000
0010
0100
0001
,
0100
0010
1000
0000
,
0001
0010
0100
0010
,
0001
1000
0010
0000
,
0100
0001
0010
0001
,
1000
0000
0000
0001
0000
0000
0000
0000
,
0100
0010
0100
0010
,
1000
0001
1000
0000
,
0001
0010
0100
1000
,
0100
0010
0001
0000
,
1000
0100
0010
0001
,
0010
0100
1000
0000
,
0001
0100
0010
0100
,
0001
1000
0010
0000
,
1000
0100
0010
0100
,
1000
0000
1001
0000
,
0020
0000
0000
0030
,
0200
0000
0000
0300
,
0002
0000
0000
0003
,
2000
0000
0000
3000
,
0001
0000
0001
0000
,
1000
0000
1000
0000
,
0010
0000
0010
0000
,
0100
0000
0100
0000
,
1001
0000
0000
0000
;

//---------------dance-single - ----------------
#NOTES:
     dance-single:
     :
     Medium:
     11:
     0.485619,0.501273,0.146672,0.051767,0.025883,394.000000,377.000000,17.000000,6.000000,0.000000,0.000000,0.485619,0.501273,0.146672,0.051767,0.025883,394.000000,377.000000,17.000000,6.000000,0.000000,0.000000:
0000
0000
0000
0000
,
0000
0000
0000
0000
,
0000
0000
0000
0000
,
0000
0000
0000
0000
,
0010
0000
0001
0000
1000
0000
0010
0100
,
0000
0100
0000
0010
0000
1000
0100
0000
,
1000
0000
0001
0000
0010
0000
0001
1000
,
0000
1000
0010
0000
0100
0000
0010
0000
,
1010
0000
1000
0000
0100
0000
1000
0001
,
0000
0001
0000
0010
0000
0001
1000
0000
,
0010
0000
0100
0000
0010
0000
1000
0001
,
0000
0010
0000
0001
0000
0100
0001
0000
,
1000
0000
0010
0000
0100
0000
0001
1000
,
0000
1000
0000
0010
0000
0100
0001
0000
,
0010
0000
0001
0000
1000
0000
0100
0010
,
0000
0010
0100
0000
1000
0000
0001
0000
,
2002
0000
0000
3003
,
0001
0010
0100
0000
1000
0100
1000
0000
,
0010
0100
0001
0000
1000
0100
0010
0000
,
0001
1000
0100
0000
1000
0001
0010
0000
,
0001
0100
0010
0000
1000
0010
0100
0000
,
0001
1000
0100
0000
1000
0010
0100
0000
,
0001
0010
0100
0000
1000
0001
0010
0000
,
0001
0100
0010
0000
1000
0010
0100
0000
,
0220
0000
0000
0330
,
1000
0000
0001
0000
0100
0000
0010
1000
,
0000
1000
0000
0001
0010
0000
1001
0000
,
0001
0000
0100
0000
0010
0000
1000
0001
,
0000
0001
0000
1000
0010
0000
0110
0000
,
0100
0000
0001
0000
1000
0000
0010
1000
,
0000
1000
0000
0001
0000
0100
0010
0000
,
1000
0000
0100
0000
0010
0000
0001
0100
,
0000
0100
0001
0000
0010
0000
0100
0000
,
1000
0000
0001
0000
0010
0000
0001
1000
,
0000
1000
0000
0010
0000
0100
0001
0000
,
0010
0000
0001
0000
1000
0000
0100
0010
,
0000
0100
0000
1000
0000
0001
0010
0000
,
0001
0000
0100
0000
0010
0000
1000
0001
,
0000
0001
0000
0100
0000
0010
1000
0000
,
0001
0000
0010
0000
0100
0000
1000
0010
,
0000
0010
1000
0000
0100
0000
0010
0000
,
2002
0000
0000
0000
,
0000
0000
3003
0000
,
1000
0000
0010
0000
1000
0000
0000
0000
0001
0000
0000
0100
0000
0000
0001
0000
,
0010
0000
0001
0000
0010
0000
0000
0000
0001
0000
0000
1000
0000
0000
0100
0000
,
1000
0000
0010
0000
1000
0000
0000
0000
0001
0000
0000
1000
0000
0000
0001
0000
,
0100
0000
0010
0000
0100
0000
0000
0000
0001
0000
0000
1000
0000
0000
0010
0000
,
0100
0000
0001
0000
0100
0000
0000
0000
0010
0000
0000
1000
0000
0000
0010
0000
,
1000
0000
0001
0000
0010
0000
0000
0000
0100
0000
0000
1000
0000
0000
0001
0000
,
0010
0000
0001
0000
1000
0000
0010
0100
,
0000
0010
0000
0110
0000
0100
0001
0000
,
1000
0000
0010
0000
0100
0000
0010
1000
,
0000
0001
0000
1001
0000
1000
0010
0000
,
0100
0001
0100
0001
,
1000
0010
1000
0010
,
1000
1001
0001
1001
,
0001
0100
0001
0010
0100
1000
0100
0000
,
1000
0000
0010
0000
0001
0000
0010
0100
,
0000
0100
0000
0010
0000
1000
0001
0000
,
0010
0001
1000
0001
0100
0000
0010
0000
,
1000
0000
0100
1000
0000
0001
0000
1001
,
0000
1000
0010
0100
0010
0000
1000
0000
,
0010
0000
0100
0001
0000
1000
0000
1010
,
0000
0010
0100
0001
0100
0000
0010
0000
,
1000
0100
0001
0100
0000
1000
0010
0000
,
0100
0000
0001
0000
0010
0000
0001
1000
,
0000
1000
0000
0110
0000
0010
0100
0000
,
0001
1000
0010
1000
0001
0000
0100
0000
,
0010
0000
1000
0001
0000
0001
0000
0110
,
0000
0010
1000
0100
1000
0001
0010
0000
,
0001
0000
0100
0010
0000
1000
0000
0001
,
0000
1000
0100
0010
0001
1000
0001
0000
,
0100
0000
0010
0100
0000
0100
0010
0000
,
1000
0001
0100
0001
0000
0010
0001
0000
,
1000
0010
0100
0001
0010
0001
0100
0000
,
0010
0000
1000
0000
0100
0000
1000
0001
,
0000
0001
0000
0100
0010
0000
1000
0000
,
0100
0000
1000
0000
0001
0000
0010
0001
,
0000
0001
0000
1000
0010
0000
0110
0000
,
0100
0000
0001
0000
1000
0000
0010
1000
,
0000
0001
0000
1001
0000
1000
0010
0000
,
0100
0000
0001
0000
0010
0000
0001
1000
,
0000
0001
0100
0000
0010
0000
1000
0000
,
0110
0000
0000
0000
;

//---------------dance-single - ----------------
#NOTES:
     dance-single:
     :
     Hard:
     15:
     0.819637,0.859324,0.621198,0.017256,0.172555,665.000000,593.000000,72.000000,2.000000,0.000000,0.000000,0.819637,0.859324,0.621198,0.017256,0.172555,665.000000,593.000000,72.000000,2.000000,0.000000,0.000000:
// measure 0
0000
0000
0000
0000
,  // measure 1
0000
0000
0000
0000
,  // measure 2
0000
0000
0000
0000
,  // measure 3
0000
0000
0000
0000
,  // measure 4
1010
0000
0100
0000
0001
0000
0010
0100
,  // measure 5
0000
1001
0000
0110
0000
0100
0001
1000
,  // measure 6
0010
0000
0110
0000
1000
0000
0001
0100
,  // measure 7
0000
0010
1000
0000
1010
0000
0101
0000
,  // measure 8
0011
0000
1000
0000
0110
0000
0001
0010
,  // measure 9
0000
1100
0000
0101
0000
0100
0010
1000
,  // measure 10
0001
0000
1010
0000
0100
0000
0011
1000
,  // measure 11
0000
1001
0000
0101
0000
0010
1000
0100
,  // measure 12
1000
0010
1000
0010
0100
0001
0100
0001
,  // measure 13
0010
0100
0010
0100
1000
0001
1000
0001
,  // measure 14
0100
0010
0100
0010
0100
0000
0001
0000
1000
0001
1000
0001
1000
0000
0010
0000
,  // measure 15
0100
0000
0001
0100
0001
0000
1000
0010
1000
0000
0010
0000
0100
0000
0010
0000
,  // measure 16
0220
0000
0000
0000
0330
0000
0000
0000
0001
0000
1000
0001
1000
0000
0001
0000
,  // measure 17
1000
0010
0100
0010
1000
0001
0010
0001
,  // measure 18
0100
1000
0001
1000
0100
0010
1000
0001
,  // measure 19
0010
0001
1000
0100
0001
0100
1000
0010
,  // measure 20
0100
0000
0010
0000
1000
0000
0001
0000
1000
0000
0010
0100
0010
0000
0100
0000
,  // measure 21
0001
0010
0100
1000
0010
0100
0001
1000
,  // measure 22
0010
0100
1000
0100
0010
1000
0100
0001
,  // measure 23
0100
0010
0001
1000
0010
0100
1000
0001
,  // measure 24
1001
0000
0000
0000
0000
0000
0000
0000
0100
0010
0100
0010
0100
0010
0100
0010
,  // measure 25
1000
0001
0010
0000
1001
0001
0100
0010
,  // measure 26
0000
0000
0110
0000
0100
0000
0001
0000
1000
0000
0100
1000
0100
0000
0010
0000
,  // measure 27
0001
0010
1000
0100
0001
0100
1000
0010
,  // measure 28
0000
0000
0101
0000
0001
0000
0010
0000
0001
0000
1000
0100
1000
0000
0010
0000
,  // measure 29
1000
0010
0100
0001
1000
0010
0001
0010
,  // measure 30
0000
0101
0000
1100
1000
0001
0100
0010
,  // measure 31
1000
0100
0010
0001
0100
0010
0001
0011
,  // measure 32
0000
1010
1000
0001
0100
0010
0110
0000
,  // measure 33
1001
1000
0010
0100
0001
0010
1000
0010
,  // measure 34
0000
1100
0000
0101
0001
1000
0010
0100
,  // measure 35
0010
1000
0100
1000
0001
0010
0001
1001
,  // measure 36
0000
0110
0000
1001
1000
0010
0100
0001
,  // measure 37
0010
0100
1000
0001
0100
0010
1000
1010
,  // measure 38
0000
0101
0001
1000
0100
0010
0100
1000
,  // measure 39
1001
0001
0010
0100
1001
1000
0100
0010
,  // measure 40
1001
1001
0100
0000
0010
0000
0110
0000
,  // measure 41
1010
0000
1000
0000
0010
0000
0100
0000
0001
0000
1000
0001
0000
1000
0001
0000
,  // measure 42
1000
0000
0010
0000
0100
0000
0010
0000
0100
0000
0001
1000
0000
0001
1000
0000
,  // measure 43
0010
0000
0100
0000
0001
0000
0010
0000
0100
0000
1000
0001
0000
1000
0100
0000
,  // measure 44
1000
0000
0010
0000
0100
0000
0001
0000
0010
0000
0001
1000
0000
0010
0100
0000
,  // measure 45
0010
0000
1000
0000
0001
0000
1000
0000
0010
0000
0100
0001
0000
0100
0010
0000
,  // measure 46
1000
0000
0100
0000
0010
0000
0001
0000
1000
0000
0010
0100
0000
0010
1000
0000
,  // measure 47
0001
0000
0100
0000
0010
0000
1000
0000
0001
0000
0100
0001
0000
1000
0001
0000
,  // measure 48
1000
0010
0001
0010
1000
0001
0100
0010
,  // measure 49
0110
0000
1001
0000
0100
0001
1000
0010
,  // measure 50
0000
0110
0000
1010
1000
0001
0010
0100
,  // measure 51
0010
0001
1000
0100
1000
0010
0001
0011
,  // measure 52
0000
1100
0000
0110
0100
0010
1000
0001
,  // measure 53
1000
0100
1000
0100
0001
0100
0001
0100
,  // measure 54
1000
0010
1000
0010
0001
0010
0001
0010
,  // measure 55
1000
0010
0100
0001
0010
0001
1000
0100
,  // measure 56
1000
0001
1000
0001
0100
0010
0100
0010
1000
0000
0001
0000
1001
0000
0001
0000
,  // measure 57
0100
0010
0110
0000
1001
0000
0001
0100
,  // measure 58
0000
0000
1010
0000
0000
0000
0001
0000
0100
0010
1000
0001
0100
0010
1000
0001
,  // measure 59
1000
0100
0001
0100
0010
0001
1000
0010
,  // measure 60
0100
0010
1000
1010
0000
0101
0000
0011
,  // measure 61
0001
0010
1000
0010
0100
1000
0001
0100
,  // measure 62
0010
1000
0100
1100
0000
0011
0000
1001
,  // measure 63
1000
0010
0001
0010
1000
0100
0010
0100
,  // measure 64
1000
0000
0001
0000
0010
0000
0110
0000
0000
0000
1000
0001
1000
0000
0010
0000
,  // measure 65
0100
0001
0010
0100
1000
0010
0100
0001
,  // measure 66
0000
1010
0000
0101
0100
0001
1000
0100
,  // measure 67
0010
1000
0010
0001
0100
0010
0001
1000
,  // measure 68
0100
0000
0010
0000
0100
0000
0110
0000
0000
0000
1000
0001
1000
0000
0010
0000
,  // measure 69
1000
0001
0010
0100
1000
0001
0010
0100
,  // measure 70
0010
0000
0001
0000
1000
0000
1100
0000
0000
0000
0001
0100
0001
0000
0100
0000
,  // measure 71
0010
1000
0010
1000
0001
0010
0001
0010
,  // measure 72
0001
0100
0010
0110
0000
1010
1000
0001
,  // measure 73
0010
0100
0010
1001
0000
0100
0010
0100
,  // measure 74
0001
0000
1000
0000
0100
0000
1000
0000
0010
0000
0100
0010
0100
0000
1000
0000
,  // measure 75
0100
0001
0100
0010
1000
0100
0010
0100
,  // measure 76
0000
1100
0000
0101
0001
1000
0010
0100
,  // measure 77
0001
0010
0001
1000
0100
1000
0010
0110
,  // measure 78
0000
1001
1000
0010
0100
0001
0010
1000
,  // measure 79
0010
0001
1000
0010
0100
0001
1000
0100
,  // measure 80
0000
0110
0000
1001
0001
1000
0100
0010
,  // measure 81
0100
1000
0001
0100
0010
1000
0001
0011
,  // measure 82
0000
1100
1000
0010
0100
0001
1000
0100
,  // measure 83
0110
0000
0000
0000
;
