#TITLE:Clove;
#SUBTITLE:;
#ARTIST:BEMANI Sound Team "SYUNN";
#TITLETRANSLIT:;
#SUBTITLETRANSLIT:;
#ARTISTTRANSLIT:SYUNN;
#GENRE:;
#CREDIT:;
#BANNER:Clove_banner.png;
#BACKGROUND:Clove.png;
#LYRICSPATH:;
#CDTITLE:;
#MUSIC:Clove.ogg;
#OFFSET:-0.480000;
#SAMPLESTART:65.620003;
#SAMPLELENGTH:15.000000;
#SELECTABLE:YES;
#BPMS:0.000000=210.000000
;
#STOPS:
;
#BGCHANGES:;
#KEYSOUNDS:;
#ATTACKS:;

//---------------dance-single - ----------------
#NOTES:
     dance-single:
     :
     Easy:
     9:
     0.385445,0.427385,0.053078,0.141540,0.000000,305.000000,299.000000,6.000000,16.000000,0.000000,0.000000,0.385445,0.427385,0.053078,0.141540,0.000000,305.000000,299.000000,6.000000,16.000000,0.000000,0.000000:
0000
0000
0000
0000
,
0000
0000
0000
0000
,
0000
0000
0000
0000
,
0000
0000
0000
0000
,
0001
0000
0000
0100
0000
0000
0010
0000
,
0000
0100
0000
0000
0001
0000
0000
0000
,
1000
0000
0000
0100
0000
0000
0010
0000
,
0000
0100
0000
0000
1000
0000
0000
0000
,
2002
0000
0000
0000
0000
3003
0000
0000
,
0010
0100
0001
0100
,
0010
1000
0100
0000
,
1000
0001
0010
0001
,
0100
0010
1000
0000
,
0010
0100
0001
1000
,
0100
0010
0001
0000
,
0100
0010
1000
0001
,
0010
1000
0010
0000
,
0001
0100
0010
0100
,
0001
1000
0010
0000
,
1000
0001
0010
0100
,
1000
0001
0100
0000
,
0010
1000
0100
1000
,
0001
0010
0001
0100
,
0010
0000
0101
0000
,
1000
0100
0001
0100
,
1000
0000
0010
0000
0100
0000
0000
0010
,
0000
1000
0100
0000
,
1000
0001
0010
0001
,
0100
0010
0100
0000
,
0001
0000
0010
0000
0001
0000
0000
0100
,
0000
0010
0100
0000
,
0001
0010
0100
1000
,
0010
0000
0100
0000
0001
0000
0000
1000
,
0000
0001
1000
0000
,
1000
0000
0001
0000
0010
0000
0000
0100
,
0000
1000
0010
0100
,
0010
0000
1000
0000
0001
0000
0000
0010
,
0000
0001
0100
0001
,
1000
0010
1000
0100
,
0010
0100
1000
0001
,
0100
0010
0110
0000
,
1002
0000
0000
0013
,
0020
0000
0130
1000
,
0002
0000
0103
0010
,
1000
0001
0010
0100
,
2000
0010
0000
3010
,
0100
0001
1000
0000
,
0200
0000
0310
0001
,
2000
0000
3010
0100
,
0001
0000
1000
0000
0001
0000
0000
0100
,
0000
0010
0100
0001
,
0010
0000
0001
0000
1000
0000
0000
0100
,
0000
1000
0010
0100
,
0001
0010
0100
0000
,
1000
0010
0100
0000
,
0001
1000
0100
0010
,
2002
0000
0000
0000
0000
3003
0000
0000
,
0010
0000
0000
0100
0000
0000
0002
0000
,
0010
0000
1003
0000
,
1000
0000
0000
0010
0000
0000
0200
0000
,
0001
0000
0310
0000
,
1000
0000
0000
0001
0000
0000
0010
0000
,
0001
0100
0010
1000
,
0001
0000
0000
0010
0000
0000
0001
0000
,
1000
0100
0010
0001
,
0100
0000
0000
0010
0000
0000
2000
0000
,
0001
0000
3100
0000
,
1000
0000
0000
0100
0000
0000
0020
0000
,
0001
0000
0130
0000
,
1000
0000
0000
0001
0000
0000
1000
0000
,
0010
0100
0001
0010
,
0100
0000
0000
0010
0000
0000
0100
0000
,
1000
0000
0001
0000
0100
0000
0000
0010
,
0000
1000
0010
0100
,
0010
0000
1000
0000
0010
0000
0000
0100
,
0000
0001
0010
0001
,
1000
0000
0010
0000
1000
0000
0000
0001
,
0000
0100
0010
0100
,
0001
0000
1000
0000
0001
0000
0000
0010
,
0000
0100
0000
0100
,
1000
0000
0010
0000
1000
0000
0000
0100
,
0000
1000
0001
0010
,
0001
0000
1000
0000
0010
0000
0000
1000
,
0000
0001
0100
0001
,
0010
0000
1000
0000
0010
0000
0000
0001
,
0000
1000
0010
1000
,
0001
0000
0100
0000
0010
0000
0000
1000
,
0000
0001
0010
0100
,
0220
0000
0000
0000
0330
0000
0000
1000
,
0000
0001
1000
0001
,
0100
0000
0010
0000
0100
0000
0000
0001
,
0000
1000
0001
1000
,
0010
0000
0100
0000
0010
0000
0000
1000
,
0000
0010
0100
0001
,
0010
0000
0001
0000
0100
0000
0000
0010
,
0000
1000
0100
1000
,
0010
0000
0100
0000
0010
1000
0000
0000
;

//---------------dance-single - ----------------
#NOTES:
     dance-single:
     :
     Medium:
     12:
     0.668525,0.641078,0.044231,0.132694,0.000000,529.000000,524.000000,5.000000,15.000000,0.000000,0.000000,0.668525,0.641078,0.044231,0.132694,0.000000,529.000000,524.000000,5.000000,15.000000,0.000000,0.000000:
// measure 0
0000
0000
0000
0000
,  // measure 1
0000
0000
0000
0000
,  // measure 2
0000
0000
0000
0000
,  // measure 3
0000
0000
0000
0000
,  // measure 4
1000
0010
0000
0010
0100
0000
0001
0010
,  // measure 5
0000
0010
0100
0000
1000
0001
1000
0000
,  // measure 6
0010
0000
0100
0010
0000
0100
0010
0000
,  // measure 7
1000
0001
0000
0001
1000
0100
0010
0000
,  // measure 8
2002
0000
0000
0000
0000
3003
0000
0000
,  // measure 9
0100
0010
0100
0001
1000
0100
1000
0000
,  // measure 10
0001
0010
0100
0010
0100
1000
0001
0000
,  // measure 11
0100
0010
1000
0010
0100
0001
0010
0000
,  // measure 12
0001
0100
0010
1000
0001
0010
0100
0000
,  // measure 13
1000
0010
0100
0010
0000
1000
0001
0000
,  // measure 14
1000
0100
0010
0001
0000
0100
0010
0000
,  // measure 15
1000
0001
0010
0001
1000
0100
0010
0000
,  // measure 16
0001
0100
0010
1000
0001
1000
0100
0000
,  // measure 17
0010
0001
0010
0100
0010
0000
0001
0100
,  // measure 18
0000
0010
1000
0000
0010
0100
0010
0000
,  // measure 19
1000
0100
0010
0001
1000
0000
0010
0100
,  // measure 20
0000
0001
0010
0000
0001
1000
0010
0000
,  // measure 21
1000
0000
0100
1000
0100
0000
1000
0000
,  // measure 22
0001
0010
0001
0000
0010
0000
0001
0000
,  // measure 23
1000
0001
1000
0001
0100
0010
0100
0000
,  // measure 24
0001
0010
0100
1000
0010
0100
0001
0000
,  // measure 25
1000
0100
0010
0100
1000
0000
0001
0100
,  // measure 26
0010
0100
0001
0000
1000
0000
1000
0001
,  // measure 27
0000
0000
0010
0000
0001
1000
0001
0100
,  // measure 28
0000
0010
0100
0000
0010
0000
1000
0000
,  // measure 29
0001
0010
0100
0010
0001
0000
1000
0100
,  // measure 30
0010
0100
1000
0000
0001
0000
0001
1000
,  // measure 31
0000
0000
0010
0000
0100
0010
0100
0000
,  // measure 32
0001
0000
0010
0100
1000
0000
0001
0100
,  // measure 33
0000
0000
0010
0000
1000
0010
0000
1000
,  // measure 34
0001
0000
0010
0001
0000
1000
0001
0100
,  // measure 35
0000
0010
0100
0000
0001
0000
1000
0000
,  // measure 36
0100
1000
0010
0100
0001
0010
0000
0001
,  // measure 37
0000
0001
1000
0000
0010
0000
0100
0000
,  // measure 38
0001
1000
0001
0000
1000
0100
0010
0100
,  // measure 39
0000
1000
0001
0000
0010
0001
1000
0000
,  // measure 40
0010
0100
0010
0100
0010
1000
0001
0000
,  // measure 41
1002
0000
0000
0000
0000
0000
0013
0100
,  // measure 42
0020
0000
0000
0000
0001
0000
0031
1000
,  // measure 43
0200
0000
1300
0001
,  // measure 44
1000
0000
0010
0100
0010
0100
0010
0000
,  // measure 45
2000
0000
0100
0000
0000
0000
3100
0010
,  // measure 46
0001
0000
0100
0001
0000
1000
0010
0000
,  // measure 47
1100
0000
0000
0000
0001
0000
0100
0001
,  // measure 48
1000
0000
0010
0100
,  // measure 49
0001
1000
0100
0000
1000
0001
0100
0000
,  // measure 50
0010
0100
0001
0000
1000
0010
0100
0001
,  // measure 51
0010
0001
1000
0100
,  // measure 52
1000
0010
1000
0000
0001
0000
0100
0010
,  // measure 53
0100
0000
0001
0000
1000
0001
0010
0000
,  // measure 54
0001
0010
0100
0000
1000
0100
1000
0000
,  // measure 55
0001
0100
0010
1000
0010
0100
0001
0000
,  // measure 56
0220
0000
0000
0000
0000
0330
0000
0000
,  // measure 57
1000
0010
0100
0010
0000
1000
0200
0000
,  // measure 58
0310
0001
0000
0001
1000
0010
0100
0000
,  // measure 59
0001
0010
0100
0010
0000
0001
1000
0000
,  // measure 60
0010
0100
0000
0100
0010
1000
0001
0000
,  // measure 61
1000
0001
0010
0001
0000
1000
0010
0100
,  // measure 62
0010
1000
0000
0001
0010
0100
1000
0000
,  // measure 63
0010
0100
0001
0010
0000
0001
0010
0001
,  // measure 64
0100
0010
0000
0010
1000
0100
1000
0000
,  // measure 65
0001
0000
0100
0010
0000
0010
2000
0000
,  // measure 66
3001
0010
0000
0010
0001
1000
0100
0000
,  // measure 67
1010
0000
0100
0001
0000
0010
0001
0000
,  // measure 68
1000
0001
0000
0001
1000
0010
0100
0000
,  // measure 69
0001
0010
0001
0010
0000
0001
1000
0100
,  // measure 70
1000
0100
0000
1000
0010
0100
0010
0000
,  // measure 71
1000
0001
0010
0001
0000
0100
0010
1000
,  // measure 72
0001
1000
0000
0010
0100
0010
0100
0002
,  // measure 73
0000
0000
0013
0000
0001
0100
0010
0000
,  // measure 74
1000
0100
0010
0000
0001
0000
1000
0020
,  // measure 75
0000
0000
0100
0000
0130
0000
0001
0010
,  // measure 76
0000
0001
1000
0000
0010
0100
0010
1000
,  // measure 77
0000
0100
1000
0000
0001
1000
0100
0000
,  // measure 78
1000
0010
0100
0000
0010
1000
0001
0020
,  // measure 79
0000
0000
0001
0000
0031
0000
1000
0200
,  // measure 80
0000
0000
1300
0000
0010
0000
0100
0001
,  // measure 81
0000
1000
0010
0000
1000
0100
0010
0000
,  // measure 82
0001
1000
0001
0100
0001
0000
0010
0100
,  // measure 83
0000
1000
0010
0000
0100
0001
0100
0010
,  // measure 84
0000
1000
0001
0000
1000
0100
0010
0002
,  // measure 85
0000
0000
1000
0000
1003
0000
0010
0100
,  // measure 86
0010
0000
1000
0100
0010
0000
0001
0100
,  // measure 87
0000
0010
0100
0000
0001
0010
0001
0000
,  // measure 88
1000
0010
0100
0000
0001
0010
0100
1000
,  // measure 89
0000
0100
1000
0100
1000
0100
1000
0000
,  // measure 90
0001
0100
0001
0100
0001
0100
0000
0010
,  // measure 91
0000
0100
0010
0100
0010
0100
0010
0000
,  // measure 92
1000
0010
1000
0000
0001
0010
0100
1000
,  // measure 93
0000
0001
0010
0001
0010
0001
0010
0000
,  // measure 94
0001
0100
0001
0100
0001
0000
1000
0010
,  // measure 95
0000
1000
0100
1000
0100
1000
0100
0000
,  // measure 96
1000
0001
0010
0100
1000
0001
0000
0000
;

//---------------dance-single - ----------------
#NOTES:
     dance-single:
     :
     Hard:
     17:
     1.008475,0.940248,0.389236,0.053078,0.318466,798.000000,754.000000,44.000000,6.000000,0.000000,0.000000,1.008475,0.940248,0.389236,0.053078,0.318466,798.000000,754.000000,44.000000,6.000000,0.000000,0.000000:
// measure 0
0000
0000
0000
0000
,  // measure 1
0000
0000
0000
0000
,  // measure 2
0000
0000
0000
0000
,  // measure 3
0000
0000
0000
0000
,  // measure 4
0011
0010
0010
1100
1000
1000
1010
0010
,  // measure 5
0110
0100
0100
0100
0001
0010
0100
1000
,  // measure 6
0001
1000
0010
0100
0001
1000
0100
0001
,  // measure 7
0100
0000
1000
0000
0001
0000
1000
0000
0010
0100
0010
0000
1000
0000
0100
0000
,  // measure 8
1000
0000
0010
0000
0100
0000
0001
0000
0010
0000
0100
0000
1000
0000
0100
0000
0010
0000
0001
0000
0000
1000
0000
0000
,  // measure 9
0010
0100
0001
0010
1000
0010
0001
1000
,  // measure 10
0000
1000
0001
0010
0100
1000
0100
0010
,  // measure 11
0001
0100
1000
0100
0010
0100
0001
1000
,  // measure 12
0000
0000
1000
0000
0010
0000
0100
0000
0001
1000
0001
0000
1000
0000
0100
0000
,  // measure 13
1000
0010
0100
0010
1000
0100
0001
0100
,  // measure 14
1000
0001
0010
1000
0010
0001
1000
0010
,  // measure 15
1000
0001
1000
0000
0010
0000
0100
0000
0001
0000
0010
0000
0100
0000
1000
0000
,  // measure 16
0010
0000
0100
0010
0100
0000
0001
0000
1000
0000
0100
0000
0001
0000
0100
0000
,  // measure 17
1000
0001
0010
0001
1000
0100
0001
0100
,  // measure 18
1000
0001
0010
1000
0001
0100
1000
0001
,  // measure 19
1000
0010
0100
0001
0100
1000
0100
0001
,  // measure 20
0010
0100
0010
0001
1000
0001
1000
0010
,  // measure 21
0100
1000
0100
0001
0100
1000
0100
0001
,  // measure 22
0000
0000
0001
0000
0010
0000
0001
0000
1000
0100
0010
0000
0001
0000
1000
0000
,  // measure 23
0010
0110
0000
1000
1100
0000
0001
0011
,  // measure 24
0000
0000
0000
0000
0000
0000
1000
0000
0000
0001
0000
0000
1000
0000
0000
0000
0000
0000
0001
0000
0000
0000
0000
0000
1000
0000
0000
0000
0010
0000
0000
0000
0100
0000
0000
0000
0010
0000
0000
0000
0100
0000
0000
0000
0010
0000
0000
0000
,  // measure 25
1000
0100
0001
0100
1100
0000
0001
0100
,  // measure 26
1000
0100
0101
0000
1000
0010
0001
0011
,  // measure 27
0000
0010
1000
0100
0001
0100
1000
0001
,  // measure 28
1000
0001
1000
0000
0010
0000
0100
0000
0001
0000
0010
0000
0100
0000
2100
0000
,  // measure 29
0000
3010
0001
0010
1000
0001
0010
1000
,  // measure 30
0010
0001
1000
0100
0001
0100
1000
1001
,  // measure 31
0000
0000
0010
0000
0100
0000
0010
0000
1000
0001
1000
0000
0001
0000
0010
0000
,  // measure 32
0001
1000
0010
0001
1000
0100
0000
0110
,  // measure 33
0000
0001
0100
1000
0100
0001
1000
0010
,  // measure 34
0001
0000
0010
0000
1000
0000
0001
0000
1000
0000
0010
0100
0010
0000
1000
0000
,  // measure 35
0000
1000
0001
0010
0100
1000
0010
1000
,  // measure 36
0100
0000
0001
0000
0100
0000
1000
0000
0001
0000
0010
0001
1000
0000
0100
0000
,  // measure 37
0000
0100
1000
0010
0100
0010
1000
0001
,  // measure 38
0010
0100
0010
0001
0100
0010
1000
0010
,  // measure 39
0100
0001
0100
0010
1000
0100
0010
0001
,  // measure 40
1000
0000
0001
0000
1000
0000
0001
0000
0100
0010
0100
0010
0100
0000
0000
0000
,  // measure 41
0001
0010
0001
0000
1000
0000
0010
0000
0100
0000
0010
0000
1000
0000
0001
0000
,  // measure 42
1000
0100
1000
0000
0001
0000
0100
0000
0010
0000
0100
0000
0001
0000
0010
0000
,  // measure 43
0001
1000
0001
0000
1000
0000
0100
0000
0010
0000
0001
0000
0100
0000
0010
0000
,  // measure 44
1000
0000
0100
0000
0010
0000
0100
0000
1000
0001
0100
0001
1000
0000
0000
0000
,  // measure 45
0010
0100
0010
0000
1000
0000
0001
0000
0010
0000
0100
0000
0010
0000
0001
0000
,  // measure 46
1000
0001
0010
0000
0001
0000
1000
0000
0100
0000
0010
0000
0100
0000
1000
0000
,  // measure 47
0001
0000
0000
0000
0110
0000
0000
0000
0001
0010
0100
0000
1000
0000
0010
0000
,  // measure 48
1000
0000
0001
0000
0100
0000
0010
0000
1000
0100
1000
0000
0001
0010
0001
0000
,  // measure 49
0100
0010
0100
1000
0100
0001
0010
0001
,  // measure 50
1000
0100
0010
0001
1000
0100
0001
0101
,  // measure 51
0000
0100
1000
0010
0100
0001
1000
0010
,  // measure 52
0001
0000
0010
0000
1000
0000
0001
0000
0100
0010
0100
0000
0001
0000
0010
0000
,  // measure 53
0001
0100
0001
0010
0100
1000
0100
0010
,  // measure 54
0001
0000
1000
0000
0010
0000
0100
0000
0001
1000
0001
0000
0100
0000
0010
0000
,  // measure 55
1000
1100
0000
0001
0011
0000
1001
1000
,  // measure 56
0010
0000
0100
0000
0001
0000
0010
0000
0100
0000
1000
0000
0100
0000
0010
0000
0001
0000
1000
0000
0000
0001
0000
0000
,  // measure 57
0100
0010
1000
1100
0000
0001
0011
0000
,  // measure 58
1000
0000
0001
0000
0010
0000
0001
0000
1000
0010
0100
0000
0001
0000
0010
0000
,  // measure 59
0001
0100
0010
1010
0000
0100
0101
0000
,  // measure 60
0010
0000
1000
0100
1000
0100
1000
0000
0001
0000
0010
0000
0100
0000
0010
0000
,  // measure 61
0001
1000
0010
1010
0000
0100
0001
0010
,  // measure 62
0001
0101
0000
0010
1000
0100
1100
0000
,  // measure 63
1000
0010
0001
0011
0000
0010
1000
0100
,  // measure 64
1000
0000
1001
0000
0000
0000
0011
0000
0001
1000
0100
0000
1000
0000
0010
0000
,  // measure 65
0100
0010
1000
1001
0000
0010
0110
0000
,  // measure 66
1000
0000
0001
0000
0010
0000
0001
0000
0100
0010
1000
0010
0100
0000
0001
0000
,  // measure 67
0010
0001
1000
1010
0000
0001
0010
0001
,  // measure 68
1000
0000
0010
0100
0010
0100
0010
0000
1000
0001
1000
0000
0001
0000
0010
0000
,  // measure 69
0001
0100
0010
0110
0000
1000
0100
0010
,  // measure 70
0100
1100
0000
0001
0010
0001
1001
0000
,  // measure 71
0110
0010
0010
0110
0100
0100
0110
1000
,  // measure 72
0001
0000
1000
0000
0001
0000
0010
0000
0001
0010
0001
0100
0010
1000
0200
0000
,  // measure 73
0000
1300
0010
0100
0010
1000
0100
0010
,  // measure 74
0100
1000
0010
0001
1000
0100
0001
0101
,  // measure 75
0000
0010
0001
1000
0010
0100
0001
1001
,  // measure 76
0000
0000
1000
0000
0100
0000
0010
0000
0100
1000
0001
0000
0100
0000
0010
0000
,  // measure 77
0000
0010
1000
0001
0010
0001
0100
0001
,  // measure 78
1000
0100
0001
0100
1000
0001
0010
0110
,  // measure 79
0000
1000
0001
1000
0010
0100
0001
0011
,  // measure 80
0000
0000
0100
0000
0001
0000
1000
0000
0010
0100
0010
0000
1000
0000
0200
0000
,  // measure 81
0000
1300
0010
0001
0010
1000
0001
0010
,  // measure 82
1000
0000
0010
0000
0001
0000
0100
0000
0010
0000
1000
0001
1000
0000
0010
0000
,  // measure 83
0000
0000
0100
0000
0001
0000
0100
0000
0010
0100
0001
0000
1000
0000
0100
0000
,  // measure 84
0000
0000
0100
0000
1000
0000
0010
0000
0100
0001
1000
0000
0001
0000
0020
0000
,  // measure 85
0000
0001
0031
0100
0010
1000
0100
0001
,  // measure 86
0100
0000
1000
0000
0010
0000
0001
0000
0010
0000
1000
0001
1000
0000
0100
0000
,  // measure 87
0000
0010
0100
1000
0001
0100
0010
1000
,  // measure 88
0001
0010
0100
0000
0010
0100
1000
0000
0001
1000
0001
1000
0010
0100
0020
0000
,  // measure 89
0000
0000
1030
0000
0100
0000
1000
0000
0001
0010
0001
0000
1000
0000
0100
0000
,  // measure 90
1000
0000
0010
0000
0100
0000
0010
0000
1000
0001
1000
0000
0100
0000
2000
0000
,  // measure 91
0000
0000
3010
0000
0100
0000
0010
0000
1000
0001
1000
0000
0001
0000
0010
0000
,  // measure 92
0001
0100
0001
0000
0100
0000
0010
0000
0100
0000
0100
0000
0100
0000
0110
0000
,  // measure 93
0000
0000
0010
0000
1000
0000
0010
0000
0100
0001
1000
0000
0100
0000
0010
0000
,  // measure 94
0001
1000
0001
0000
0010
0000
0001
0000
0100
0000
0010
0000
0100
0000
0101
0000
,  // measure 95
0000
0000
0001
0000
0010
0000
0001
0000
0100
0010
0100
0000
0001
0000
1000
0000
,  // measure 96
0001
1000
0100
0000
1000
0010
0100
0000
0001
0000
0011
0000
0000
0000
0000
0000
;
