#TITLE:Cloud Crasher;
#SUBTITLE:;
#ARTIST:Hommarju;
#TITLETRANSLIT:;
#SUBTITLETRANSLIT:;
#ARTISTTRANSLIT:;
#GENRE:;
#CREDIT:;
#BANNER:Cloud_Crasher_banner.png;
#BACKGROUND:Cloud_Crasher.png;
#LYRICSPATH:;
#CDTITLE:;
#MUSIC:Cloud Crasher.ogg;
#OFFSET:-0.005000;
#SAMPLESTART:20.400000;
#SAMPLELENGTH:12.000000;
#LASTBEATHINT:389.000000;
#SELECTABLE:YES;
#BPMS:0.000000=200.000000
;
#STOPS:
;
#BGCHANGES:;
#KEYSOUNDS:;
#ATTACKS:;

//---------------dance-single - ----------------
#NOTES:
     dance-single:
     :
     Easy:
     7:
     0.340814,0.413237,0.187448,0.170407,0.000000,280.000000,258.000000,22.000000,20.000000,0.000000,0.000000,0.340814,0.413237,0.187448,0.170407,0.000000,280.000000,258.000000,22.000000,20.000000,0.000000,0.000000:
0000
0000
0000
0000
,
0000
0000
0000
0000
,
0000
0000
0000
0000
,
0000
0000
0000
0000
,
0000
0000
0000
0000
,
1001
0000
0100
0000
,
0010
0000
1000
0000
,
0100
0000
1000
0000
,
0001
0000
0010
0000
,
0001
0100
0001
0100
,
0010
0100
0010
0000
,
1000
0100
1000
0100
,
0010
0100
0010
0000
,
0001
1000
0010
0100
,
0001
1000
0100
0000
,
1010
0000
0001
0000
,
0220
0000
0000
0330
,
1000
0100
1000
0010
,
1000
0100
0100
0000
,
0010
0001
0100
0001
,
0010
0100
0100
0000
,
0010
0100
1000
0001
,
1000
0010
0100
0000
,
0010
1000
0001
0100
,
0010
1000
0200
0300
,
1000
0100
0001
0100
,
1000
0001
0100
0000
,
0001
0100
1000
0100
,
0001
1000
0100
0000
,
0010
0001
0010
1000
,
0001
0100
1000
0000
,
0100
0001
0100
1000
,
0001
0010
1000
0000
,
0220
0000
0000
0000
,
0330
0000
0000
0000
,
0001
0000
1000
0000
,
0001
0000
1000
0000
,
1010
0000
0001
0000
,
0011
0000
1000
0000
,
0001
1000
0100
0010
,
0001
1000
2002
3003
,
0010
0000
0000
0010
0000
0000
1000
0000
,
0000
1000
0000
0000
0200
0000
0300
0000
,
0010
0000
0000
0010
0000
0000
0001
0000
,
0000
0001
0000
0000
0200
0000
0300
0000
,
0010
0000
0000
0010
0000
0000
1000
0000
,
0000
1000
0000
0000
0002
0000
0003
0000
,
0010
0000
0000
0010
0000
0000
0100
0000
,
0000
0100
0000
0000
2000
0000
3000
0000
,
1000
0010
1000
0001
,
0010
0001
1000
0000
,
0001
0100
0001
1000
,
0100
1000
0001
0000
,
0010
0001
1000
0010
,
0100
0001
1000
0000
,
1100
0000
0010
0000
,
2002
0000
0000
3003
,
0010
0001
1000
0010
,
1000
0001
0001
0000
,
0100
0001
1000
0100
,
1000
0010
0010
0000
,
1000
0001
0010
0100
,
1000
0001
0001
0000
,
0100
0001
1000
0010
,
0100
0001
0002
0003
,
0010
0001
1000
0100
,
1000
0010
0110
0000
,
1000
0001
0010
0100
,
1000
0001
1001
0000
,
0100
0010
1000
0001
,
0010
0100
1001
0000
,
0100
0001
1000
0010
,
1000
0100
0110
0000
,
2002
0000
0000
0000
,
0000
0000
0000
0000
,
3003
0000
0000
0000
,
0000
0000
0000
0000
,
0010
0010
0100
0010
,
0000
1000
0100
0100
,
1000
0001
0001
0010
,
0000
0010
0002
0000
,
0103
0010
0100
0100
,
0000
0001
0010
0001
,
1000
0001
0010
0100
,
1000
0001
0200
0000
,
0310
0000
0000
0010
0000
0000
1000
0000
,
0000
1000
0000
0000
1100
0000
0000
0000
,
0010
0000
0000
0010
0000
0000
0100
0000
,
0000
0100
0000
0000
0101
0000
0000
0000
,
0001
0000
0000
0010
0000
0000
0100
0000
,
0000
1000
0000
0000
1001
0000
0000
0000
,
0010
0000
0110
0000
,
2002
0000
0000
3003
,
0110
0000
0000
0000
,
0000
0000
0000
0000
,
1001
0000
0100
0000
,
0001
1000
0100
0010
,
1001
0000
0000
0000
;

//---------------dance-single - ----------------
#NOTES:
     dance-single:
     :
     Medium:
     12:
     0.572081,0.619856,0.502701,0.247090,0.000000,470.000000,411.000000,59.000000,29.000000,0.000000,0.000000,0.572081,0.619856,0.502701,0.247090,0.000000,470.000000,411.000000,59.000000,29.000000,0.000000,0.000000:
// measure 0
0000
0000
0000
0000
,  // measure 1
0000
0000
0000
0000
,  // measure 2
0000
0000
0000
0000
,  // measure 3
0000
0000
0000
0000
,  // measure 4
0000
0000
0000
0000
,  // measure 5
0010
1000
1100
0000
,  // measure 6
0010
0100
0101
0000
,  // measure 7
1000
0001
0101
0000
,  // measure 8
0001
1000
1100
0000
,  // measure 9
0010
0000
0010
0000
0010
0001
0010
0000
,  // measure 10
0100
0000
1000
0100
0000
1000
0001
0000
,  // measure 11
0100
0000
0100
0000
0100
0010
0100
0000
,  // measure 12
0001
0000
1000
0001
0000
0010
0001
0000
,  // measure 13
1000
0000
1000
0000
1000
0100
1000
0000
,  // measure 14
0001
0000
0100
0001
0000
0010
0001
0000
,  // measure 15
1100
0000
0101
0000
,  // measure 16
0220
0000
0000
0330
,  // measure 17
1001
0000
0100
0010
1000
0100
0000
0100
,  // measure 18
0000
1000
0001
0000
0010
0001
0100
0000
,  // measure 19
1001
0000
0010
0001
1000
0010
0000
0010
,  // measure 20
0000
0100
0010
0000
1000
0001
0010
0000
,  // measure 21
0101
0000
0010
1000
0100
0010
0000
0001
,  // measure 22
0000
1000
0010
0000
0100
0001
0010
0000
,  // measure 23
1100
0000
0001
1000
0010
0100
0000
0001
,  // measure 24
0000
0010
0001
0000
1000
0010
0200
0000
,  // measure 25
0310
0000
1000
0100
0001
0100
0000
1000
,  // measure 26
0000
0001
0100
0000
0010
0100
0010
0000
,  // measure 27
1000
0000
0001
0010
1000
0010
0000
0001
,  // measure 28
0000
1000
0001
0000
0100
0010
0100
0000
,  // measure 29
0001
0000
1000
0010
0001
0010
0000
1000
,  // measure 30
0000
0010
1000
0000
0001
0010
0100
0000
,  // measure 31
1000
0000
0100
0001
0100
1000
0000
0001
,  // measure 32
0000
1000
0010
0000
0100
0001
1000
0000
,  // measure 33
2002
0000
0000
0000
,  // measure 34
3003
0000
0000
0000
,  // measure 35
0010
0000
0001
0000
1000
0100
0010
0000
,  // measure 36
0001
0000
0100
0000
0001
1000
0010
0000
,  // measure 37
2200
3300
0202
0303
,  // measure 38
0022
0033
2020
3030
,  // measure 39
0100
0000
0010
0000
1000
0001
1000
0000
,  // measure 40
0001
0010
0100
1000
0010
0000
0110
0000
,  // measure 41
1010
0000
0000
1100
0000
0000
0010
0000
,  // measure 42
0000
0011
0000
0000
0001
0000
1001
0000
,  // measure 43
0100
0000
0000
0101
0000
0000
0010
0000
,  // measure 44
0000
1010
0000
0000
1000
0001
0100
0000
,  // measure 45
0010
0000
0000
1100
0000
0000
0010
0000
,  // measure 46
0000
0011
0000
0000
0001
1000
0010
0000
,  // measure 47
1000
0000
0000
0011
0000
0000
0001
0000
,  // measure 48
0000
1100
0000
0000
0001
1000
0002
0000
,  // measure 49
0013
0000
0100
0000
0010
0001
0010
0000
,  // measure 50
0100
1000
0000
0100
1000
0000
0001
0000
,  // measure 51
1000
0000
0010
0000
0100
0010
1000
0000
,  // measure 52
0001
0100
0000
0001
0100
0000
0010
0000
,  // measure 53
1000
0000
0001
0000
0010
0001
1000
0000
,  // measure 54
0001
0000
1000
0100
0000
1000
0001
0000
,  // measure 55
0101
0000
1100
0000
,  // measure 56
2002
0000
0000
3003
,  // measure 57
0010
0000
0001
0100
0010
0100
0000
1001
,  // measure 58
0000
1000
0010
0000
0100
0010
0100
0000
,  // measure 59
0001
0000
0010
0100
1000
0001
0000
1010
,  // measure 60
0000
0100
0001
0000
0010
0001
1000
0000
,  // measure 61
0001
0000
0100
0001
0010
0100
0000
1100
,  // measure 62
0000
0001
0100
0000
0010
1000
0001
0000
,  // measure 63
1000
0000
0010
0100
0010
1000
0000
0101
,  // measure 64
0000
0010
1000
0000
0001
0010
0200
0000
,  // measure 65
1300
0001
0100
0001
0000
0011
0000
1001
,  // measure 66
0000
1000
0010
0000
0100
0010
1000
0000
,  // measure 67
0001
0010
0001
1000
0000
1010
0000
0110
,  // measure 68
0000
1000
0100
0000
1000
0001
0010
0000
,  // measure 69
0001
0100
1000
0100
0000
0101
0000
0010
,  // measure 70
0000
1000
0100
0000
0010
0001
1000
0001
,  // measure 71
1000
0010
0001
0010
0000
1010
0000
0100
,  // measure 72
0000
0001
0010
0001
1000
0100
0010
0000
,  // measure 73
0220
0000
0000
0000
,  // measure 74
0000
0000
0000
0330
,  // measure 75
1001
0000
1001
0000
,  // measure 76
0010
0100
0010
0000
1000
0001
2000
0000
,  // measure 77
3002
0000
0013
0100
0010
0001
1000
0010
,  // measure 78
0000
0010
1000
0001
0100
0010
0100
0000
,  // measure 79
0001
0010
0100
1000
0010
0100
0001
1000
,  // measure 80
0000
1000
0010
1000
0100
0010
0002
0000
,  // measure 81
2003
0000
3010
0100
0010
0100
0010
0001
,  // measure 82
0000
0001
0010
0001
0010
0100
0001
0000
,  // measure 83
1000
0100
0010
0100
0010
0100
1000
0001
,  // measure 84
0000
0001
0010
0100
1000
0000
1001
0000
,  // measure 85
0001
0000
0000
0101
0000
0000
1000
0000
,  // measure 86
0000
0110
0000
0000
1000
0000
1100
0000
,  // measure 87
0001
0000
0000
0110
0000
0000
0001
0000
,  // measure 88
0000
1100
0000
0000
1000
0000
1010
0000
,  // measure 89
0001
0000
0000
0101
0000
0000
0010
0000
,  // measure 90
0000
1100
0000
0000
0010
0000
1001
0000
,  // measure 91
0220
0330
2002
3003
,  // measure 92
0110
0000
0110
0000
0001
1000
0001
0000
,  // measure 93
2020
0000
0000
0000
,  // measure 94
0000
0000
3030
0000
,  // measure 95
0100
0001
1000
0000
0100
1000
0001
0000
,  // measure 96
0100
0001
1000
0010
0100
0001
0010
0000
,  // measure 97
1100
0000
0000
0000
;

//---------------dance-single - ----------------
#NOTES:
     dance-single:
     :
     Hard:
     17:
     0.966452,1.074417,0.664588,0.315253,0.592165,794.000000,716.000000,78.000000,37.000000,0.000000,0.000000,0.966452,1.074417,0.664588,0.315253,0.592165,794.000000,716.000000,78.000000,37.000000,0.000000,0.000000:
// measure 0
0000
0000
0000
0000
,  // measure 1
0000
0000
0000
0000
,  // measure 2
0000
0000
0000
0000
,  // measure 3
0000
0000
0000
0000
,  // measure 4
0000
0000
0000
0000
,  // measure 5
0100
0000
0001
0010
0100
0000
1000
0000
0010
0000
0000
0000
1001
0000
0000
0000
,  // measure 6
0010
0000
0100
1000
0001
0000
0100
0000
0010
0000
0000
0000
0101
0000
0000
0000
,  // measure 7
1000
0000
0100
0010
0001
0000
1000
0000
0010
0000
0000
0000
1100
0000
0000
0000
,  // measure 8
0010
0000
1000
0001
0100
0000
0010
0000
1000
0000
0001
0000
1000
0010
0100
0000
,  // measure 9
0001
0000
0011
0000
1000
0001
1000
0000
,  // measure 10
0001
0100
1000
0200
0000
0001
0301
0000
,  // measure 11
1000
0000
1100
0000
0001
1000
0001
0000
,  // measure 12
1000
0010
0001
0020
0000
1000
1030
0000
,  // measure 13
0001
0100
0001
0100
0010
1000
0010
1000
,  // measure 14
0001
0000
0010
0000
1000
0000
0010
0000
0100
1000
0001
0000
0100
0000
0010
0000
,  // measure 15
1000
0100
1000
0100
1000
0000
0001
0000
0010
0001
0010
0001
0010
0000
0100
0000
,  // measure 16
1000
0001
1000
0001
1000
0001
1000
0001
0200
0000
0000
0000
0300
0000
0000
0000
,  // measure 17
0110
0000
0000
0010
1000
0000
0001
0000
0010
0001
1000
0000
0010
0000
0100
0000
,  // measure 18
0001
0000
0100
0000
1000
0000
0100
0010
1000
0000
0100
0000
1100
0000
0000
0000
,  // measure 19
1000
0000
0000
0001
0010
0000
0100
0000
0010
0001
1000
0000
0100
0000
0010
0100
,  // measure 20
1000
0000
0001
0100
0010
0000
1000
0000
0010
0000
0001
0000
0011
0000
0000
0000
,  // measure 21
1000
0000
0000
0010
1000
0000
0001
0100
0010
0000
1000
0000
0001
0000
0010
0100
,  // measure 22
1000
0000
0010
0000
1000
0000
0001
1000
0010
0000
0100
0000
0101
0000
0000
0000
,  // measure 23
0010
0000
0000
0100
0001
0000
1000
0000
0100
0010
0001
0000
1000
0000
0010
0100
,  // measure 24
0001
0000
1000
0000
0001
0000
0010
0100
1000
0000
0001
0010
0200
0000
0000
0000
,  // measure 25
1300
0000
0010
0100
0001
0000
1000
0010
0100
0000
0001
0000
1000
0000
0001
0000
,  // measure 26
0010
0000
0100
1000
0001
0000
0010
0100
1000
0000
0001
0000
1001
0000
0000
0000
,  // measure 27
0100
0000
0010
1000
0001
0000
0010
0100
1000
0000
0001
0000
0100
0000
0010
0000
,  // measure 28
1000
0000
0001
0010
0100
0000
1000
0001
0010
0000
0100
0000
0110
0000
0000
0000
,  // measure 29
1000
0000
0001
0100
0010
0000
1000
0001
0100
0000
0010
0000
1000
0000
0100
0000
,  // measure 30
0010
0000
0001
1000
0100
0000
0010
0001
1000
0000
0100
0000
0110
0000
0000
0000
,  // measure 31
1000
0000
0001
0100
0010
0000
1000
0001
0010
0000
0100
0000
1000
0000
0010
0000
,  // measure 32
1000
0000
0001
0010
0001
0000
1000
0001
0010
0100
1000
0001
1000
0000
0100
0000
,  // measure 33
0220
0000
0000
0000
,  // measure 34
0000
0000
0000
0330
,  // measure 35
1000
0000
1000
0000
1000
0100
1000
0000
,  // measure 36
0001
0000
0001
0000
0001
0100
0001
0000
,  // measure 37
2020
3030
0022
0033
,  // measure 38
2200
3300
0202
0303
,  // measure 39
0010
0000
0100
0000
0001
0000
1000
0000
0010
1000
0100
0000
0010
0001
0100
0000
,  // measure 40
0001
0010
0100
0000
1000
0010
0100
0000
0001
1000
0010
0100
0001
0000
0010
0000
,  // measure 41
0011
0000
1000
1100
0000
0001
0101
0000
,  // measure 42
0100
0110
0000
1000
1010
0000
0011
0000
,  // measure 43
1100
0000
1000
1001
0000
0001
0011
0000
,  // measure 44
0100
0110
0000
0010
1010
0000
0011
0000
,  // measure 45
0201
0000
0310
0120
0000
1030
2100
0000
,  // measure 46
3001
1002
0000
0013
0011
0000
1100
0000
,  // measure 47
1002
0000
0103
0120
0000
1030
2010
0000
,  // measure 48
3100
1200
0000
0310
0110
0000
1001
0000
,  // measure 49
0011
0000
0011
0000
1000
0001
1000
0000
,  // measure 50
1000
0010
0001
0020
0000
1030
1010
0000
,  // measure 51
1100
0000
1100
0000
0001
1000
0001
0000
,  // measure 52
1000
0100
0001
0200
0000
1300
1100
0000
,  // measure 53
1001
0000
0011
0000
1000
0001
0010
0000
,  // measure 54
0001
0000
0100
0000
0010
0000
1000
0000
0001
0010
0100
0000
1000
0000
0010
0000
,  // measure 55
0100
0001
0010
0001
0100
0000
0010
0000
1000
0100
0010
0100
1000
0000
0001
0000
,  // measure 56
0100
0010
0100
0010
0100
0010
0100
0010
2000
0000
0000
0000
3000
0000
0000
0000
,  // measure 57
1001
0000
0000
0001
0010
0000
0001
0100
0010
0000
1000
0000
0001
1000
0010
0000
,  // measure 58
1000
0000
0001
0100
0001
0000
0010
0000
0100
0000
1000
0000
0100
0000
0001
0000
,  // measure 59
0100
0000
1000
0001
0100
0000
0010
1000
0001
0000
0010
0000
0001
0100
0010
0000
,  // measure 60
1000
0000
0100
0010
0001
0000
0010
0000
1000
0000
0010
0000
0001
0000
0010
0000
,  // measure 61
0100
0000
1000
0010
1000
0000
0001
0010
0001
0000
1000
0000
0001
0010
0100
0000
,  // measure 62
1000
0000
0010
0100
0001
0000
1000
0001
0100
0000
0010
0000
1000
0000
0100
0000
,  // measure 63
1000
0000
0010
1000
0100
0000
0010
0001
0100
0000
0001
0000
1000
0010
0100
0000
,  // measure 64
0001
0000
0010
0100
1000
0000
0001
0000
1000
0001
0010
0100
2000
0000
0000
0000
,  // measure 65
3010
0000
0100
0001
0100
0000
0010
0000
0100
1000
0100
0000
0001
0000
0010
0000
,  // measure 66
0100
0000
1000
0100
0010
0000
0100
0000
1000
0000
0100
0000
0001
0000
0100
0000
,  // measure 67
1000
0000
0010
0100
0010
0000
1000
0000
0001
0010
0001
0000
1000
0000
0010
0000
,  // measure 68
0100
0000
0001
0010
0100
0000
1000
0000
0010
0000
0001
0000
0010
0000
1000
0000
,  // measure 69
0100
0000
0010
0001
0010
0000
0100
0000
0010
0001
0010
0000
0100
0000
1000
0000
,  // measure 70
0010
0000
0100
0001
0100
0000
0010
0000
1000
0010
0100
0000
0001
0000
0010
0000
,  // measure 71
0100
0000
1000
0001
1000
0000
0100
0000
1000
0001
1000
0000
0010
0000
0100
0000
,  // measure 72
0001
0000
0010
0100
0010
0000
0001
0000
1000
0001
0010
0100
0010
0000
0001
0000
,  // measure 73
2002
0000
0000
0000
,  // measure 74
0000
0000
3003
0000
,  // measure 75
0010
0100
0010
0100
0010
0000
0100
0000
0001
0100
0001
0100
0001
0000
0100
0000
,  // measure 76
0010
1000
0010
0000
0100
0001
0100
0000
0001
0010
0100
1000
0001
0000
0000
0000
,  // measure 77
0011
0000
0000
0000
1100
0000
0100
1000
0010
0000
0100
0000
0001
0000
0011
0000
,  // measure 78
0000
0000
1000
0001
0100
0000
0010
0000
1000
0000
0010
0000
0001
0000
0010
0000
,  // measure 79
1000
0001
0010
0000
0100
0000
0100
1000
0001
0000
0010
0001
1000
0000
0010
0000
,  // measure 80
0100
0000
0101
0000
0001
0000
0011
0000
0010
0100
1000
0001
0100
0000
0010
0000
,  // measure 81
0110
0000
0000
0000
1000
0000
0010
1000
0001
0000
0010
0001
1000
0001
0010
0000
,  // measure 82
0000
0000
0100
1000
0001
1000
0100
0000
1000
0000
0001
0000
0010
0100
1000
0000
,  // measure 83
0001
0100
0001
0000
1000
0000
0010
1000
0001
0000
1000
0100
0010
0000
0001
0000
,  // measure 84
1000
0000
0010
0100
0001
0100
0010
0100
0001
0000
1000
0001
0010
0000
0100
0000
,  // measure 85
2100
0000
3001
0021
0000
0031
0201
0000
,  // measure 86
0310
0120
0000
1030
1010
0000
0011
0000
,  // measure 87
0201
0000
0310
0120
0000
1030
2010
0000
,  // measure 88
3001
1002
0000
0103
0101
0000
1100
0000
,  // measure 89
1010
0010
0100
0110
0010
1000
1100
0100
,  // measure 90
1000
1001
0001
0010
0011
0000
1010
0000
,  // measure 91
0101
0000
0100
0000
0001
0010
0100
0000
1000
0000
0010
0000
1000
0001
0100
0000
,  // measure 92
0010
1000
0100
0000
0010
0001
0100
0000
0001
1000
0100
1000
0010
0100
0001
0010
,  // measure 93
0002
0000
0000
0000
,  // measure 94
0000
0000
0000
0003
,  // measure 95
0110
0000
1001
0000
,  // measure 96
0010
0100
1000
0000
0001
0010
0100
0000
1000
0010
0100
0001
0010
0100
1000
0001
,  // measure 97
0100
0000
0000
0000
;
