#TITLE:Chewingood!!!;
#SUBTITLE:;
#ARTIST:TORIENA;
#TITLETRANSLIT:;
#SUBTITLETRANSLIT:;
#ARTISTTRANSLIT:;
#GENRE:CHIP RAVE;
#CREDIT:;
#BANNER:Chewingood!!!_banner.png;
#BACKGROUND:Chewingood!!!.png;
#LYRICSPATH:;
#CDTITLE:;
#MUSIC:Chewingood!!!.ogg;
#OFFSET:0.790000;
#SAMPLESTART:64.889999;
#SAMPLELENGTH:15.000000;
#SELECTABLE:YES;
#BPMS:0.000000=190.000000
;
#STOPS:
;
#BGCHANGES:;
#KEYSOUNDS:;
#ATTACKS:;

//---------------dance-single - ----------------
#NOTES:
     dance-single:
     :
     Easy:
     7:
     0.339243,0.385993,0.184606,0.176214,0.000000,283.000000,261.000000,22.000000,21.000000,0.000000,0.000000,0.339243,0.385993,0.184606,0.176214,0.000000,283.000000,261.000000,22.000000,21.000000,0.000000,0.000000:
0000
0000
0000
0000
,
0000
0000
0000
0000
,
0000
0000
0000
0000
,
0000
0000
0000
0000
,
0000
0000
0000
0000
,
1000
0001
1000
0000
,
0001
1000
0001
0000
,
0100
0010
0100
0000
,
0010
0100
0010
0000
,
1010
0000
1010
0000
,
0101
0000
0101
0000
,
0011
0000
0011
0000
,
1100
0000
1100
0000
,
1000
1000
0001
0001
,
0100
0100
0010
0010
,
1000
0100
0010
0001
,
0010
0001
1000
0100
,
2000
0000
0000
3000
,
0002
0000
0000
0003
,
0100
0010
0010
0000
,
1000
0001
0001
0000
,
0010
1000
1000
0000
,
0001
0100
0100
0000
,
0010
1000
0100
0000
,
0010
0001
0100
0000
,
0010
0010
0100
0100
,
2002
0000
0000
3003
,
0100
0010
0100
0000
,
0001
0010
0001
0000
,
1000
0100
1000
0000
,
0001
0100
0001
0000
,
1000
0010
1000
0000
,
0001
0100
0010
0000
,
0100
0001
1000
0010
,
1000
0100
0020
0030
,
0001
0000
0001
0000
,
1000
0000
1000
0000
,
0010
0000
0010
0000
,
0100
0000
0100
0000
,
0001
0001
0001
0000
,
1000
1000
1000
0000
,
0010
0010
0010
0000
,
0100
0100
0100
0000
,
0001
0000
1000
0000
,
0001
0000
1001
0000
,
0100
0000
0010
0000
,
0100
0000
0110
0000
,
1000
1000
0001
0001
,
0010
0010
0100
0100
,
0010
0001
1000
0100
,
1000
0001
0010
0100
,
2002
0000
0000
3003
,
1000
0010
1000
0100
,
1000
0001
0020
0030
,
0001
0100
0001
0010
,
0001
1000
0200
0300
,
1000
0100
0010
0001
,
0010
0100
2000
3000
,
0001
0010
0100
1000
,
0010
0100
0110
0000
,
1000
0010
0100
0010
,
1000
0001
0020
0030
,
0001
0100
0010
0100
,
0001
1000
0020
0030
,
1000
0100
1000
0001
,
0010
0001
0200
0300
,
0001
0100
0001
1000
,
0010
1000
0020
0130
,
0001
0001
0010
0000
,
0100
0100
1000
0000
,
0001
0100
0010
0000
,
1000
0010
0100
0000
,
0010
1000
0010
0000
,
0100
0001
0100
0000
,
0001
0010
0100
0000
,
1000
0010
0110
0000
,
0100
0001
0010
0001
,
0100
0010
0100
0000
,
0010
1000
0100
1000
,
0010
0100
0020
0030
,
1000
0001
0100
0010
,
1000
0010
0100
0000
,
0001
0010
0100
1000
,
0100
0010
0001
0000
,
1001
0000
1001
0000
,
0220
0000
0000
0330
,
0110
0000
1001
0000
,
0220
0000
0000
0330
,
1000
0010
0100
0001
,
0010
0100
1100
0000
,
0001
0100
0010
1000
,
0010
0100
0001
0022
,
0033
0000
0000
0000
;

//---------------dance-single - ----------------
#NOTES:
     dance-single:
     :
     Medium:
     12:
     0.549022,0.617590,0.318864,0.268517,0.000000,458.000000,420.000000,38.000000,32.000000,0.000000,0.000000,0.549022,0.617590,0.318864,0.268517,0.000000,458.000000,420.000000,38.000000,32.000000,0.000000,0.000000:
0000
0000
0000
0000
,
0000
0000
0000
0000
,
0000
0000
0000
0000
,
0000
0000
0000
0000
,
0000
0000
0000
0000
,
1000
0001
1000
0001
,
0100
0010
0100
0010
,
1000
0010
1000
0010
,
0100
0001
0100
0001
,
1010
0010
0101
0100
,
1001
1000
0110
0010
,
1001
0001
1100
1000
,
0101
0100
0011
0010
,
0001
0001
1000
1000
,
0010
0010
0100
0100
,
0001
0010
0001
0000
1000
0010
1000
0000
,
0001
0100
0001
0000
1000
0100
1000
0000
,
0002
0000
0000
1003
,
0010
0000
0100
0000
0001
0010
0100
0000
,
1000
0010
1000
0000
0001
0000
0100
0000
,
0010
0100
0010
0000
1000
0000
0001
0000
,
0010
0001
0010
0000
0100
1000
0100
0000
,
1000
0001
1000
0001
1000
0000
0010
0000
,
0100
0001
0100
0000
0010
0000
1000
0000
,
0100
1000
0100
0000
0010
0000
0001
0000
,
0100
0001
0100
0000
0010
1000
0010
0000
,
1000
0100
0010
0001
1000
0000
1001
0000
,
0001
0000
0010
0000
0001
1000
0001
0000
,
1000
0000
0010
0000
1000
0001
1000
0000
,
0001
0000
0100
0000
0001
1000
0001
0000
,
1000
0000
0100
0000
0010
0001
0010
0000
,
0001
0000
1001
0000
1000
0010
1000
0000
,
0010
0000
0110
0000
0100
0001
1000
0000
,
0001
0000
0100
0000
0010
1000
0010
0000
,
1000
0001
0220
0330
,
2100
0001
0001
3001
,
0012
1000
1000
1003
,
1020
0100
0100
0130
,
0102
0010
0010
0013
,
1000
0100
0001
0100
,
1000
0010
0001
0010
,
1000
0001
0100
0010
,
1000
0000
0100
0000
0010
0001
1000
0000
,
1001
0000
0110
0000
,
0011
0000
1100
0000
,
0101
0000
1010
0000
,
2100
3100
0012
0013
,
2001
0001
0010
3010
,
0102
0100
1000
1003
,
1000
0100
1000
0100
0010
0001
0010
0001
,
1000
0100
0010
0001
0010
0100
1000
0000
,
0002
0000
0000
0103
,
1000
0000
0010
0000
1000
0010
0000
0100
,
0000
0001
0010
0001
0020
0000
0030
0000
,
0001
0000
0100
0000
0001
0100
0000
0010
,
0000
1000
0100
1000
0200
0000
0300
0000
,
1000
0000
0001
0000
1000
0001
0000
0100
,
0000
0010
0100
0010
0200
0000
0300
0000
,
0001
0000
1000
0000
0001
0010
0000
0001
,
0000
1000
0100
0010
0001
0000
1001
0000
,
1000
0000
0010
0000
0100
0001
0100
0010
,
0000
1000
0100
0010
0002
0000
1003
0000
,
0001
0000
0100
0000
0010
1000
0010
0100
,
0000
0001
0010
0100
2000
0000
3001
0000
,
1000
0000
1010
0000
0001
0010
0001
0100
,
0000
0010
1000
0100
0020
0000
0031
0000
,
0100
0000
0101
0000
1000
0100
1000
0010
,
0000
0100
0001
0010
0200
0000
1300
0000
,
0001
0100
1000
0100
0001
0000
0010
0000
,
0001
0010
1000
0010
0001
0000
0100
0000
,
0010
1000
0001
0100
0010
0000
1001
0000
,
1000
0001
0100
0010
1000
0001
0001
0000
,
1000
0100
0001
0100
1000
0000
0010
0000
,
1000
0010
0001
0010
1000
0000
0100
0000
,
0010
0001
0010
0001
1000
0100
1000
0100
,
0010
0100
1000
0001
0200
0000
0310
0000
,
2000
0010
0001
3010
,
0002
0100
1000
0103
,
2000
0010
0100
3010
,
0002
0103
0110
1001
,
1002
0010
0010
0013
,
2001
0100
0100
3100
,
0001
0010
0001
0000
1000
0100
1000
0000
,
0001
0010
0100
0000
1100
0000
0000
0000
,
0012
0000
1003
0000
0001
0010
0000
0100
,
0000
1000
0001
1000
0200
0000
0310
0000
,
2100
0000
3001
0000
1000
0100
0000
0010
,
0000
0001
1000
0001
0020
0000
0130
0000
,
1000
0000
1100
0000
0001
0100
0000
0010
,
0000
1000
0010
0100
0002
0000
1003
0000
,
1000
0100
1000
0100
0010
0001
0010
0001
,
1000
0100
0010
0001
0010
0100
2000
0000
,
3000
0000
0000
0000
;

//---------------dance-single - ----------------
#NOTES:
     dance-single:
     :
     Hard:
     15:
     0.763596,0.848609,0.738422,0.276908,0.037760,637.000000,549.000000,88.000000,33.000000,0.000000,0.000000,0.763596,0.848609,0.738422,0.276908,0.037760,637.000000,549.000000,88.000000,33.000000,0.000000,0.000000:
0000
0000
0000
0000
,
0000
0000
0000
0000
,
0000
0000
0000
0000
,
0000
0000
0000
0000
,
0000
0000
0000
0000
,
0001
0010
0100
1000
0010
0100
0001
0010
,
0100
1000
0010
0100
0001
1000
0100
0010
,
0001
0100
0010
1000
0100
1000
0001
0010
,
0001
0100
0010
1000
0100
1000
0001
0000
,
0100
0010
0100
0010
1000
0001
1000
0001
,
1000
0100
1000
0100
0010
0001
0010
0001
,
0100
0001
0100
0001
1000
0010
0100
0001
,
1000
0100
0010
0001
0010
0100
1000
0001
,
0010
0001
0010
0001
1000
0100
1000
0100
,
1000
0001
1000
0001
0100
0010
0100
0010
,
1000
0100
0010
0001
1000
0100
0010
0001
,
0010
0100
1000
0001
0100
0010
1000
0100
,
0020
0000
0000
0000
0030
0001
0001
0001
,
1000
0000
0100
0000
1000
0000
0010
0000
0100
0000
0001
0010
0001
0000
1000
0000
,
0001
0010
0100
0010
0001
0000
0100
0010
,
1000
0100
0010
0100
1000
0000
0001
0100
,
0010
0100
0001
1000
0000
1000
0001
0010
,
0001
1000
0100
0010
0001
0000
1001
0000
,
1000
0100
0001
0100
1000
0000
0010
0100
,
0001
0010
1000
0010
0001
0000
0101
0000
,
1010
0000
1100
0000
0001
0010
0100
1000
,
0010
0100
0010
0100
0110
0000
1001
0000
,
1000
0100
0010
0100
1000
0100
0010
0100
,
0010
0001
0010
0100
0010
0001
0010
0100
,
1000
0001
1000
0001
0000
0110
0000
1000
,
0001
0010
1000
0010
0001
0100
0002
0000
,
0103
0010
0100
0001
0010
0001
1000
0100
,
1000
0001
0100
0000
0022
0000
0033
1000
,
0010
0100
0010
0000
1001
1000
0010
0100
,
0001
0100
1000
0000
0220
0000
0330
0000
,
1010
1100
1010
1100
,
0011
0000
0101
0000
0011
0000
0001
1000
,
0010
0110
1001
0110
,
1010
0000
0101
0000
0001
0010
0100
1000
,
0001
0101
1001
0101
,
1001
0000
1010
0000
1001
0000
1000
0010
,
0100
0000
0101
0000
1100
0000
0100
0001
,
0010
0100
0010
0001
1000
0000
1001
0000
,
0210
0301
0120
1030
,
0210
0301
0120
1030
,
2100
3001
1002
0103
,
2001
3010
1002
0013
,
1100
1100
0011
0011
,
1010
1010
0101
0101
,
1000
0010
1000
0010
0100
0001
0100
0001
,
0010
0001
0010
0000
0100
1000
0100
0000
1000
0001
1000
0000
0010
0100
0010
0000
,
2002
0000
3003
0110
,
0102
0000
1003
0000
0010
0100
0001
2000
,
0000
3001
0010
0100
0010
0000
1001
0000
,
2100
0000
3001
0000
0010
0100
1000
0010
,
0000
0010
0100
0001
0010
0000
1100
0000
,
0102
0000
1003
0000
0010
1000
0100
0010
,
0000
0010
0001
0100
0010
0000
1010
0000
,
0102
0000
1003
0000
0100
0001
0010
0100
,
0000
0100
1000
0001
1001
0000
0110
0000
,
1000
0100
1100
0000
0001
0100
0010
1010
,
0000
1000
0001
0010
0100
0000
1001
0000
,
0010
0001
0011
0000
1000
0010
0100
0101
,
0000
0001
0010
0100
1000
0000
0101
0000
,
1000
0010
1010
0000
0100
0001
0010
0011
,
0000
0001
1000
0100
0010
0000
0110
0000
,
0001
0100
0101
0000
0010
1000
0100
1100
,
0000
0001
0010
0100
1000
0000
0110
0000
,
0001
0100
1000
0100
0102
0000
1003
0100
,
1000
0010
0001
0010
2010
0000
3001
0010
,
0001
0100
0010
1000
0001
0010
0100
1000
,
0010
0100
0001
1000
0200
0010
0310
0000
,
0001
0010
1000
0010
0012
0000
1003
0010
,
1000
0100
0001
0100
1100
0000
1001
0000
,
0011
0000
1100
0000
1010
0000
0001
0100
,
0001
0010
0100
1000
0001
0000
1001
0000
,
1000
0010
0100
0010
1000
0001
0010
0001
,
0100
0010
1000
0001
0100
0010
0100
0001
,
1000
0100
0010
0100
0000
0011
0000
1000
,
0100
0001
0100
0010
0001
0000
1100
0000
,
1000
0010
0100
1000
0100
0010
0100
0001
,
0010
0100
0010
0000
0022
0000
0033
1000
,
0010
0100
0001
0000
0010
0001
0100
1000
,
0100
0001
0010
0100
2000
0000
3000
0000
,
0102
0000
0013
0000
0001
1000
0010
0100
,
0000
0100
0001
0010
0100
0000
1100
0000
,
2010
0000
3001
0000
0100
0001
0010
0002
,
0000
1003
0100
0010
0100
0000
0110
0000
,
0011
0000
0011
0000
1000
0010
0100
0020
,
0000
1030
0001
0010
0200
0000
0310
0000
,
0001
0010
0001
0010
0100
1000
0100
1000
,
0001
0000
0100
0000
1000
0000
0100
0000
0001
0010
0001
0010
0100
1000
0100
1000
;

//---------------dance-single - ----------------
#NOTES:
     dance-single:
     :
     Challenge:
     16:
     0.873880,1.042182,0.520252,0.142650,0.213975,729.000000,667.000000,62.000000,17.000000,0.000000,0.000000,0.873880,1.042182,0.520252,0.142650,0.213975,729.000000,667.000000,62.000000,17.000000,0.000000,0.000000:
// measure 0
0000
0000
0000
0000
,  // measure 1
0000
0000
0000
0000
,  // measure 2
0000
0000
0000
0000
,  // measure 3
0000
0000
0000
0000
,  // measure 4
0000
0000
0000
0000
,  // measure 5
1000
0010
0001
0010
1000
0100
0010
0001
,  // measure 6
1000
0001
0010
1000
0010
0001
0200
0000
,  // measure 7
0310
1000
0001
1000
0100
0001
0100
1000
,  // measure 8
0001
0010
1000
0001
0100
1000
1001
0000
,  // measure 9
0010
0100
1000
0100
0010
1000
0100
0010
,  // measure 10
0100
1000
0001
0010
0100
1000
1100
0000
,  // measure 11
0001
0100
0010
0100
0001
0010
0100
0001
,  // measure 12
0100
0010
0001
1000
0010
0100
0101
0000
,  // measure 13
0001
0010
0100
1000
0010
1000
0100
0001
,  // measure 14
0100
1000
0010
0001
1000
0100
0010
0100
,  // measure 15
0001
0010
0001
0010
0001
0000
1000
0000
0100
1000
0100
1000
0100
0000
1000
0000
,  // measure 16
0001
0010
0100
0000
1000
0010
0100
0000
0001
1000
0001
1000
0100
0010
0100
0010
,  // measure 17
0002
0000
0000
0000
0000
1003
1000
1000
,  // measure 18
1000
0000
0010
0000
0100
0000
0001
0000
0100
0000
1000
0100
0001
0000
0100
0000
,  // measure 19
0010
1000
0100
0001
0200
0000
1300
0010
,  // measure 20
0001
0010
0100
0001
2000
0000
3001
0100
,  // measure 21
0010
1000
0001
0010
0001
1000
0010
0001
,  // measure 22
0010
1000
0100
0010
0110
0000
1100
0000
,  // measure 23
0001
0010
1000
0010
0011
0000
1000
0100
,  // measure 24
1000
0100
0001
0100
1100
0000
0010
0001
,  // measure 25
0100
0000
0001
0010
0001
0000
0010
0000
0001
0000
1000
0100
1000
0000
0010
0000
,  // measure 26
0100
1000
0010
0001
0100
0000
1001
0000
,  // measure 27
0100
0000
1000
0000
0010
0000
1000
0000
0001
0000
0010
0001
1000
0000
0010
0000
,  // measure 28
1000
0100
0010
0100
1000
0001
0010
0001
,  // measure 29
0100
1000
0100
0001
0010
0011
0000
1000
,  // measure 30
0010
0100
0010
1000
0001
0010
1100
0000
,  // measure 31
0010
1000
0010
0100
0001
0010
1000
0001
,  // measure 32
0100
1000
0001
0000
1010
0000
0100
0100
,  // measure 33
0001
0000
0010
0001
1000
0000
0010
0000
0100
0000
0001
1000
0100
0000
1000
0000
,  // measure 34
0010
0100
0010
0000
1000
0000
0001
0000
0011
0000
0000
0000
1100
0000
0000
0000
,  // measure 35
0101
0000
0101
0000
1100
0000
0010
1000
,  // measure 36
1001
0000
0101
0000
1000
0010
0001
0010
,  // measure 37
1010
0000
1100
0000
0011
0000
0010
0001
,  // measure 38
1000
0000
0010
0000
0100
0000
0010
0000
1000
0000
0001
0010
0100
0000
1000
0000
,  // measure 39
0001
0100
0010
0100
0001
1000
0010
1000
,  // measure 40
0100
0010
0100
1000
0001
0010
0100
0010
,  // measure 41
0001
1000
0100
1000
0010
0100
0001
1000
,  // measure 42
0100
0001
1000
0010
0001
1000
1001
0000
,  // measure 43
0012
1003
2010
3100
,  // measure 44
1100
0000
0101
0000
0001
1000
0100
0010
,  // measure 45
0120
0031
2010
3100
,  // measure 46
1001
0000
1100
0000
1000
0001
0010
0100
,  // measure 47
0010
0001
1000
0001
1000
0010
0100
0001
,  // measure 48
1000
0100
1000
0001
0010
0100
1000
0010
,  // measure 49
1000
0100
1000
0100
1000
0000
0001
0000
0010
0001
0010
0001
0010
0000
0100
0000
,  // measure 50
1000
0010
1000
0000
0001
0010
0001
0000
1000
0100
1000
0100
0010
0001
0010
0001
,  // measure 51
0200
0000
0300
0110
,  // measure 52
1000
0001
0011
0000
1000
0001
0010
0110
,  // measure 53
0000
0010
0001
1000
0010
0100
1100
0000
,  // measure 54
0100
0001
1001
0000
1000
0010
0100
0101
,  // measure 55
0000
0010
0001
1000
0100
1000
1010
0000
,  // measure 56
0001
1000
1100
0000
0001
1000
0100
0110
,  // measure 57
0000
0100
1000
0001
0100
0010
0011
0000
,  // measure 58
1000
0010
1000
0000
0001
0000
0010
0000
0001
0100
0001
0000
1000
0000
0100
0000
,  // measure 59
1000
0001
1000
0000
0001
0000
0010
0000
0100
0000
0010
0000
0011
0000
0000
0000
,  // measure 60
1000
0001
0101
0100
0010
1000
0100
0110
,  // measure 61
0000
0000
1000
0000
0001
0000
0010
0000
0001
0000
1000
0001
1000
0000
0010
0000
,  // measure 62
0100
0001
0011
0010
0001
1000
0010
0110
,  // measure 63
0000
0000
0001
0000
1000
0000
0010
0000
0100
0000
0001
1000
0001
0000
0010
0000
,  // measure 64
0100
1000
1001
0001
0100
0010
1000
1100
,  // measure 65
0000
0000
0010
0000
0100
0000
1000
0000
0001
0000
0010
0001
0100
0000
0001
0000
,  // measure 66
1000
0001
0010
0000
0001
0000
0100
0000
0010
1000
0100
0000
1000
0000
0002
0000
,  // measure 67
0000
0013
1000
0010
0001
1000
1100
0000
,  // measure 68
1000
0010
0001
0010
2010
0000
3001
0100
,  // measure 69
1000
0100
0001
0010
0012
0000
1003
0010
,  // measure 70
1000
0000
0100
0000
0010
0000
0100
0000
1000
0000
0001
0010
0001
0000
1000
0000
,  // measure 71
0100
0001
0100
1000
0002
0010
0013
0000
,  // measure 72
0001
0100
1000
0100
0102
0000
1003
0010
,  // measure 73
0001
0010
1000
0100
0010
0001
1000
0001
,  // measure 74
0010
0000
0100
0000
1000
0000
0010
0000
0100
0000
0001
1000
0010
0000
1000
0000
,  // measure 75
0001
0010
1000
0010
0011
0000
1100
0000
,  // measure 76
1000
0010
0100
0001
1000
0100
0010
0001
,  // measure 77
1000
0100
0001
0100
1000
0001
0001
1000
,  // measure 78
0010
0100
0001
0010
0000
1001
0000
0010
,  // measure 79
0100
0000
0001
0000
0010
0000
1000
0000
0010
0000
0001
1000
0001
0000
0010
0000
,  // measure 80
0100
1000
0010
0100
0001
0010
0001
1000
,  // measure 81
0010
0100
0001
0000
2100
0000
3010
0001
,  // measure 82
0010
1000
0001
1000
0100
0001
1000
0010
,  // measure 83
0001
0000
0010
0000
1000
0000
0010
0000
0001
0000
0100
0010
0100
0000
0001
0000
,  // measure 84
1000
0010
0110
0000
1000
0001
0010
0011
,  // measure 85
0000
0000
0100
0000
0001
0000
1000
0000
0100
0000
0010
0100
0010
0000
0001
0000
,  // measure 86
1000
0001
0011
0000
0100
0010
1000
1100
,  // measure 87
0000
0000
0001
0000
0010
0000
0001
0000
1000
0000
0100
0010
0100
0000
1000
0000
,  // measure 88
0001
0010
0011
0001
1000
0010
1000
1001
,  // measure 89
0000
0000
0100
0000
0010
0000
1000
0000
0001
0000
0010
0001
1000
0000
0010
0000
,  // measure 90
1000
0100
0010
0100
1000
0000
0001
0000
0100
0001
1000
0001
0100
0000
0010
0000
,  // measure 91
1000
0010
1000
0010
0100
0001
0100
0001
0010
0000
0001
0000
2020
0000
0000
0000
,  // measure 92
3030
0000
0000
0000
;
