#TITLE:ChaserXX;
#SUBTITLE:;
#ARTIST:HuΣeR;
#TITLETRANSLIT:;
#SUBTITLETRANSLIT:;
#ARTISTTRANSLIT:HuMeR;
#GENRE:CYBERNETICS PIANO HOUSE;
#CREDIT:;
#BANNER:ChaserXX_banner.png;
#BACKGROUND:ChaserXX.png;
#LYRICSPATH:;
#CDTITLE:;
#MUSIC:ChaserXX.ogg;
#OFFSET:-0.200000;
#SAMPLESTART:84.199997;
#SAMPLELENGTH:13.700000;
#SELECTABLE:YES;
#DISPLAYBPM:140.000000;
#BPMS:0.000000=140.000000
,75.000000=280.000000
,75.500000=140.000000
,75.750000=70.000000
,76.000000=140.000000
,91.000000=280.000000
,91.500000=140.000000
,91.750000=70.000000
,92.000000=140.000000
;
#STOPS:
;
#BGCHANGES:;
#KEYSOUNDS:;
#ATTACKS:;

//---------------dance-single - ----------------
#NOTES:
     dance-single:
     :
     Easy:
     6:
     0.242500,0.251368,0.086849,0.165802,0.000000,215.000000,204.000000,11.000000,21.000000,0.000000,0.000000,0.242500,0.251368,0.086849,0.165802,0.000000,215.000000,204.000000,11.000000,21.000000,0.000000,0.000000:
0000
0000
0000
0000
,
0000
0000
0000
0000
,
0000
0000
0000
0000
,
1000
0000
0001
0000
,
1000
0000
0001
0000
,
1100
0000
0001
0000
,
0010
0000
0001
0000
,
0110
0000
1000
0000
,
0001
0000
0202
0303
,
0010
0100
0000
0100
,
0001
0010
0000
0010
,
0100
1000
0000
1000
,
0001
0000
1010
0000
,
0100
0001
1000
0000
,
0001
0010
0100
0000
,
0100
1000
0010
0100
,
0001
0000
2002
3003
,
0010
0001
0010
0001
,
1000
0010
1000
0000
,
0010
0100
0010
1000
,
0100
1000
0001
0000
,
0100
0001
0010
0001
,
1000
0001
0010
0000
,
0100
1000
0010
1000
,
0001
1000
0020
0000
,
0130
0001
0000
0001
,
0010
0100
1000
0000
,
0020
0000
0130
0001
,
1000
0100
1000
0000
,
0200
0000
0310
0001
,
1000
0010
0100
0000
,
0001
0010
0100
1000
,
0010
0100
1001
0000
,
0100
0010
0100
0001
,
0010
0100
1000
0000
,
0010
1000
0001
0100
,
0001
0100
0010
0000
,
1000
0100
1000
0001
,
1000
0100
0010
0000
,
0001
0100
0010
1000
,
0100
1000
1001
0000
,
0020
0000
0130
0000
,
0200
0000
0310
0000
,
2000
0000
3001
0000
,
0001
0000
1001
0000
,
0010
0001
0100
0000
,
0010
1000
0100
0000
,
1000
0100
0001
0100
,
1000
0010
0220
0330
,
0001
0010
0001
0100
,
0001
1000
0001
0000
,
1000
0010
1000
0001
,
1000
0100
1000
0000
,
0010
1000
0010
0100
,
0010
0001
0010
0000
,
0100
0001
0100
1000
,
0100
0010
2002
3003
,
0010
1000
0100
1000
,
0001
0010
0001
0000
,
0100
0001
0010
0100
,
1000
0010
0001
0000
,
0010
0100
1000
0001
,
0010
0001
0100
0000
,
0100
1000
0010
0001
,
0010
0100
2002
3003
,
0010
0100
0010
0100
,
0001
0010
0200
0000
,
2300
0000
3000
0000
,
0002
0000
0003
0000
,
0020
0000
0030
0000
,
0200
0000
0000
0300
;

//---------------dance-single - ----------------
#NOTES:
     dance-single:
     :
     Medium:
     11:
     0.475976,0.474387,0.150011,0.071058,0.205279,422.000000,403.000000,19.000000,9.000000,0.000000,0.000000,0.475976,0.474387,0.150011,0.071058,0.205279,422.000000,403.000000,19.000000,9.000000,0.000000,0.000000:
0000
0000
0000
0000
,
0000
0000
0000
0000
,
0000
0000
0000
0000
,
0100
0000
0000
0100
0000
0000
0000
0000
0010
0000
0000
0010
0000
0000
0000
0000
,
1000
0000
0000
1000
0000
0000
0000
0000
0001
0000
0000
0001
0000
0000
1000
0000
,
0100
0000
0000
1001
0000
0000
0000
0000
0100
0000
0000
0110
0000
0000
0000
0000
,
0010
0000
0000
1001
0000
0000
0000
0000
0010
0000
0000
1100
0000
0000
0001
0000
,
0010
0000
0000
0101
0000
0000
0000
0000
0010
0000
0000
1001
0000
0000
0100
0000
,
0010
0000
0000
1000
0000
0000
0100
0000
1000
0000
0010
0000
0200
0000
0000
0000
,
0301
0000
0011
0000
1000
0001
0010
0000
,
0001
0100
0010
0000
1000
0100
0010
0000
,
0100
1000
0010
0000
0100
0010
1000
0000
,
0001
0010
0100
0000
0010
0100
0001
0000
,
0100
0000
0000
1000
0000
0000
0010
0000
0000
0100
0000
0000
0001
0000
0000
0010
,
0000
0000
0001
0000
0000
1000
0000
0000
0010
0000
0000
0100
0000
0000
0001
0000
,
0010
0001
0100
0010
1000
0100
0010
0000
,
0001
0000
0000
0100
0000
0000
0010
0000
2000
0000
0000
0000
3000
0000
0000
0000
,
0100
0000
0000
0100
0010
0000
0000
0000
0001
0000
1000
0000
0001
0000
0000
0000
,
0100
0000
0000
0100
0010
0000
0000
0000
0100
0000
0001
0000
2000
0000
0000
0000
,
3010
0000
0000
0010
0100
0000
0000
0000
0001
0000
0010
0000
0100
0000
0000
0000
,
0010
0000
0000
0010
0001
0000
0000
0000
1000
0000
0010
0000
0100
0000
0001
0000
,
0010
0000
0000
0100
1000
0000
0000
0000
0010
0000
0100
0000
0001
0000
0000
0000
,
1000
0000
0000
0010
0100
0000
0000
0000
0001
0000
0010
0000
0200
0000
0000
0000
,
1300
0000
0000
0010
1000
0000
0000
0000
0001
0000
0010
0000
0100
0000
0000
0000
,
1000
0000
0000
0010
0100
0000
0001
0000
0020
0000
0000
0000
0001
0000
0000
0000
,
0130
0000
1100
0000
0010
0100
0001
0000
,
0010
0100
1000
0001
1000
0010
0100
0000
,
0001
0000
0000
1000
0000
0000
0010
0000
0100
0000
0010
0000
1000
0000
0100
0000
,
0010
0000
0000
0100
0000
0000
1000
0000
0010
0000
0100
0000
0001
0000
0000
0000
,
0010
0000
0000
0000
0110
0000
0000
0000
1000
0000
0000
0001
0000
0000
0010
0000
,
0001
1000
0010
0000
0100
0010
1000
0100
,
0010
0000
0100
0000
1000
0000
0000
0000
0001
0000
0000
0100
0000
0000
0010
0000
,
1000
0000
0000
0001
0000
0000
0010
0000
0100
0000
1000
0000
0010
0000
0000
0000
,
0101
0000
1000
0000
0010
0100
0001
0010
,
0100
0000
1010
0000
1000
0010
0100
0001
,
1000
0100
0001
0000
0001
0100
1000
0000
,
0001
0010
1000
0000
1000
0010
0001
0000
,
0100
0000
0000
0010
0000
0000
1000
0000
0010
0000
0000
0100
0000
0000
0001
0000
,
0010
0100
1000
0000
0001
1000
0010
0000
,
0100
0000
0000
0010
0000
0000
1000
0000
0001
0000
0000
0010
0000
0000
0100
0000
,
1000
0000
0000
0001
0000
0000
1000
0000
0020
0000
0000
0000
0130
0000
0000
0000
,
0001
0000
0000
0011
0000
0000
1000
0000
0010
0000
0100
0000
0010
0000
0000
0000
,
1000
0000
0000
1100
0000
0000
0001
0000
0010
0000
0100
0000
0010
0000
0000
0000
,
0001
0000
0000
1001
0000
0000
0100
0000
0010
0000
1000
0000
0100
0000
0000
0000
,
1000
0000
0000
1010
0000
0000
0100
0000
0020
0000
0000
0000
0000
0000
0000
0000
,
1030
0001
0010
0000
0010
0001
1000
0000
,
0010
0100
0001
0000
0001
1000
0100
0000
,
1000
0010
0100
0001
0010
0100
1000
0000
,
0010
0100
0001
0010
0200
0000
1000
0000
,
0301
0100
1000
0000
1000
0100
0001
0000
,
0001
0100
1000
0000
0001
0100
0010
1000
,
0001
0010
1000
0000
1000
0010
0001
0000
,
0001
0010
1000
0010
0001
0000
1001
0000
,
0001
0100
1000
0000
1000
0100
0001
0100
,
1000
0100
0001
0000
0001
0100
1000
0100
,
0001
0010
1000
0000
1000
0010
0001
0010
,
1000
0000
0000
0010
0000
0000
0001
0000
0100
0000
0000
0000
0110
0000
0000
0000
,
1000
0100
0001
0000
0001
0100
1000
0100
,
0001
0100
1000
0000
0001
0100
1000
0100
,
0001
0010
1000
0000
1000
0010
0001
0010
,
1000
0010
0001
0000
0001
0010
1000
0010
,
0001
0100
1000
0000
1000
0100
0001
0100
,
1000
0100
0001
0000
0001
0010
0100
1000
,
0010
1000
0100
0000
0100
1000
0010
0100
,
0001
0000
0000
0000
0000
0000
0000
0000
0000
0001
0000
0000
0010
0000
0000
0000
0000
0000
0000
0000
0000
0010
0000
0000
0100
0000
0000
0000
1000
0000
0000
0000
0010
0000
0000
0000
0200
0000
0000
0000
0000
0000
0000
0000
0000
0000
0000
0000
,
0301
0010
0001
1000
0001
0010
0001
0000
,
1000
0010
1000
0001
0010
0000
1100
0000
,
0001
0000
0000
0001
0000
0000
0000
0000
1000
0000
0000
1000
0000
0000
0000
0000
,
0010
0000
0000
0010
0000
0000
0000
0000
0100
0000
0000
0100
0000
0000
0000
0000
,
1000
0000
0000
1000
0000
0000
0000
0000
0001
0000
0000
0001
0000
0000
0000
0000
,
0100
0000
0000
0100
0000
0000
0000
0000
0010
0000
0000
1100
0000
0000
0000
0000
;

//---------------dance-single - ----------------
#NOTES:
     dance-single:
     :
     Hard:
     16:
     0.738778,0.756768,0.157907,0.110535,0.817168,655.000000,635.000000,20.000000,14.000000,0.000000,0.000000,0.738778,0.756768,0.157907,0.110535,0.817168,655.000000,635.000000,20.000000,14.000000,0.000000,0.000000:
// measure 0
0000
0000
0000
0000
,  // measure 1
0000
0000
0000
0000
,  // measure 2
0000
0000
0000
0000
,  // measure 3
0010
0000
0000
1001
0000
0000
0000
0000
0100
0000
0000
1001
0000
0000
0000
0000
,  // measure 4
0010
0000
0000
1100
0000
0000
0000
0000
0010
0000
0000
0101
0000
0000
0001
0000
,  // measure 5
1000
0010
1000
0010
0000
0000
0100
0000
0001
0010
0001
0010
0000
0000
0100
0000
,  // measure 6
1000
0001
1000
0001
0000
0000
0010
0000
0100
1000
0100
1000
0000
0000
0010
0000
,  // measure 7
0100
0001
0100
0001
0000
0000
0010
0000
0100
1000
0100
1000
0000
0000
0010
0000
,  // measure 8
0100
0001
1000
0001
0000
0000
0010
0000
0011
0000
0000
0100
0000
0000
1000
0000
,  // measure 9
0010
0000
0000
0000
1010
0000
0000
0000
0100
0001
0000
0001
0000
0000
0010
0000
,  // measure 10
0001
0000
1000
0100
0000
0000
1000
0000
0010
0000
0100
0010
0000
0000
1000
0000
,  // measure 11
0100
0000
1000
0010
0000
0000
0100
0000
0001
0000
0000
0010
0000
0000
0100
0000
,  // measure 12
1000
0000
0001
0100
0000
0000
0010
0000
0100
0000
0001
0010
0000
0000
0100
0000
,  // measure 13
1000
0000
0010
0100
0000
0001
0010
0000
0001
0100
0000
0010
1000
0000
0100
1000
,  // measure 14
0000
0010
0100
0000
0001
0010
0000
0001
1000
0000
0010
0100
0000
0010
0100
0000
,  // measure 15
0001
0010
0001
0010
0001
0010
0001
0010
0100
1000
0100
1000
0100
1000
0100
1000
,  // measure 16
0010
0000
0000
1010
0000
0000
0100
0000
0202
0000
0000
0000
0303
0000
0000
0000
,  // measure 17
0010
0000
0100
0010
0000
1000
0100
0000
1000
0000
0001
0010
0000
0001
0100
0000
,  // measure 18
0010
0000
1000
0100
0000
1000
0001
0000
0010
0000
0100
1000
0002
0000
0000
0000
,  // measure 19
0013
0000
0001
1000
0000
0010
1000
0000
0100
0000
1000
0010
0000
0100
0010
0000
,  // measure 20
1000
0000
0100
0010
0000
0100
0010
0000
0001
0010
0100
0000
1000
0000
0010
0000
,  // measure 21
0100
0000
0001
0010
0000
0001
1000
0000
0010
0000
0100
0001
0000
1000
0100
0000
,  // measure 22
0010
0000
0100
1000
0000
0001
0010
0000
0001
0000
0100
0010
2000
0000
0000
0000
,  // measure 23
3100
0000
0010
0100
0000
1000
0001
0000
0100
0000
0010
1000
0000
0001
0010
0000
,  // measure 24
0001
0000
1000
0010
0000
0100
0010
0100
0001
0000
0010
0000
1000
0000
0010
0000
,  // measure 25
0001
0000
0100
0010
0100
0000
0001
0000
1000
0000
0100
0000
0010
0000
0100
1000
,  // measure 26
0001
0000
1000
0010
0000
0000
0100
0000
0010
0000
1000
0100
0000
0000
1000
0000
,  // measure 27
0010
0000
0100
0001
0000
1000
0100
1000
0010
0000
0100
0010
0000
1000
0001
1000
,  // measure 28
0010
0000
1000
0100
0000
0010
0001
0010
0100
0000
0010
0000
0002
0000
0000
0000
,  // measure 29
0013
0000
0001
0100
0000
0000
0010
0000
1000
0000
0010
1000
0000
0001
0010
0001
,  // measure 30
0100
0000
0010
0000
1000
0001
0010
0001
1000
0000
0010
0000
0100
0010
0100
0000
,  // measure 31
0001
0000
1000
0000
1100
0000
0000
0000
0010
0000
0100
0001
0000
1000
0010
1000
,  // measure 32
0001
0000
0010
0000
0001
1000
0000
1000
0100
0000
0001
0000
0100
0000
1000
0000
,  // measure 33
0010
0000
1000
0100
1000
0000
0010
0000
0100
0000
0001
0010
0100
0000
1000
0000
,  // measure 34
0010
0000
1000
0100
0000
1000
0010
0000
0100
0000
0001
0000
0010
0000
0001
0000
,  // measure 35
1000
0000
0010
0100
0000
0001
0010
0000
0001
0000
1000
0100
0000
1000
0010
0000
,  // measure 36
1000
0001
0010
0001
0000
0000
0100
0000
0010
0000
1000
0100
0000
1000
0001
0000
,  // measure 37
0010
0000
0001
0100
0000
0000
0010
0000
1000
0000
0100
0010
0000
0100
0010
0000
,  // measure 38
0001
0000
1000
0000
0010
0100
0010
0100
0010
0000
1000
0000
0100
0000
1000
0000
,  // measure 39
0001
0000
0010
0100
0000
0000
1000
0000
0010
0000
0100
0001
0000
0010
0001
0000
,  // measure 40
1000
0000
0000
0000
0000
0000
0100
0000
0000
0000
0000
0000
1000
0000
0000
0001
0000
0000
0010
0000
0000
0100
0000
0000
1000
0000
0000
0000
0010
0000
0000
0000
0100
0000
0000
0000
0001
0000
0000
0000
0010
0000
0000
0000
0100
0000
0000
0000
,  // measure 41
1000
0000
0000
1001
0000
0000
0010
0000
0100
0000
0001
0000
0010
0000
0000
0000
,  // measure 42
0010
0000
0000
0101
0000
0000
1000
0000
0010
0000
0100
0000
0010
0000
0000
0000
,  // measure 43
1000
0000
0000
0101
0000
0000
0010
0000
0100
0000
0001
0000
1000
0000
0100
0000
,  // measure 44
0010
0000
0000
1001
0000
0000
0100
0000
0220
0000
0000
0000
0330
0000
0000
0000
,  // measure 45
1000
0000
0010
0100
0000
0000
0010
0100
0000
0000
0010
0100
0001
0000
0010
0000
,  // measure 46
0100
0000
1000
0001
0000
0000
1000
0001
0000
0000
1000
0001
0010
0000
0100
0000
,  // measure 47
1000
0000
0001
0010
0000
0001
1000
0000
0010
0000
0100
0001
0000
1000
0100
0000
,  // measure 48
0010
0000
0100
1000
0000
0010
0100
0000
0001
0000
0010
0000
0101
0000
0000
0000
,  // measure 49
1000
0000
0001
0000
1000
0100
0001
0000
0001
0100
1000
0000
1000
0100
0001
0000
,  // measure 50
0001
0100
1000
0000
1000
0100
0001
0000
0001
0100
1000
0000
0001
0000
1000
0000
,  // measure 51
0001
0000
0100
0000
0001
0010
1000
0000
1000
0010
0001
0000
0001
0010
1000
0000
,  // measure 52
0010
0000
0001
0000
0100
0010
1000
0010
0100
0000
0001
0000
1001
0000
0000
0000
,  // measure 53
0100
0000
0010
0000
0100
0001
0010
0000
0010
0001
0100
0000
0100
0001
0010
0000
,  // measure 54
0100
0000
1000
0000
0010
1000
0100
0000
0100
1000
0010
0000
0010
0000
1000
0000
,  // measure 55
0001
0000
0100
0000
0001
1000
0100
0000
0100
1000
0001
0000
1000
0001
0010
0000
,  // measure 56
0001
0000
0000
1100
0000
0000
0010
0000
0100
0000
0010
0000
2002
0000
3003
0000
,  // measure 57
0010
0000
0100
0000
0001
0010
1000
0000
1000
0010
0001
0000
0001
0010
1000
0000
,  // measure 58
0001
0100
1000
0000
1000
0100
0001
0000
0001
0100
1000
0000
0010
0100
0001
0100
,  // measure 59
0010
0000
1000
0000
0001
0100
1000
0000
1000
0100
0001
0000
0001
0100
1000
0000
,  // measure 60
0001
0010
1000
0000
1000
0010
0001
0000
0010
1000
0001
0100
0010
0000
1000
0000
,  // measure 61
0001
0000
1000
0000
0001
0010
1000
0000
1000
0010
0001
0000
1000
0100
0001
0000
,  // measure 62
0001
0100
1000
0000
0001
0100
1000
0000
0100
0000
0010
0000
1000
0100
0010
0001
,  // measure 63
1000
0000
0010
0000
1000
0001
0010
0100
1000
0000
0010
0000
0100
0001
0010
0001
,  // measure 64
1000
0000
0000
0000
0000
0000
0010
0000
0000
0100
0000
0000
0001
0000
0000
0000
0000
0000
0010
0000
0000
0100
0000
0000
1000
0000
0000
0000
0010
0000
0000
0000
0100
0000
0000
0000
0001
0000
0000
0000
0010
0000
0000
0000
0100
0000
0000
0000
,  // measure 65
0010
0000
0001
0000
1000
0100
1000
0100
0010
0000
0001
0000
1000
0001
1000
0001
,  // measure 66
0010
0000
0100
0000
1000
0010
0100
0010
0100
0000
0001
0000
0110
0000
0000
0000
,  // measure 67
1000
0000
0001
0010
0000
0001
0100
0000
0020
0000
0000
0000
1030
0000
0000
0000
,  // measure 68
0100
0000
1000
0010
0000
1000
0100
0000
0020
0000
0000
0000
0031
0000
0000
0000
,  // measure 69
1000
0000
0001
0010
0000
0001
0100
0000
0020
0000
0000
0000
1030
0000
0000
0000
,  // measure 70
0100
0000
1000
0010
0000
0100
0001
0000
0010
0000
0100
0000
2002
0000
0000
0000
,  // measure 71
3003
0000
0000
0000
;
