#TITLE:Catapulted Arch;
#SUBTITLE:;
#ARTIST:BEMANI Sound Team "person09";
#TITLETRANSLIT:;
#SUBTITLETRANSLIT:;
#ARTISTTRANSLIT:person09;
#GENRE:;
#CREDIT:;
#BANNER:Catapulted Arch_banner.png;
#BACKGROUND:Catapulted Arch_bg.png;
#LYRICSPATH:;
#CDTITLE:;
#MUSIC:Catapulted Arch.ogg;
#OFFSET:-0.020000;
#SAMPLESTART:70.940002;
#SAMPLELENGTH:12.000000;
#SELECTABLE:YES;
#BPMS:0.000000=184.000000
;
#STOPS:
;
#BGCHANGES:;
#KEYSOUNDS:;
#ATTACKS:;

//---------------dance-single - ----------------
#NOTES:
     dance-single:
     :
     Easy:
     7:
     0.269327,0.323748,0.066442,0.141189,0.000000,227.000000,219.000000,8.000000,17.000000,0.000000,0.000000,0.269327,0.323748,0.066442,0.141189,0.000000,227.000000,219.000000,8.000000,17.000000,0.000000,0.000000:
0000
0000
0000
0000
,
0000
0000
0000
0000
,
0000
0000
0000
0000
,
0000
0000
0000
0000
,
0000
0000
0000
0000
,
1000
0000
0000
1000
0000
0000
0001
0000
,
0000
0001
0000
0000
0000
0000
0000
0000
,
0100
0000
0000
0100
0000
0000
0010
0000
,
0000
0010
0000
0000
2002
0000
3003
0000
,
0010
0100
0010
1000
,
0100
2000
3001
0000
,
0001
0100
0010
0100
,
0001
0020
0130
0000
,
0010
0001
0100
0010
,
1000
0002
1003
0000
,
1000
0000
0000
0001
0000
0000
0100
0000
,
0000
0010
0000
0000
0220
0000
0000
0000
,
0000
0000
0330
0000
,
0000
0000
0001
0100
,
0010
0100
0001
0000
,
0010
0100
1000
0010
,
0100
0010
1000
0000
,
0001
1000
0100
0000
,
0010
0001
0100
0000
,
0010
1000
0001
0010
,
0001
1000
2002
3003
,
0100
0000
0010
0100
,
0001
0000
0010
0001
,
1000
0000
0100
1000
,
0010
0000
0010
0100
,
0001
0000
0001
0010
,
0100
0000
1000
0010
,
1000
0100
1000
0010
,
0100
0001
0010
0000
,
0001
0000
0100
0010
,
0100
0000
0001
0000
,
0010
0000
0001
0010
,
0100
0000
1000
0000
,
0010
1000
0100
0000
,
1000
0001
0100
0000
,
0010
1000
0010
1000
,
0001
0100
0001
0100
,
0010
0000
0000
0010
0000
0000
0010
0000
,
0000
0000
0000
0000
1000
0000
0000
1000
,
0000
1000
0000
0000
,
0001
0000
0000
0001
0000
0000
0001
0000
,
0000
0010
0000
0000
0010
0000
0010
0000
,
0001
0000
0000
0100
0000
0000
0010
0000
,
0000
0000
0000
0000
1000
0000
0000
0100
,
0000
0010
0000
0000
,
0001
0000
0000
1000
0000
0000
0010
0000
,
0000
0100
0000
0000
0001
0000
0000
0010
,
0000
0000
0100
0000
0000
1000
0000
0000
,
2002
0000
0000
0000
,
0000
3003
0000
0000
,
0010
0000
0010
0100
,
0001
0010
0100
0000
,
1000
0100
1000
0000
,
0001
0100
0001
0000
,
0010
0001
0100
0000
,
0010
1000
0100
0000
,
1000
0000
0000
0100
0000
0000
1000
0000
,
0000
0001
0000
0000
0022
0000
0033
0000
,
1000
0000
0010
1000
,
0001
0010
0100
0000
,
1000
0010
1000
0000
,
0001
0010
0001
0000
,
0100
0001
0100
0001
,
1000
0010
1000
0010
,
0100
0000
0001
1000
,
0010
0000
0010
1000
,
2002
0000
0000
0000
,
3003
0000
0000
0000
,
0000
0000
0000
0000
,
0000
0000
0000
0000
,
0100
0000
0000
0100
0000
0000
0010
0000
,
0000
0010
0000
0000
0000
0000
0000
0000
,
1000
0000
0000
1000
0000
0000
0001
0000
,
0000
0001
0000
0000
0220
0000
0330
0000
,
1000
0010
0100
0010
,
1000
0001
0010
0000
,
0001
0010
0100
0010
,
0001
1000
0010
0000
,
0100
0010
1000
0001
,
0010
0100
1000
0000
,
0001
0000
0000
1000
,
0000
0000
0000
0000
0000
1001
0000
0000
;

//---------------dance-single - ----------------
#NOTES:
     dance-single:
     :
     Medium:
     11:
     0.486449,0.559046,0.332209,0.224241,0.008305,410.000000,370.000000,40.000000,27.000000,0.000000,0.000000,0.486449,0.559046,0.332209,0.224241,0.008305,410.000000,370.000000,40.000000,27.000000,0.000000,0.000000:
// measure 0
0000
0000
0000
0000
,  // measure 1
1000
1000
0000
0001
0001
0000
0100
0100
,  // measure 2
0000
0010
0010
0000
1000
0000
1001
0000
,  // measure 3
0010
0010
0000
1000
1000
0000
0001
0001
,  // measure 4
0000
0100
0100
0000
0010
0000
0110
0000
,  // measure 5
1000
1000
0000
0100
0100
0000
0010
0010
,  // measure 6
0000
0001
0001
0000
1000
0000
1010
0000
,  // measure 7
0100
0100
0000
0010
0010
0000
1000
1000
,  // measure 8
0000
0001
0001
0000
0010
0000
0011
0000
,  // measure 9
0001
0010
0000
0001
0100
0000
0001
0010
,  // measure 10
0000
0001
1000
0000
0010
0100
0010
0000
,  // measure 11
1000
0100
0000
1000
0010
0000
1000
0100
,  // measure 12
0000
1000
0001
0000
0010
0100
0010
0000
,  // measure 13
0001
1000
0000
0001
0010
0000
0100
1000
,  // measure 14
0000
0010
1000
0000
0010
0100
0010
0000
,  // measure 15
1010
0000
0000
0001
0000
0000
0010
0000
,  // measure 16
0000
0011
0000
0000
2002
0000
0000
0000
,  // measure 17
0000
0000
3003
0000
,  // measure 18
0100
0000
0010
0000
1000
0000
0100
1000
,  // measure 19
0000
1000
0001
0000
0010
0000
0001
0000
,  // measure 20
0100
0000
0001
0000
0010
0000
0001
1000
,  // measure 21
0000
1000
0001
0000
0220
0000
0330
0000
,  // measure 22
1000
0000
0100
1000
0000
0010
0000
0100
,  // measure 23
0000
0001
0010
0200
0000
0000
1300
0000
,  // measure 24
1000
0010
1000
0000
0001
0000
0010
0000
,  // measure 25
0001
0100
0001
0000
2002
0000
3003
0000
,  // measure 26
0010
0000
0100
0001
0000
0010
0000
0100
,  // measure 27
0000
1000
0100
0000
1000
0010
1000
0000
,  // measure 28
0001
0000
1000
0100
0000
0010
0000
0001
,  // measure 29
0000
0100
0001
0000
1001
0000
0000
0000
,  // measure 30
0010
0000
1000
0100
0000
1000
0001
0000
,  // measure 31
0010
0001
0000
1000
0010
0000
0100
0000
,  // measure 32
0010
1000
0010
0000
1000
0000
0100
0000
,  // measure 33
0010
0001
0010
0000
0001
0000
1000
0000
,  // measure 34
1001
0000
0000
0010
0000
0100
0000
0001
,  // measure 35
0000
0010
0001
0000
1000
0000
0100
0000
,  // measure 36
1000
0000
0000
0010
0000
0100
0000
0010
,  // measure 37
0000
1000
0100
0000
1000
0000
0001
0000
,  // measure 38
0010
0000
0001
0100
0000
0001
0010
0000
,  // measure 39
0100
1000
0000
0010
1000
0000
0001
0000
,  // measure 40
0010
0100
1000
0000
0001
0000
1000
0010
,  // measure 41
0100
0000
0001
0000
0010
0001
1000
0001
,  // measure 42
0100
0000
0000
0110
0000
0000
2002
0000
,  // measure 43
0000
3003
0000
0000
0110
0000
0000
0001
,  // measure 44
0000
0000
0022
0000
0000
0033
0000
0000
,  // measure 45
1000
0000
0010
1000
0000
0001
0010
0000
,  // measure 46
0001
1000
0000
0100
1000
0000
0010
0000
,  // measure 47
0100
0000
0000
1010
0000
0000
2200
0000
,  // measure 48
0000
3300
0000
0000
0001
0000
0000
0011
,  // measure 49
0000
0000
2002
0000
0000
3003
0000
0000
,  // measure 50
0110
0000
0000
1001
0000
0000
0011
0000
,  // measure 51
0000
1100
0000
0000
1010
0000
0000
0011
,  // measure 52
0000
0000
1001
0000
0000
0101
0000
0000
,  // measure 53
0220
0000
0000
0000
,  // measure 54
0330
0000
0000
0000
,  // measure 55
0010
0000
1000
0000
0001
0010
0100
1000
,  // measure 56
0000
0010
0100
0000
0001
0000
1000
0000
,  // measure 57
0100
0010
0100
0000
1000
0000
0010
0100
,  // measure 58
0000
0001
0010
0000
0001
1000
0001
0000
,  // measure 59
0100
0000
0001
0010
0100
0000
0010
0001
,  // measure 60
0000
0000
1000
0000
0010
0100
0010
0000
,  // measure 61
1000
0000
0000
1100
0000
0000
0001
0000
,  // measure 62
0000
0011
0000
0000
2002
0000
3003
0000
,  // measure 63
0100
0000
0010
0100
0001
0000
1000
0100
,  // measure 64
0000
0010
0001
0000
1000
0001
1000
0000
,  // measure 65
0010
0000
0100
0000
0010
1000
0100
1000
,  // measure 66
0000
0001
0010
0000
0001
0000
0100
0000
,  // measure 67
0010
0000
0110
0000
1000
0100
1000
0001
,  // measure 68
0000
0000
0011
0000
0001
1000
0100
0000
,  // measure 69
1000
0010
1000
0000
0001
0010
0001
1000
,  // measure 70
0000
0001
0010
0100
1000
0001
0100
0000
,  // measure 71
0220
0000
0000
0000
,  // measure 72
0000
0330
0000
0000
,  // measure 73
1000
0100
0000
1000
0100
0000
1000
0100
,  // measure 74
0000
1000
0100
0000
0020
0000
0031
0000
,  // measure 75
0100
0001
0000
0100
0001
0000
0100
0001
,  // measure 76
0000
0100
0001
0000
2000
0000
3010
0000
,  // measure 77
0100
0010
0000
1000
0001
0000
0010
0100
,  // measure 78
0000
1000
0001
0000
0220
0000
0330
0000
,  // measure 79
0001
0010
0100
0010
0001
0000
1000
0010
,  // measure 80
0100
0010
1000
0000
0010
0000
0110
0000
,  // measure 81
1000
0100
0010
0100
1000
0000
0001
0100
,  // measure 82
0010
0100
0001
0000
1000
0000
1001
0000
,  // measure 83
0010
0010
0000
0100
0100
0000
0001
0001
,  // measure 84
0000
1000
1000
0000
0001
1000
0001
0000
,  // measure 85
1001
0000
0000
0000
0000
0000
0000
0000
0000
0010
0000
0000
0000
0000
0000
0000
0000
0000
0000
1001
0000
0000
0000
0000
,  // measure 86
0000
0000
0000
1000
0000
0000
0000
0000
0000
0000
2200
0000
0000
0000
0000
0000
,  // measure 87
0000
0000
0000
0000
,  // measure 88
0000
0000
0000
0000
,  // measure 89
0000
0000
0000
3300
;

//---------------dance-single - ----------------
#NOTES:
     dance-single:
     :
     Hard:
     15:
     0.821032,0.969013,0.755776,0.365430,0.352972,692.000000,601.000000,91.000000,44.000000,0.000000,0.000000,0.821032,0.969013,0.755776,0.365430,0.352972,692.000000,601.000000,91.000000,44.000000,0.000000,0.000000:
// measure 0
0000
0000
0000
0000
,  // measure 1
0010
0110
0000
1000
1100
0000
0001
0011
,  // measure 2
0000
1000
2001
0000
0010
0000
3010
0000
,  // measure 3
0100
0101
0000
0001
0011
0000
1000
1010
,  // measure 4
0000
0010
0120
0000
1000
0000
1030
0000
,  // measure 5
0101
0101
0000
1100
1100
0000
0011
0011
,  // measure 6
0000
1001
2001
0000
0100
0000
3100
0000
,  // measure 7
0011
1001
0000
1010
1001
0000
0011
1001
,  // measure 8
0000
0000
1010
0000
1001
0000
0000
0000
0010
0000
0100
0010
0100
0000
0000
0000
,  // measure 9
0001
1000
0100
0000
0010
0000
0100
1000
0001
0000
0100
0000
0010
1000
0001
0000
,  // measure 10
0010
0000
0001
1000
0010
0000
0100
0000
0010
0000
0100
0000
0110
0000
0000
0000
,  // measure 11
1000
0001
0010
0000
0100
0000
1000
0010
0100
0000
0001
0000
0010
0100
1000
0000
,  // measure 12
0001
0000
1000
0010
0100
0000
0001
0000
1000
0000
0001
0000
1001
0000
0000
0000
,  // measure 13
0010
0100
0001
0000
0010
0000
0100
1000
0010
0000
0100
0000
0001
1000
0010
0000
,  // measure 14
1000
0000
0010
1000
0001
0000
0100
0000
0010
0000
0100
0000
0110
0000
0000
0000
,  // measure 15
1001
0000
1000
1100
0000
0001
0011
0000
,  // measure 16
0100
0110
0000
0010
2020
0000
0000
0000
,  // measure 17
0000
0000
0000
3030
,  // measure 18
0100
0000
0010
0100
0001
0010
0001
1000
,  // measure 19
0000
0000
1000
0000
0010
0000
0100
0000
0000
0000
0010
1000
0100
0000
0010
0000
,  // measure 20
0001
0000
0100
0010
0100
0000
0001
0000
1000
0000
0010
0000
0001
0000
0010
0000
,  // measure 21
0000
0000
1010
0000
0000
0000
1100
0000
0000
0000
0001
1000
0001
0000
0100
0000
,  // measure 22
0001
0010
1000
0001
0100
1000
0010
2000
,  // measure 23
0000
0000
3001
0010
0100
0000
1000
0000
0010
0000
1000
0100
0010
0000
0001
0000
,  // measure 24
0100
0000
0101
0000
0010
1000
0001
0000
,  // measure 25
0010
0000
0001
0000
1000
0000
0001
0000
1000
0010
0100
0001
0010
0000
0000
0000
,  // measure 26
1001
0000
0010
1000
0100
1000
0001
0010
,  // measure 27
0000
0000
0010
0001
1000
0000
0010
0000
0100
0000
0010
1000
0100
0000
0010
0000
,  // measure 28
0001
0100
0010
1000
0000
1001
0000
0020
,  // measure 29
0000
0000
0130
0000
0001
1000
0010
0000
1000
0100
0010
0000
0001
0000
0100
0000
,  // measure 30
0010
1000
0100
2000
3100
0001
0200
1300
,  // measure 31
0100
0000
0002
0000
0103
0000
1000
0000
0001
0000
0010
0100
1000
0000
0010
0000
,  // measure 32
0100
0001
0010
1000
0001
0100
1000
0010
,  // measure 33
0100
0000
0001
0000
0100
0000
1000
0000
0100
0010
1000
0001
0010
0000
0000
0000
,  // measure 34
1001
0000
0100
0010
0000
1001
0000
1100
,  // measure 35
0000
0000
0001
0100
0010
0000
1000
0000
0010
0000
1000
0100
0010
0000
0001
0000
,  // measure 36
0100
0010
0100
0001
0000
0011
0000
1100
,  // measure 37
0000
0000
0010
1000
0100
0000
1000
0000
0001
0000
0100
0010
1000
0000
0001
0000
,  // measure 38
0020
1030
0010
0002
0013
1000
0020
0031
,  // measure 39
1000
0100
0001
1000
0010
0100
0010
0010
,  // measure 40
0001
0000
1000
0001
0010
0000
0100
0000
1000
0000
0010
0000
0100
0000
0001
1000
,  // measure 41
0100
0000
1000
0000
0010
0000
1000
0000
0001
0010
0100
1000
0010
0000
0100
0000
,  // measure 42
0002
0000
0013
0110
0000
0100
2200
0000
,  // measure 43
0000
3300
0000
0000
1010
0000
0010
0110
,  // measure 44
0000
0100
0202
0000
0000
0303
0000
0000
,  // measure 45
1001
0000
0100
0110
0000
0010
1000
0001
,  // measure 46
0010
0000
0001
0000
1000
0000
0100
0000
1000
0000
0010
0100
0010
0000
0000
0000
,  // measure 47
0101
0000
0001
0011
0000
0010
0220
0000
,  // measure 48
0000
0330
0000
0000
1100
0000
1000
1010
,  // measure 49
0000
0010
0220
0000
0000
0330
0000
0000
,  // measure 50
2002
0003
3001
0022
0003
0130
0220
0030
,  // measure 51
1300
2200
0300
3001
0202
0003
0310
2020
,  // measure 52
0030
0000
3001
0000
0022
0000
0003
0000
0130
0000
1000
0001
0100
0010
1000
0001
,  // measure 53
0200
0000
0000
0000
,  // measure 54
0000
0000
0000
0000
0300
0000
0001
0010
0100
0000
1000
0000
0010
0000
0100
0000
,  // measure 55
0002
0000
0000
0000
1003
0000
0010
0100
0010
0000
1000
0000
0100
0000
0010
0000
,  // measure 56
0000
0000
0010
0001
1000
0000
0010
0000
1000
0000
0001
0100
0010
0100
0001
0000
,  // measure 57
1000
0000
0100
0000
0010
0000
0001
0000
1000
0000
0010
1000
0001
0000
0100
0000
,  // measure 58
0000
0000
0100
0010
0100
0000
0001
0000
0010
0100
1000
0100
0010
0000
0001
0000
,  // measure 59
0100
0000
0010
1000
0010
0000
0100
0000
0001
0000
0010
0000
0001
0000
2000
0000
,  // measure 60
0000
3001
0100
1000
0001
0010
1000
0000
,  // measure 61
1001
0010
0000
1001
0100
0000
0110
0001
,  // measure 62
0000
0000
0110
0000
1000
0000
0010
0100
0001
0000
0010
0000
0100
0000
1000
0000
,  // measure 63
0020
0000
0000
0000
1030
0000
0100
1000
0001
0000
0100
0000
0010
0000
1000
0000
,  // measure 64
0000
0000
1000
0001
0010
0000
0001
0000
0010
0000
0001
1000
0100
1000
0001
0000
,  // measure 65
0100
0000
0010
0000
1000
0000
0100
0000
1000
0000
0001
0100
0010
0000
0100
0000
,  // measure 66
0000
0000
0100
0001
0010
0000
0100
0000
1000
0010
0100
0010
1000
0000
0001
0000
,  // measure 67
0010
0000
0001
0100
0001
0000
0010
0000
0001
0000
0100
0000
1000
0000
0100
0000
,  // measure 68
0000
0000
0010
0100
0010
0000
1000
0000
0100
0000
0001
0000
0100
0000
1000
0000
,  // measure 69
0010
0000
1000
0100
0010
0000
0001
0000
0100
0000
0001
0010
0100
0000
1000
0000
,  // measure 70
0000
0000
0001
1000
0010
0000
0100
0010
1000
0000
0001
0000
0100
0000
0010
0000
,  // measure 71
0220
0000
0000
0000
,  // measure 72
0000
0000
0000
0330
0000
0000
0000
0000
,  // measure 73
0100
1100
0000
1000
1010
0000
0001
0011
,  // measure 74
0000
0000
1000
0000
1001
0000
0000
0000
0010
0000
0100
0010
0100
0000
0000
0000
,  // measure 75
0001
0011
0000
0010
0110
0000
0100
1100
,  // measure 76
0000
0000
1000
0000
1010
0000
0000
0000
0100
0000
0010
0100
0010
0000
0000
0000
,  // measure 77
0101
0101
0000
1010
1010
0000
0011
1001
,  // measure 78
0000
0000
1100
0000
1001
0000
0000
0000
1000
0000
0010
0100
0001
0000
0000
0000
,  // measure 79
1000
0001
0010
0000
0100
0000
0010
0001
1000
0000
0010
0000
0100
0001
1000
0000
,  // measure 80
0100
0000
1000
0001
0100
0000
0010
0000
0100
0000
0010
0000
0110
0000
0000
0000
,  // measure 81
0001
1000
0100
0000
0010
0000
0001
0100
0010
0000
1000
0000
0100
0010
0001
0000
,  // measure 82
1000
0000
0001
0100
0010
0000
1000
0000
0001
0000
1000
0000
1001
0000
0000
0000
,  // measure 83
0100
0010
1000
0010
0100
0000
0001
0010
0100
0010
0001
0000
1000
0001
0100
0001
,  // measure 84
1000
0000
0010
0100
0001
0100
0010
0000
1000
0000
0001
0000
1001
0000
0000
0000
,  // measure 85
0011
0000
0000
0000
0000
0000
0000
0000
0000
1100
0000
0000
0000
0000
0000
0000
0000
0000
0000
1001
0000
0000
0000
0000
,  // measure 86
0000
0000
0000
0101
0000
0000
0000
0000
0000
0000
0220
0000
0000
0000
0000
0000
,  // measure 87
0000
0000
0000
0000
,  // measure 88
0000
0000
0000
0000
,  // measure 89
0000
0000
0000
0330
;
