#TITLE:CUE CUE RESCUE;
#SUBTITLE:;
#ARTIST:TORIENA;
#TITLETRANSLIT:;
#SUBTITLETRANSLIT:;
#ARTISTTRANSLIT:;
#GENRE:EMERGENCY CORE;
#CREDIT:;
#BANNER:CUE CUE RESCUE_banner.png;
#BACKGROUND:CUE CUE RESCUE.png;
#LYRICSPATH:;
#CDTITLE:;
#MUSIC:CUE CUE RESCUE.ogg;
#OFFSET:-0.420000;
#SAMPLESTART:65.653999;
#SAMPLELENGTH:11.990000;
#LASTBEATHINT:272.500000;
#SELECTABLE:YES;
#BPMS:0.000000=160.000000
;
#STOPS:
;
#BGCHANGES:;
#KEYSOUNDS:;
#ATTACKS:;

//---------------dance-single - ----------------
#NOTES:
     dance-single:
     :
     Easy:
     6:
     0.336930,0.391168,0.239686,0.239686,0.000000,246.000000,221.000000,25.000000,25.000000,0.000000,0.000000,0.336930,0.391168,0.239686,0.239686,0.000000,246.000000,221.000000,25.000000,25.000000,0.000000,0.000000:
0000
0000
0000
0000
,
0000
0000
0000
0000
,
0000
0000
0000
0000
,
0000
0000
0000
0000
,
1000
0001
1000
0001
,
0010
0100
0010
0100
,
0001
0010
0100
1000
,
0002
1003
0220
0330
,
1000
0000
1000
0100
,
0010
0000
0001
1000
,
0010
0000
0010
0100
,
0001
2000
0100
3100
,
0010
0100
1000
0000
,
0010
0100
0001
0000
,
0010
0100
1000
0000
,
0010
0100
0002
0003
,
0001
1000
0100
0000
,
0100
1000
0001
0000
,
0010
0001
0100
0010
,
1000
0001
2002
3003
,
0010
0100
0001
0100
,
0010
1000
0100
0000
,
1000
0100
0010
0001
,
1000
0001
0010
0000
,
0001
0100
0010
1000
,
0001
0010
0100
0000
,
1000
0010
0100
0001
,
0010
0100
2002
3003
,
0010
0010
0100
0010
,
1000
0100
0010
0000
,
0001
0001
1000
0001
,
1000
0100
0010
0000
,
0202
0000
0303
0000
,
0010
1000
0001
1000
,
0100
1000
0010
0100
,
0001
0010
0001
0000
,
1001
0010
1001
0010
,
0100
0100
0100
0100
,
1001
0100
1001
0100
,
0010
0010
0010
0010
,
1100
0000
0011
0000
,
1000
0001
0100
0001
,
0011
0000
1100
0000
,
0001
1000
2002
3003
,
1000
0001
0010
0001
,
1000
0010
0100
0010
,
1000
0100
1000
0001
,
0010
0100
2000
3000
,
0001
0010
0100
0010
,
1000
0010
0100
0001
,
1000
0100
0010
0001
,
2002
3003
0220
0330
,
0010
1000
0001
0010
,
0100
1000
0001
0000
,
0100
0010
1000
0001
,
1000
0100
0020
0030
,
0001
1000
0010
0100
,
0010
1000
0100
1000
,
0001
0010
0100
1000
,
2002
3003
0220
0330
,
1100
1000
1100
1000
,
0001
0010
0100
1000
,
0011
0001
0011
0001
,
1000
0100
0010
0001
,
0100
0110
0100
0110
,
0010
1000
0001
0010
,
0001
1000
0001
1000
,
2002
0000
3003
0000
,
0110
0000
0000
0000
;

//---------------dance-single - ----------------
#NOTES:
     dance-single:
     :
     Medium:
     11:
     0.582095,0.554155,0.450610,0.057525,0.000000,425.000000,378.000000,47.000000,6.000000,0.000000,0.000000,0.582095,0.554155,0.450610,0.057525,0.000000,425.000000,378.000000,47.000000,6.000000,0.000000,0.000000:
0000
0000
0000
0000
,
0000
0000
0000
0000
,
0000
0000
0000
0000
,
0000
0000
0000
0000
,
0001
0010
0001
0000
1000
0010
1000
0000
,
0001
0010
0100
0000
1000
0010
0100
0000
,
0010
1000
0001
0000
0100
0010
1000
0000
,
0001
0010
0002
0000
1003
0000
1001
0000
,
0000
1000
0010
0100
0010
0000
1000
0100
,
1000
0001
0010
0001
0100
0000
0010
0010
,
0000
1000
0100
0010
0100
1000
0001
0000
,
0100
0010
1000
0001
0010
0000
0110
0000
,
1000
0000
1000
0000
0001
0010
0100
0000
,
1000
0000
1000
0000
0001
0010
0100
0000
,
0001
0000
0001
0000
1000
0100
0010
0000
,
0001
0000
0001
0000
1000
0100
0020
0000
,
0031
1000
0001
0000
1000
0010
1000
0000
,
0001
0100
0001
0000
0100
0010
0100
0000
,
0010
0110
0010
0110
,
1000
0100
1000
0001
0010
0000
0110
0000
,
0001
0010
0100
0000
1000
0001
1000
0000
,
0010
0100
0001
0000
1000
0100
0010
0000
,
0001
1000
0010
0000
1000
0100
0010
0000
,
0001
1000
0010
0000
1000
0001
0020
0000
,
0031
0100
0010
0000
0100
0010
1000
0000
,
1000
0100
0010
0000
0100
0010
0001
0000
,
1000
0001
0010
0000
0001
0010
0100
0000
,
1000
0010
0100
0000
0220
0000
0330
0000
,
0001
0010
0001
1000
0001
0010
0001
0000
,
1000
0100
1000
0010
1000
0100
1000
0000
,
0001
0100
0010
0100
0001
0100
0010
0000
,
0100
0010
1000
0100
1000
0010
0100
0000
,
0110
0000
0000
0001
0000
0001
1000
0001
,
1000
0010
0100
0000
0001
0100
0010
0100
,
0001
0010
0100
0000
1000
0010
1000
0100
,
1000
0001
0010
0100
1000
0000
0110
0000
,
0011
0011
1100
1100
,
0001
0100
0001
0010
0001
0100
0001
0000
,
1010
1010
0101
0101
,
0010
1000
0100
1000
0010
1000
0100
0000
,
1010
1100
1010
1100
,
0001
0100
0010
0100
0001
0010
0001
0000
,
0101
0011
0101
0011
,
1000
0001
0100
0010
0001
0000
0110
0000
,
1000
0010
0100
0000
0001
0010
0100
1000
,
0001
1000
0100
0000
1000
0010
0100
0001
,
1000
0001
0010
0000
0001
0010
0100
1000
,
0010
0100
0001
0010
0100
0000
1001
0000
,
0100
0010
1000
0000
0001
0010
0100
1000
,
0010
0100
0010
0000
1000
0010
0100
0001
,
0010
0100
1000
0000
0001
1000
0010
1000
,
0002
0000
0103
0110
,
1000
0010
1000
0000
0001
0010
0100
1000
,
0010
1000
0100
0000
1000
0100
0010
0001
,
1000
0001
0010
0000
0001
0100
0010
1000
,
0001
1000
0100
0010
0001
0000
1001
0000
,
0100
0010
0100
0000
0001
0010
0001
0000
,
1000
0100
1000
0000
0001
0100
0001
0000
,
1000
0010
0001
0000
0001
0010
1000
0000
,
0001
0010
0100
1000
0010
0000
0110
0000
,
1001
0110
1001
0110
,
0001
0100
0001
1000
0001
0100
0001
0000
,
1100
0101
1100
0101
,
1000
0001
0010
0001
1000
0001
0010
0000
,
0011
1010
0011
1010
,
1000
0100
1000
0001
1000
0100
1000
0000
,
0011
1010
0011
1010
,
0001
1000
0100
0010
0001
0000
0110
0000
,
1001
0000
0000
0000
;

//---------------dance-single - ----------------
#NOTES:
     dance-single:
     :
     Hard:
     15:
     0.893003,0.880128,0.824521,0.306798,0.651947,652.000000,566.000000,86.000000,32.000000,0.000000,0.000000,0.893003,0.880128,0.824521,0.306798,0.651947,652.000000,566.000000,86.000000,32.000000,0.000000,0.000000:
0000
0000
0000
0000
,
0000
0000
0000
0000
,
0000
0000
0000
0000
,
0000
0000
0000
0000
,
1000
0010
0001
0010
1000
0100
0001
0100
,
1000
0001
0010
1000
0010
0001
1000
0010
,
0001
1000
0100
0001
0010
1000
0001
0100
,
1000
0001
1002
0000
0103
0000
0110
0000
,
1000
0010
1000
0100
0010
0100
1000
0001
,
0010
1000
0010
0001
0100
0010
0010
0010
,
0001
0010
0001
1000
0100
0010
0001
0100
,
1000
0010
0001
0010
0100
0000
1001
0000
,
0100
0000
0001
0000
0010
0000
0001
0000
1000
0010
1000
0000
0001
0000
0010
0000
,
0100
0000
1000
0000
0010
0000
0100
0000
0001
1000
0001
0000
0100
0000
0010
0000
,
1000
0000
0001
0000
0010
0000
0100
0000
1000
0010
1000
0000
0001
0000
0010
0000
,
0100
0000
0010
0000
0001
0000
1000
0000
0010
0100
0010
0100
0002
0000
0000
0000
,
1003
0000
0010
0000
0100
0000
0001
0000
0010
0100
0010
0000
0001
0000
1000
0000
,
0010
0000
0100
0000
0010
0000
1000
0000
0001
0010
0001
0000
1000
0000
0100
0000
,
1000
0010
0110
0000
0001
0010
0110
0000
,
1000
0000
0001
0000
0100
0010
1000
0001
0010
0000
0100
0000
0110
0000
0000
0000
,
1000
0000
0010
0000
1000
0000
0001
0010
0000
0010
0001
0000
1000
0000
0010
0100
,
0010
0000
1000
0000
0001
0000
0010
0100
0010
0000
0001
0000
1000
0000
0010
0000
,
1000
0000
0100
0000
0010
0000
0100
1000
0000
1000
0001
0000
0100
0000
0010
1000
,
0010
0000
0100
0000
0001
0000
0010
0001
0010
0000
0100
0000
0010
0000
0001
0000
,
1000
0000
0010
0000
0100
0000
0010
1000
0000
1000
0001
0000
0010
0000
0001
0100
,
0001
0000
1000
0000
0010
0000
0100
0001
0100
0000
0010
0000
1000
0000
0100
0000
,
0010
0000
0001
0000
1000
0000
0001
0010
0000
0010
0100
0000
1000
0000
0010
0100
,
0010
0000
1000
0000
0001
0000
1000
0010
0100
0000
0010
0000
0202
0000
0303
0000
,
0001
0010
0001
0000
1000
0000
0010
0100
0000
0100
0010
0000
1000
0000
0100
1000
,
0100
0000
0010
0000
0100
0000
1000
0001
1000
0000
0010
0000
0100
0000
0001
0010
,
0001
0000
1000
0000
0010
0000
0100
0001
0000
0001
0010
0000
0100
0000
1000
0001
,
1000
0000
0010
0000
0100
0000
0001
0010
0001
0000
1000
0000
1000
0000
1000
0000
,
1001
0000
0000
0000
0010
0000
0110
0000
0000
0100
0010
0000
2000
0000
3002
0000
,
1003
0010
1000
0000
0001
0000
0010
0100
0010
0000
0001
0000
1000
0000
0010
0000
,
0100
0001
0100
0000
0001
0000
0010
0100
0000
0100
1000
0000
0010
0000
0100
0001
,
1000
0000
0100
0000
1000
0010
0000
0010
0100
0000
0001
0000
1001
0000
0000
0000
,
0011
0001
0011
0001
0011
0001
0011
0001
,
1100
0001
1100
0001
1100
0001
1100
0001
,
1010
0010
1010
0010
1010
0010
1010
0010
,
1100
0001
1100
0001
1100
0001
1100
0001
,
0011
0010
0011
0010
0011
0010
0011
0010
,
0101
1000
0101
1000
0101
1000
0101
1000
,
1010
1000
1010
1000
1010
1000
1010
1000
,
0110
0000
0000
0100
0000
0000
0010
0000
0010
0000
0010
0000
1000
0000
0000
0001
0000
0000
2002
0000
0000
3003
0000
0000
,
0010
0000
0100
0001
0000
0010
0000
0001
0000
1000
0000
0100
1000
0010
0100
0000
,
0001
0000
1000
0010
0000
0100
0000
0001
0000
0010
0000
0001
1000
0100
0010
0000
,
0100
0000
1000
0001
0000
1000
0000
0010
0000
0100
0000
0001
0010
0100
0010
0000
,
0001
0000
1000
0100
0000
1000
0000
0001
0000
0110
0000
0010
1000
0001
0100
0000
,
0010
0000
1000
0001
0000
0010
0000
0100
0000
1000
0000
0010
0100
0001
0100
0000
,
0010
0000
1000
0100
0000
1000
0000
0010
0000
0100
0000
0001
0010
0100
1000
0000
,
0001
0000
1000
0001
0000
0100
0000
0010
0000
1000
0000
0010
0100
0001
0010
0000
,
0001
0000
1000
0000
0010
0100
0000
0100
0001
0000
1000
0000
2002
0000
3003
0000
,
0110
0000
1000
0001
0000
0010
0000
0001
0000
1001
0000
1000
0010
0100
0010
0000
,
1000
0000
0001
0010
0000
0100
0000
1100
0000
0001
0000
0100
0010
1000
0001
0000
,
0100
0000
0010
1000
0000
0100
0000
1001
0000
0010
0000
0100
0001
0100
0010
0000
,
1000
0000
0001
0010
0000
0001
0000
1001
0000
1000
0000
0100
0010
0100
1000
0000
,
0001
0000
0100
0010
0000
1010
0000
1000
0000
1100
0000
0001
0010
0001
0100
0000
,
0010
0000
1000
0001
0000
0011
0000
1000
0000
1100
0000
0010
0100
0010
1000
0000
,
0001
0000
0010
0001
0000
0101
0000
1000
0000
1010
0000
0100
0010
1000
0001
0000
,
0010
0000
0001
0000
1000
0100
0000
0100
0010
0000
0100
0000
0220
0000
0330
0000
,
1001
0010
1001
0010
1001
0010
1001
0010
,
0120
0130
0102
0103
0120
0130
0102
0103
,
1001
0100
1001
0100
1001
0100
1001
0100
,
2010
3010
0210
0310
2010
3010
0210
0310
,
2100
3100
0210
0310
0021
0031
0102
0103
,
0210
0301
0120
1030
0210
0301
0120
1030
,
0012
0013
0120
0130
1200
1300
2001
3001
,
0110
0000
0110
0000
0001
1000
0010
0100
0001
0000
0100
0000
0101
0000
0010
0000
,
1010
0000
0000
0000
;

//---------------dance-double - ----------------
#NOTES:
     dance-double:
     :
     Hard:
     15:
     0.865610,0.847531,0.671122,0.182162,0.666328,632.000000,562.000000,70.000000,19.000000,0.000000,0.000000,0.865610,0.847531,0.671122,0.182162,0.666328,632.000000,562.000000,70.000000,19.000000,0.000000,0.000000:
// measure 0
00000000
00000000
00000000
00000000
,  // measure 1
00000000
00000000
00000000
00000000
,  // measure 2
00000000
00000000
00000000
00000000
,  // measure 3
00000000
00000000
00000000
00000000
,  // measure 4
00100000
01000000
00010000
10000000
00100000
00001000
00010000
00000100
,  // measure 5
00001000
00000001
00000010
00000001
00001000
00000010
00010000
00000100
,  // measure 6
00001000
00000010
00000100
00000001
00001000
00000100
00100000
00010000
,  // measure 7
01000000
01000000
01100000
00000000
10010000
00000000
02100000
00000000
,  // measure 8
03010000
00100000
00001000
00010000
00100000
01000000
10000000
01000000
,  // measure 9
00010000
00100000
00001000
00010000
00000100
00000010
00000010
00000010
,  // measure 10
00000001
00000100
00000001
00001000
00000010
00010000
00000100
00001000
,  // measure 11
00000100
00000001
00000100
00001000
00000010
00000000
00000201
00000000
,  // measure 12
00000310
00000000
00010000
00000000
00001000
00000000
00000100
00000000
00000001
00000010
00000001
00000000
00001000
00000000
00000010
00000000
,  // measure 13
00010000
00000000
00000100
00000000
00001000
00000000
00000100
00000000
00010000
00001000
00100000
00000000
00010000
00000000
10000000
00000000
,  // measure 14
00100000
00000000
01000000
00000000
10000000
00000000
01000000
00000000
00010000
00100000
00001000
00000000
00010000
00000000
00000100
00000000
,  // measure 15
00001000
00000000
00000010
00000000
00001000
00000000
00000001
00000000
00000010
00000100
00000010
00000100
00002000
00000000
00000000
00000000
,  // measure 16
00003010
00000100
00000010
00000100
00000001
00001000
00000001
00001000
,  // measure 17
00000100
00010000
00000100
00010000
00001000
00100000
00001000
00100000
,  // measure 18
00010000
10000000
10100000
00000000
00100000
01000000
01010000
00000000
,  // measure 19
00100000
00000000
00100000
00000000
10000000
00010000
00100000
01000000
10000000
00000000
00010000
00000000
00110000
00000000
00000000
00000000
,  // measure 20
01000000
00000000
00001000
00000000
00010000
00000000
00001000
00100000
00000000
00100000
00001000
00000000
00010000
00000000
00000100
00001000
,  // measure 21
00000100
00000000
00010000
00000000
00000010
00000000
00000100
00000001
00000010
00000000
00000100
00000000
00001000
00000000
00000010
00000000
,  // measure 22
00010000
00000000
00000100
00000000
00010000
00000000
00001000
01000000
00000000
01000000
00010000
00000000
00100000
00000000
00010000
10000000
,  // measure 23
00010000
00000000
01000000
00000000
00100000
10000000
00000000
10000000
00010000
00000000
00100000
00000000
01000000
00000000
10000000
00000000
,  // measure 24
00100000
00000000
01000000
00000000
00001000
00000000
00100000
00000100
00000000
00000100
00010000
00000000
00001000
00000000
00010000
00000010
,  // measure 25
00010000
00000000
00000100
00000000
00001000
00000000
00000001
00000010
00000000
00000010
00000001
00000000
00000010
00000000
00000100
00000000
,  // measure 26
00001000
00000000
00000010
00000000
00010000
00000000
00000100
00001000
00000000
00001000
00000010
00000000
00000100
00000000
00000001
00001000
,  // measure 27
00000001
00000000
00000100
00000000
00000010
00010000
00000000
00010000
00001000
00000000
00010000
00000000
00022000
00000000
00033000
00000000
,  // measure 28
00100000
01000000
00100000
00000000
00010000
00000000
10000000
00100000
00000000
00100000
01000000
00000000
00010000
00000000
00100000
00001000
,  // measure 29
00100000
00000000
00001000
00000000
00010000
00000000
00000010
00000100
00000000
00000100
00000001
00000000
00000010
00000000
00000001
00001000
,  // measure 30
00000001
00000000
00000100
00000000
00000010
00000000
00001000
00000100
00000000
00000100
00010000
00000000
00001000
00000000
00100000
00010000
,  // measure 31
00100000
00000000
00010000
00000000
10000000
00100000
00000000
00100000
01000000
00000000
00010000
00000000
10000000
00000000
01000000
00000000
,  // measure 32
01100000
00000000
00000000
00000000
00010000
00000000
01100000
00000000
00000000
00001000
00010000
00000000
00020000
00000000
00032000
00000000
,  // measure 33
00013000
00000000
00000010
00000000
00000100
00000000
00000001
00000010
00000000
00000010
00000001
00000000
00001000
00000000
00000100
00010000
,  // measure 34
00000100
00000000
00001000
00000000
00000100
00000000
00010000
00001000
00000000
00001000
00100000
00000000
00010000
00000000
10000000
00100000
,  // measure 35
10000000
00000000
01000000
00000000
10000000
00010000
00000000
00010000
01000000
00000000
00100000
00000000
00010000
00000000
00001000
00000000
,  // measure 36
00011000
00010000
00011000
00001000
00011000
00010000
00011000
00001000
,  // measure 37
00010000
00010100
00001000
00010100
00001000
00010100
00001000
00010100
,  // measure 38
00001000
00000010
00001010
00000010
00001010
00000010
00001010
00000010
,  // measure 39
00000101
00001000
00000101
00001000
00000101
00001000
00000101
00001000
,  // measure 40
00000010
00010000
00010010
00010000
00010010
00010000
00010010
00010000
,  // measure 41
00000100
00101000
00000100
00101000
00000100
00101000
00000100
00101000
,  // measure 42
00100000
00010000
00110000
00010000
00110000
00010000
00110000
00000000
,  // measure 43
10000000
00000000
00000000
00010000
00000000
00000000
01000000
00000000
01000000
00000000
01000000
00000000
00010000
00000000
00000000
00100000
00000000
00000000
00110000
00000000
00000000
00000000
00000000
00000000
,  // measure 44
10000000
00000000
00100000
01000000
00000000
01000000
00000000
00010000
00000000
00100000
00000000
00001000
00010000
00000100
00010000
00000000
,  // measure 45
00001000
00000000
00010000
00000010
00000000
00000100
00000000
00000001
00000000
00000010
00000000
00000001
00001000
00000100
00001000
00000000
,  // measure 46
00000010
00000000
00010000
00001000
00000000
00010000
00000000
00000100
00000000
00001000
00000000
00000010
00010000
00001000
00000100
00000000
,  // measure 47
00000001
00000000
00000010
00000100
00000000
00010000
00000000
00001000
00000000
00010000
00000000
00001000
01000000
00010000
01000000
00000000
,  // measure 48
00100000
00000000
10000000
01000000
00000000
10000000
00000000
00010000
00000000
00100000
00000000
00001000
00010000
00001000
00100000
00000000
,  // measure 49
00001000
00000000
00010000
00000010
00000000
00000100
00000000
00000001
00000000
00000010
00000000
00000100
00010000
00000100
00001000
00000000
,  // measure 50
00000010
00000000
00001000
00000100
00000000
00010000
00000000
00001000
00000000
01000000
00000000
00100000
10000000
00010000
10000000
00000000
,  // measure 51
00100000
00000000
01000000
00000000
00001000
00010000
00000000
00010000
00000100
00000000
00001000
00000000
00001100
00000000
00000000
00000000
,  // measure 52
00000011
00000000
00000010
00000001
00000000
00000100
00000000
00001000
00000000
00000100
00000000
00000010
00010000
00001000
00010000
00000000
,  // measure 53
00000100
00000000
00010000
00001000
00000000
00100000
00000000
00010000
00000000
10000000
00000000
00010000
00100000
00010000
10000000
00000000
,  // measure 54
00100000
00000000
01000000
00010000
00000000
00100000
00000000
00001000
00000000
00010000
00000000
00000010
00000100
00000010
00001000
00000000
,  // measure 55
00000001
00000000
00000010
00000001
00000000
00001000
00000000
00000100
00000000
00000100
00000000
00010000
00001000
00010000
00000100
00000000
,  // measure 56
00010000
00000000
00001000
01000000
00000000
00010000
00000000
00100000
00000000
00110000
00000000
10000000
01000000
10000000
00010000
00000000
,  // measure 57
01000000
00000000
00100000
10000000
00000000
00010000
00000000
01000000
00000000
00011000
00000000
00010000
00000010
00001000
00000010
00000000
,  // measure 58
00000100
00000000
00000001
00000010
00000000
00000100
00000000
00001000
00000000
00001010
00000000
00010000
00000100
00001000
00000100
00000000
,  // measure 59
00010000
00000000
00001000
00000000
00100000
01000000
00000000
01000000
10000000
00000000
00010000
00000000
20020000
00000000
30030000
00000000
,  // measure 60
01100000
01000000
01010000
01000000
01100000
01000000
01010000
01000000
,  // measure 61
00100000
10100000
00100000
00110000
00100000
10100000
00100000
01000000
,  // measure 62
01010000
00010000
01010000
01000000
01010000
00010000
01010000
01000000
,  // measure 63
00001000
00011000
00010000
00011000
00001000
00011000
00010000
00010100
,  // measure 64
00002000
00003010
00001020
00001030
00001020
00001030
00001020
00001030
,  // measure 65
00000001
00000201
00000301
00000201
00000301
00000201
00000301
00000101
,  // measure 66
00000110
00000010
00002010
00003010
00000012
00000013
00002010
00003010
,  // measure 67
00010000
00000000
00001000
00000000
00010000
00000100
00010000
00001000
00100000
00000000
00010000
00000000
01010000
00000000
00000000
00000000
,  // measure 68
11000000
00000000
00000000
00000000
;
