#TITLE:CODE\:1 [revision 0.9.8];
#SUBTITLE:;
#ARTIST:HEXA;
#TITLETRANSLIT:;
#SUBTITLETRANSLIT:;
#ARTISTTRANSLIT:;
#GENRE:;
#CREDIT:;
#BANNER:CODE_1_(revision_0.9.8)_banner.png;
#BACKGROUND:CODE_1_(revision_0.9.8).png;
#LYRICSPATH:;
#CDTITLE:;
#MUSIC:CODE_1 [revision 0.9.8].ogg;
#OFFSET:-0.300000;
#SAMPLESTART:20.160000;
#SAMPLELENGTH:13.230000;
#LASTBEATHINT:273.000061;
#SELECTABLE:YES;
#DISPLAYBPM:145.000000;
#BPMS:0.000000=145.000000
,14.000000=290.000000
,14.500000=145.000000
,14.750000=72.500000
,15.000000=290.000000
,15.500000=145.000000
,15.750000=72.500000
,16.000000=145.000000
,46.000000=290.000000
,46.500000=145.000000
,46.750000=72.500000
,47.000000=290.000000
,47.500000=145.000000
,47.750000=72.500000
,48.000000=145.000000
,76.000000=72.500000
,76.250000=145.000000
,77.000000=290.000000
,78.000000=72.500000
,78.500000=145.000000
,78.750000=290.000000
,79.750000=72.500000
,80.000000=145.000000
,174.000000=290.000000
,174.500000=145.000000
,174.750000=72.500000
,175.000000=290.000000
,175.500000=145.000000
,175.750000=72.500000
,176.000000=145.000000
,207.000000=290.000000
,207.500000=145.000000
,207.750000=72.500000
,208.000000=145.000000
;
#STOPS:
;
#BGCHANGES:;
#KEYSOUNDS:;
#ATTACKS:;

//---------------dance-single - ----------------
#NOTES:
     dance-single:
     :
     Easy:
     5:
     0.229173,0.263918,0.112122,0.172496,0.000000,186.000000,173.000000,13.000000,20.000000,0.000000,0.000000,0.229173,0.263918,0.112122,0.172496,0.000000,186.000000,173.000000,13.000000,20.000000,0.000000,0.000000:
// measure 0
0000
0000
0000
0000
,  // measure 1
0000
0000
0000
0000
,  // measure 2
0000
0000
0000
0000
,  // measure 3
0000
0000
0000
0000
,  // measure 4
0100
0010
0100
0000
,  // measure 5
0010
0100
0010
0000
,  // measure 6
1000
0001
1000
0000
,  // measure 7
0001
1000
0001
0000
,  // measure 8
1000
0001
0010
0000
,  // measure 9
0001
1000
0010
0000
,  // measure 10
1010
0000
0101
0000
,  // measure 11
0001
1000
0010
0010
,  // measure 12
0100
0010
1000
0000
,  // measure 13
0001
0010
0100
0000
,  // measure 14
0010
0001
1000
0000
,  // measure 15
1000
0010
0200
0300
,  // measure 16
0010
1000
0100
0000
,  // measure 17
1000
0001
0010
0000
,  // measure 18
0001
1000
0100
0000
,  // measure 19
0220
0000
0330
0000
,  // measure 20
0001
1000
0010
0000
,  // measure 21
1000
0001
0100
0000
,  // measure 22
0001
0010
1000
0000
,  // measure 23
1000
0010
0001
0000
,  // measure 24
1000
0100
0001
0000
,  // measure 25
0001
0100
1000
0000
,  // measure 26
0110
0000
1001
0000
,  // measure 27
1000
0001
0010
0100
,  // measure 28
2000
0000
3000
0000
,  // measure 29
0002
0000
0003
0000
,  // measure 30
0020
0000
0030
0000
,  // measure 31
0200
0000
0300
0000
,  // measure 32
0220
0000
0330
0000
,  // measure 33
2002
0000
3003
0000
,  // measure 34
0202
0000
0303
0000
,  // measure 35
2020
0000
3030
0000
,  // measure 36
0100
0100
0100
0000
,  // measure 37
0010
0010
0010
0000
,  // measure 38
1000
1000
1000
0000
,  // measure 39
0001
0001
0001
0000
,  // measure 40
1000
0100
1000
0000
,  // measure 41
0001
0010
0001
0000
,  // measure 42
0001
0010
0100
1000
,  // measure 43
0220
0000
0330
0000
,  // measure 44
1000
0100
0010
0000
,  // measure 45
0010
0100
1000
0000
,  // measure 46
0001
0100
0010
0000
,  // measure 47
0010
0100
0001
0000
,  // measure 48
0001
1000
0100
0000
,  // measure 49
0100
1000
0001
0000
,  // measure 50
0010
0100
0001
1000
,  // measure 51
2002
0000
3003
0000
,  // measure 52
0010
0010
0100
0000
,  // measure 53
0001
0010
0001
1000
,  // measure 54
0100
0100
0010
0000
,  // measure 55
0100
1000
1010
0000
,  // measure 56
0001
0100
0010
0000
,  // measure 57
0010
1000
0001
0000
,  // measure 58
0001
0010
0100
1000
,  // measure 59
0100
0010
0002
0003
,  // measure 60
1000
1000
1000
0000
,  // measure 61
0100
0100
0100
0000
,  // measure 62
0010
0010
0010
0000
,  // measure 63
0001
0001
0001
0000
,  // measure 64
0010
0000
0100
0000
,  // measure 65
1000
0000
0001
0000
,  // measure 66
0100
0000
0010
0000
,  // measure 67
1000
0001
0010
0100
,  // measure 68
1001
0000
0000
0000
;

//---------------dance-single - ----------------
#NOTES:
     dance-single:
     :
     Medium:
     10:
     0.491612,0.498512,0.336366,0.163871,0.323429,399.000000,360.000000,39.000000,19.000000,0.000000,0.000000,0.491612,0.498512,0.336366,0.163871,0.323429,399.000000,360.000000,39.000000,19.000000,0.000000,0.000000:
// measure 0
0000
0000
0000
0000
,  // measure 1
0000
0000
0000
0000
,  // measure 2
0000
0000
0000
0000
,  // measure 3
0000
0000
0000
0000
,  // measure 4
1000
0000
0000
0001
0000
0000
0020
0000
0000
0000
0031
0000
0100
0000
0000
0000
,  // measure 5
0010
0000
0000
1000
0000
0000
0200
0000
0000
0000
1300
0000
0001
0000
0000
0000
,  // measure 6
1000
0000
0000
0001
0000
0000
0020
0000
0000
0000
0031
0000
0100
0000
0000
0000
,  // measure 7
0010
0000
0000
1000
0000
0000
0100
0000
1000
0000
0001
0000
0010
0000
0100
0000
,  // measure 8
1000
0000
0000
0010
0000
0000
1100
0000
0000
0000
0001
0000
0001
0000
0000
0000
,  // measure 9
0010
0000
0000
0001
0000
0000
0101
0000
0000
0000
1000
0000
1000
0000
0000
0000
,  // measure 10
0110
0000
1001
0000
,  // measure 11
0001
1000
0100
0010
0001
0000
1010
0000
,  // measure 12
0001
0000
0000
0010
0000
0000
0001
0000
1000
0000
0010
0000
1000
0000
0000
0000
,  // measure 13
0001
0000
0000
1000
0000
0000
0100
0000
1000
0000
0010
0000
0100
0000
0000
0000
,  // measure 14
0010
0000
0000
0100
0000
0000
0001
0000
0010
0000
0100
0000
1000
0000
0000
0000
,  // measure 15
1000
0000
0000
0001
0000
0000
0010
0000
0001
0000
0100
0000
1000
0000
0100
0000
,  // measure 16
0010
0000
0000
0110
0000
0000
1000
0000
0001
0000
0010
0000
0001
0000
0000
0000
,  // measure 17
1000
0000
0000
0110
0000
0000
1000
0000
0001
0000
0010
0000
0100
0000
0000
0000
,  // measure 18
0010
0000
0000
0011
0000
0000
1000
0000
0010
0000
0100
0000
0010
0000
0000
0000
,  // measure 19
2002
0000
0000
0000
0000
3003
0000
0000
,  // measure 20
0010
0000
0000
0100
0000
0000
0010
0000
0000
1000
0000
0000
0100
0000
0010
0000
,  // measure 21
0001
0000
0000
1000
0000
0000
0010
0000
0000
0100
0000
0000
0001
0000
0010
0000
,  // measure 22
0100
0000
0000
1000
0000
0000
0001
0000
0000
1000
0000
0000
0010
0000
0100
0000
,  // measure 23
0010
0000
0000
1000
0000
0000
0100
0000
1000
0000
0010
0000
0100
0000
0001
0000
,  // measure 24
0010
0000
0000
0001
0000
0000
0100
0000
0000
0010
0000
0000
1000
0000
0100
0000
,  // measure 25
1000
0000
0000
0010
0000
0000
0100
0000
0000
0001
0000
0000
0010
0000
0100
0000
,  // measure 26
1000
0000
0000
1001
0000
0000
0010
0000
0100
0000
0000
1001
0000
0000
0100
0000
,  // measure 27
0010
0100
0001
0010
0100
1000
0010
0100
,  // measure 28
0001
0000
0000
0010
0000
0000
0022
0000
0000
0000
0000
0000
0033
0000
0000
0000
,  // measure 29
1000
0000
0000
0010
0000
0000
2020
0000
0000
0000
0000
0000
3030
0000
0000
0000
,  // measure 30
0100
0000
0000
0001
0000
0000
2002
0000
0000
0000
0000
0000
3003
0000
0000
0000
,  // measure 31
0010
0000
0000
1000
0000
0000
0202
0000
0000
0000
0000
0000
0303
0000
0000
0000
,  // measure 32
0010
0000
0000
0001
0000
0000
1100
0000
0000
0000
0000
0000
0001
0000
0010
0000
,  // measure 33
0001
0000
0000
0100
0000
0000
1010
0000
0000
0000
0000
0000
0100
0000
0001
0000
,  // measure 34
1000
0000
0000
0110
0000
0000
0001
0000
0000
0000
0000
0000
1000
0000
0010
0000
,  // measure 35
0100
0000
0000
0011
0000
0000
0200
0000
0000
0000
0000
0000
0310
0000
0010
0000
,  // measure 36
1000
0000
0000
0001
0000
0000
0011
0000
0000
1000
0000
0000
0010
0000
0100
0000
,  // measure 37
0001
0000
0000
1000
0000
0000
1100
0000
0000
0010
0000
0000
0100
0000
0001
0000
,  // measure 38
0010
0000
0000
0001
0000
0000
0101
0000
0000
1000
0000
0000
0100
0000
0010
0000
,  // measure 39
0100
0000
0000
1000
0000
0000
1001
0000
0000
0010
0000
0000
0100
0000
0001
0000
,  // measure 40
0010
0000
0000
0001
0000
0000
1000
0000
0000
0010
0000
0000
1000
0000
0001
0000
,  // measure 41
0100
0000
0000
0001
0000
0000
1000
0000
0000
0100
0000
0000
1000
0000
0010
0000
,  // measure 42
0100
0001
0010
0100
1000
0010
0100
0001
,  // measure 43
0022
0033
1100
0011
,  // measure 44
1000
0000
0000
0010
0000
0000
1000
0000
0000
0001
0000
0000
0010
0000
0001
0000
,  // measure 45
0100
0000
0000
0010
0000
0000
1000
0000
0000
0100
0000
0000
1000
0000
0001
0000
,  // measure 46
0100
0000
0000
0010
0000
0000
0100
0000
0000
0001
0000
0000
0010
0000
0100
0000
,  // measure 47
1000
0000
0000
0010
0000
0000
1000
0000
0010
0000
0100
0000
0010
0000
0100
0000
,  // measure 48
0001
0000
0000
0010
0000
0000
0100
0000
0000
1100
0000
0000
0001
0000
0100
0000
,  // measure 49
0010
0000
0000
1000
0000
0000
0001
0000
0000
0101
0000
0000
0010
0000
1000
0000
,  // measure 50
0010
0000
0000
0100
0000
0000
0001
0000
0000
0010
0000
0000
0100
0000
1000
0000
,  // measure 51
0010
0000
0000
0100
0000
0000
0010
0000
0100
0000
0001
0000
2000
0000
3000
0000
,  // measure 52
0001
0000
0000
0010
0000
0000
0001
0000
0000
0010
0000
0000
0100
0000
1000
0000
,  // measure 53
0010
0000
0000
1000
0000
0000
0001
0000
0000
1000
0000
0000
0010
0000
0100
0000
,  // measure 54
0001
0000
0000
0010
0000
0000
0100
0000
0000
1000
0000
0000
0010
0000
1000
0000
,  // measure 55
0001
0000
0000
0100
0000
0000
0010
0000
1000
0000
0000
1001
0000
0000
0001
0000
,  // measure 56
0100
0010
0100
0000
0001
0010
0100
1000
,  // measure 57
0010
0100
0010
0000
1000
0100
0010
0001
,  // measure 58
1000
0010
1000
0001
0010
0001
1000
0000
,  // measure 59
0001
0100
0010
1000
0100
0010
0001
1000
,  // measure 60
0010
0000
0000
0110
0000
0000
0010
0000
1000
0000
0100
0000
1000
0000
0000
0000
,  // measure 61
0100
0000
0000
0110
0000
0000
0010
0000
0001
0000
0100
0000
0001
0000
0000
0000
,  // measure 62
1000
0000
0000
1010
0000
0000
0001
0000
0010
0000
0100
0000
1000
0000
0000
0000
,  // measure 63
1000
0000
0000
0101
0000
0000
0010
0000
0100
0000
0001
0000
0010
0000
0000
0000
,  // measure 64
0001
0000
0000
1001
0000
0000
0202
0000
0000
0000
0303
0000
0000
0000
0000
0000
,  // measure 65
1000
0000
0000
1010
0000
0000
1100
0000
0000
0000
0000
0000
0001
0000
0000
0000
,  // measure 66
0010
0000
0000
1001
0000
0000
0110
0000
0000
0000
0000
0000
0010
0000
0000
0000
,  // measure 67
1000
0100
1000
0001
0010
0001
0100
1000
,  // measure 68
0010
0000
0000
0000
;

//---------------dance-single - ----------------
#NOTES:
     dance-single:
     :
     Hard:
     15:
     0.728178,0.821079,0.344991,0.215619,0.694295,591.000000,551.000000,40.000000,25.000000,0.000000,0.000000,0.728178,0.821079,0.344991,0.215619,0.694295,591.000000,551.000000,40.000000,25.000000,0.000000,0.000000:
// measure 0
0000
0000
0000
0000
,  // measure 1
0000
0000
0000
0000
,  // measure 2
0000
0000
0000
0000
,  // measure 3
0000
0000
1010
0011
,  // measure 4
0100
0000
0010
0100
0000
0000
0010
0000
0100
0000
0001
0000
0010
0000
0000
0000
,  // measure 5
0100
0000
1000
0010
0000
0000
1000
0000
0010
0000
0100
0000
0020
0000
0000
0000
,  // measure 6
1030
0000
0001
0100
0000
0000
0001
0000
1000
0000
0100
0000
0010
0000
0000
0000
,  // measure 7
0100
0000
1000
0001
0000
0000
1000
0000
0010
0000
0010
0000
0010
0000
0010
0000
,  // measure 8
0100
0000
0001
0010
0000
0000
0001
0000
1000
0000
0100
0000
1000
0000
0010
0000
,  // measure 9
0100
0000
0010
1000
0000
0000
0001
0000
0010
0000
0100
0000
1000
0000
0001
0000
,  // measure 10
1001
0000
0110
0000
,  // measure 11
0001
0000
1000
0000
0010
0100
0010
0100
0010
0000
0000
0000
1001
0000
0000
0000
,  // measure 12
1000
0000
0010
0100
0001
0000
0010
0000
0100
0000
1000
0000
0001
0000
0100
0000
,  // measure 13
0010
0000
1000
0001
0010
0000
0001
0000
0100
0000
0010
0000
1000
0000
0100
0000
,  // measure 14
0010
0000
0100
1000
0001
0000
0100
0000
0010
0000
1000
0000
0001
0000
0010
0000
,  // measure 15
0001
0000
0100
0010
1000
0000
0100
0000
1000
0000
1000
0000
1000
0000
1000
0000
,  // measure 16
0010
0000
0100
0001
0010
0000
0001
0000
1000
0000
0100
0000
0001
0000
0100
0000
,  // measure 17
1000
0000
0001
0010
0100
0000
1000
0000
0001
0000
0010
0000
1000
0000
0010
0000
,  // measure 18
0001
0000
1000
0010
0100
0000
0001
0000
0010
0100
1000
0000
0001
0000
0100
0000
,  // measure 19
0220
0000
0000
0000
0000
0000
0000
0000
0330
0000
0000
0002
0000
0000
0000
2003
,  // measure 20
3010
0000
0100
0001
0010
0000
0100
0000
1000
0010
0100
0000
0001
0000
0010
0000
,  // measure 21
0001
0000
1000
0010
0100
0000
0010
0000
1000
0100
0010
0000
0001
0000
0010
0000
,  // measure 22
0100
0000
1000
0010
0100
0000
0010
0000
1000
0100
0010
0000
0001
0000
0100
0000
,  // measure 23
0010
0000
1000
0001
0100
0000
0010
0000
1000
0010
0100
0000
0001
0010
0001
0010
,  // measure 24
0001
0000
1000
0010
0100
0000
0010
0000
1000
0100
0010
0000
0001
0000
0001
0000
,  // measure 25
0010
0000
0100
1000
0001
0000
0100
0000
0010
1000
0100
0000
1000
0000
1000
0000
,  // measure 26
0100
0000
0010
0100
0000
0001
1000
0001
1000
0000
0010
0100
0000
0001
0010
0001
,  // measure 27
1000
0010
0100
0000
0001
0010
0100
0000
1000
0001
1000
0001
1000
0000
0010
0000
,  // measure 28
0100
0000
0001
0010
0000
0000
0012
0000
0000
0000
1003
0000
0100
0000
1000
0000
,  // measure 29
0010
0000
0100
0001
0000
0000
0102
0000
0000
0000
1003
0000
0100
0000
0010
0000
,  // measure 30
0100
0000
1000
0010
0000
0000
1020
0000
0000
0000
0130
0000
0001
0000
0010
0000
,  // measure 31
0001
0000
1000
0100
0000
0000
2100
0000
0000
0000
3001
0000
0010
0000
0100
0000
,  // measure 32
1000
0000
0001
0100
0000
0000
0201
0000
0000
0000
0310
0000
1000
0000
0001
0000
,  // measure 33
0010
0000
0001
1000
0000
0000
1020
0000
0000
0000
0130
0000
0001
0000
1000
0000
,  // measure 34
0001
0000
0010
0100
0000
0000
0210
0000
0000
0000
1300
0000
0010
0000
1000
0000
,  // measure 35
0001
0000
0100
0010
0000
0000
0120
0000
0000
0000
1030
0000
0001
0000
0001
0000
,  // measure 36
1000
0000
0010
0100
0000
0000
0102
0000
0000
0013
0000
0000
0100
0000
1000
0000
,  // measure 37
0010
0000
0100
0001
0000
0000
2001
0000
0000
3010
0000
0000
0100
0000
0001
0000
,  // measure 38
0010
0000
0100
1000
0000
0000
1020
0000
0000
0130
0000
0000
0001
0000
0010
0000
,  // measure 39
0100
0000
1000
0001
0000
0000
0012
0000
0000
0103
0000
0000
0010
0000
0010
0000
,  // measure 40
1000
0000
0001
0010
0000
0000
0101
0000
0000
0010
1000
0000
0100
0000
0100
0000
,  // measure 41
0010
0000
0100
1000
0000
0000
1001
0000
0000
0010
0100
0000
0001
0000
0001
0000
,  // measure 42
0100
0010
1000
0000
0001
0010
0100
0000
1000
0001
1000
0001
1000
0000
0010
0000
,  // measure 43
0220
0330
1001
0110
,  // measure 44
0001
0010
0001
0010
0000
0001
0100
0000
0000
0010
1000
0000
0100
0000
0100
0000
,  // measure 45
1000
0010
1000
0010
0000
0100
0001
0000
0000
0010
0001
0000
1000
0000
1000
0000
,  // measure 46
0010
0100
0010
0100
0000
0001
0010
0000
0000
0001
1000
0000
0100
0000
0100
0000
,  // measure 47
0010
0100
0010
0100
0000
1000
0010
0000
0100
0000
0100
0000
0100
0000
0100
0000
,  // measure 48
0001
0010
0001
0010
0000
0100
1000
0000
0010
0100
0000
0010
1000
0000
0001
0000
,  // measure 49
0010
0100
0010
0100
0000
1000
0001
0000
0100
0010
0000
1000
0010
0000
0100
0000
,  // measure 50
0001
1000
0001
1000
0000
0010
0100
0000
0001
0010
0000
0100
1000
0000
0010
0000
,  // measure 51
1000
0100
1000
0100
0000
0010
0100
0000
1000
0001
0000
0010
0002
0000
0003
0000
,  // measure 52
0100
0010
0100
0010
0000
1000
0000
1010
0000
0100
0010
0100
0001
0000
0011
0000
,  // measure 53
0010
0001
0010
0001
0000
0100
0000
0110
0000
1000
0100
1000
0010
0000
0110
0000
,  // measure 54
1000
0010
1000
0010
0000
0100
0000
0101
0000
0001
0010
0001
1000
0000
1100
0000
,  // measure 55
0100
0010
0100
0010
0000
0001
0000
0010
0001
0000
1000
0010
0000
1000
0100
1000
,  // measure 56
0010
0100
0010
0100
0000
0001
0000
0011
0000
1000
0100
1000
0010
0000
0110
0000
,  // measure 57
0100
0001
0100
0001
0000
1000
0000
1001
0000
0010
0100
0010
1000
0000
1001
0000
,  // measure 58
0001
0010
0001
0100
0000
0010
0000
1000
0100
1000
0000
0010
0100
0000
0001
0000
,  // measure 59
0010
0001
0010
0000
0100
1000
0100
0000
1000
0001
1000
0001
0010
0100
0010
0100
,  // measure 60
0010
0000
0000
0001
0010
0000
0001
0000
0010
0000
0010
0000
0010
0000
0000
0000
,  // measure 61
0100
0000
0000
1000
0100
0000
1000
0000
0100
0000
0100
0000
0100
0000
0000
0000
,  // measure 62
1000
0000
0000
0010
1000
0000
0010
0000
1000
0000
1000
0000
1000
0000
0000
0000
,  // measure 63
0001
0000
0000
0100
0001
0000
0100
0000
0001
0000
0001
0000
0001
0000
0000
0000
,  // measure 64
1000
0000
0000
1010
0000
0000
2002
0000
0000
0000
0000
0000
3003
0000
0000
0000
,  // measure 65
0001
0000
0000
0011
0000
0000
0201
0000
0000
0000
0000
0000
0310
0000
0000
0000
,  // measure 66
1010
0000
0000
1100
0000
0000
2002
0000
0000
0000
0000
0000
3003
0000
0000
0000
,  // measure 67
0010
0100
0010
0000
1000
0001
1000
0000
0001
0100
0010
1000
0100
0000
0010
0000
,  // measure 68
1000
0000
0000
0000
;
