#TITLE:CODE\:Ø;
#SUBTITLE:;
#ARTIST:BEMANI Sound Team "HEXA";
#TITLETRANSLIT:;
#SUBTITLETRANSLIT:;
#ARTISTTRANSLIT:HEXA;
#GENRE:BIG BEAT;
#CREDIT:;
#BANNER:CODE 0_banner.png;
#BACKGROUND:CODE 0.png;
#LYRICSPATH:;
#CDTITLE:;
#MUSIC:CODE 0.ogg;
#OFFSET:-0.470000;
#SAMPLESTART:69.580002;
#SAMPLELENGTH:15.370000;
#LASTBEATHINT:248.000000;
#SELECTABLE:YES;
#DISPLAYBPM:125.000000;
#BPMS:0.000000=124.999992
,15.000000=249.999985
,17.000000=124.999992
,48.500000=249.999985
,49.000000=124.999992
,120.500000=249.999985
,121.000000=124.999992
,128.500000=249.999985
,129.000000=124.999992
,132.500000=249.999985
,133.000000=124.999992
,136.500000=249.999985
,137.000000=124.999992
,144.000000=249.999985
,146.000000=124.999992
,192.750000=249.999985
,193.250000=124.999992
,229.000000=62.499996
,229.250000=124.999992
,229.500000=249.999985
,230.000000=124.999992
;
#STOPS:48.500000=0.120000,
120.500000=0.120000,
128.500000=0.120000,
132.500000=0.120000,
136.500000=0.120000,
192.750000=0.120000
;
#BGCHANGES:;
#KEYSOUNDS:;
#ATTACKS:;

//---------------dance-single - ----------------
#NOTES:
     dance-single:
     :
     Easy:
     6:
     0.226455,0.249972,0.203229,0.146325,0.000000,195.000000,170.000000,25.000000,18.000000,0.000000,0.000000,0.226455,0.249972,0.203229,0.146325,0.000000,195.000000,170.000000,25.000000,18.000000,0.000000,0.000000:
0000
0000
0000
0000
,
0000
0000
0000
0000
,
0000
0000
0000
0000
,
0000
0000
0000
0000
,
0000
1000
0100
0010
,
0000
0001
0100
0010
,
0000
1000
0001
0100
,
0000
0010
1000
2002
,
3003
0010
0001
0100
,
0000
0010
1000
0100
,
0000
1000
0001
0010
,
0000
0001
1000
0010
,
0000
0100
0010
0110
,
0000
1000
0100
1100
,
0000
0001
0010
0011
,
0000
1000
0001
2002
,
3003
0100
0010
1010
,
0000
0001
0010
0110
,
0000
0100
1000
1001
,
0000
0010
1000
1001
,
0000
0020
0000
0031
,
0000
2000
0000
3010
,
0000
0200
0000
0301
,
0000
0002
0000
1003
,
0000
0010
0100
0010
,
0000
1000
0100
1000
,
0000
0001
0010
0001
,
0000
1000
0001
0220
,
0330
0001
0010
0100
,
0000
1000
0010
0100
,
0000
0010
0100
0001
,
0000
0010
0100
1000
,
0000
0001
1000
1001
,
0000
1000
0001
1001
,
0000
0110
0000
1001
,
0000
0220
0000
0330
,
0000
0000
1000
0100
,
0010
0000
0001
1000
,
0010
0000
0100
0001
,
1000
0000
0001
0010
,
0220
0330
1000
0010
,
0100
0000
0001
0010
,
0100
0000
1000
0010
,
0100
0001
0010
0100
,
2002
3003
0010
0010
,
0100
0010
1000
0001
,
1001
0000
0010
0010
,
0001
0100
1000
0001
,
0110
0000
0100
0010
,
1000
0100
0010
0001
,
0110
0000
0010
0100
,
1000
0001
0100
0010
,
1001
0000
0220
0000
,
0330
0000
0001
0010
,
0100
0000
1000
0010
,
0100
0000
0001
1000
,
0100
0000
1000
0001
,
0010
0000
0001
1000
,
1001
0000
0010
0100
,
1010
0000
0010
0001
,
1100
0001
0010
1000
,
0100
0001
1000
0000
;

//---------------dance-single - ----------------
#NOTES:
     dance-single:
     :
     Medium:
     12:
     0.452910,0.474463,0.227616,0.089421,0.097550,390.000000,362.000000,28.000000,11.000000,0.000000,0.000000,0.452910,0.474463,0.227616,0.089421,0.097550,390.000000,362.000000,28.000000,11.000000,0.000000,0.000000:
0000
0000
0000
0000
,
0000
0000
0000
0000
,
0000
0000
0000
0000
,
1000
0000
1001
0000
0010
0100
0010
0000
,
0000
0000
0110
0000
0100
0010
1000
0100
,
0010
0000
0001
0000
0100
0010
0100
0001
,
0010
0000
0001
0000
1000
0010
0100
0010
,
1000
0000
0001
0000
1000
0100
0010
0001
,
0100
0000
0110
0000
1000
0010
0001
0010
,
1000
0000
0001
0000
1000
0100
0001
0100
,
1000
0000
0001
0100
0010
1000
0001
1000
,
0100
0000
0010
0001
0100
0010
1000
0001
,
0100
0000
0110
0000
0010
1000
0001
0010
,
0100
0000
1010
0000
0100
0010
1000
0100
,
0010
0000
0101
0000
0010
1000
0001
0010
,
0100
0000
1010
0000
0100
0001
1000
0010
,
0100
0000
0001
0010
0100
0001
0100
0010
,
0001
0000
1000
0010
0100
1000
0100
0010
,
1000
0000
0001
0100
1000
0100
0001
1000
,
0100
0000
1000
0010
0001
0010
1000
0001
,
0100
0012
1000
0100
,
0000
2003
0010
0001
,
0000
3020
0100
1000
,
0000
0230
0001
0010
,
0000
0320
1000
0001
,
0000
0230
0001
1000
,
0000
0302
0010
1000
,
0000
2003
0010
0001
,
3000
0000
1001
0000
0010
0100
0001
1000
,
0100
0000
0011
0000
1000
0010
0100
0010
,
1000
0000
0001
0010
0100
0010
0001
0000
,
1000
0010
1000
0100
0010
0001
0100
0000
,
0110
0000
1000
0001
0010
0100
1000
0000
,
1001
0000
0010
0100
0001
1000
0100
0000
,
0110
0011
1100
1010
,
0101
0000
1000
0001
0010
0100
1000
0001
,
2002
0000
3003
0000
0100
0010
1000
0100
,
0010
0001
0100
0000
0001
0010
0100
1000
,
0010
1000
0100
0000
0010
0001
1000
0010
,
0100
0001
0010
0000
0001
0100
1000
0100
,
0001
0000
1001
0000
0100
0010
1000
0100
,
0010
0001
0101
0000
1000
0010
1000
0100
,
0010
0001
1001
0000
0010
1000
0100
0010
,
0001
0100
0110
0000
0001
1000
0100
1000
,
0001
0000
0010
0000
0011
0000
0000
0000
0001
0000
1000
0000
0010
0100
0000
0100
,
0010
0000
1000
0000
0100
0000
0000
0000
1000
0000
0010
0000
0100
0001
0000
0001
,
0010
0000
0100
0000
1000
0000
0000
0000
0010
0000
0100
0000
0010
1000
0000
1000
,
0001
0000
0010
0000
0100
0000
0000
0000
1000
0000
0010
0000
1000
0001
0000
0001
,
0100
0000
0010
0000
0000
0100
0010
0000
1000
0000
0100
0000
0010
0001
0000
0001
,
1000
0000
0010
0000
0100
0000
0000
0000
0001
0000
0010
0000
0100
1000
0000
1000
,
0010
0100
0001
0000
0010
0001
1001
0000
,
0010
0000
1000
0000
1001
0000
0000
0000
0100
0000
0010
0000
0100
0010
0000
0010
,
0100
0000
0001
0000
1000
0001
1000
0000
0020
0000
0000
0000
0000
0000
0000
0000
,
0000
0000
0030
0000
1000
0100
0001
1000
,
0010
0001
0100
0000
0001
0100
1000
0001
,
0010
1000
0100
0000
1000
0001
0011
0000
,
0001
1000
1010
0000
0100
0010
0100
0001
,
1000
0000
0100
0000
0110
0000
0000
0000
0001
0000
0010
0000
0100
1000
0000
1000
,
0010
0000
0100
0000
0001
0000
0000
0000
0010
0000
0001
0000
1000
0010
0000
0010
,
0100
0010
1000
0000
0001
0010
1000
0010
,
0001
0000
1000
0000
0010
0000
0001
0000
0010
0000
1000
0000
0001
1000
0000
1000
,
0001
0000
0100
0000
0010
0100
0010
0100
0000
0000
0000
0000
0000
0000
0000
0000
;

//---------------dance-single - ----------------
#NOTES:
     dance-single:
     :
     Hard:
     16:
     0.724656,0.674237,0.154454,0.487749,0.764141,624.000000,605.000000,19.000000,60.000000,0.000000,0.000000,0.724656,0.674237,0.154454,0.487749,0.764141,624.000000,605.000000,19.000000,60.000000,0.000000,0.000000:
// measure 0
0000
0000
0000
0000
,  // measure 1
0000
0000
0000
0000
,  // measure 2
0000
0000
0000
0000
,  // measure 3
0100
0000
0010
0000
0000
0000
0100
0001
1000
0000
0000
0000
0000
0000
0010
0100
0001
0000
0010
0000
0100
0000
1000
0000
0020
0000
0000
0000
0000
0000
0000
0000
,  // measure 4
0230
0000
0000
0000
0301
0000
0010
0000
0100
1000
0010
1000
0002
0000
1003
0000
,  // measure 5
0010
0100
0010
0000
1000
0000
0010
0000
1000
0100
0010
0100
2000
0000
3001
0000
,  // measure 6
0100
0010
0100
0000
0001
0000
0010
0000
0001
1000
0100
0010
0002
0000
1003
0000
,  // measure 7
0010
0100
0010
0000
1000
0000
0100
0000
0010
0100
1000
0100
0020
0000
0031
0000
,  // measure 8
0100
0010
0100
0000
0001
0000
1000
0000
0010
0100
0001
0100
0020
0000
0130
0000
,  // measure 9
0001
0010
0100
0000
1000
0000
0001
0000
1000
0010
0100
0001
0020
0000
0130
0000
,  // measure 10
1000
0010
0100
0000
0001
0000
1000
0000
0100
0010
0001
0010
0200
0000
1300
0000
,  // measure 11
0010
1000
0001
0000
0010
0000
0001
0000
1000
0001
0100
0001
1000
0000
0010
0000
,  // measure 12
0220
0000
0330
0000
1001
0000
1000
0000
0010
0100
0010
1000
0020
0000
0130
0000
,  // measure 13
0001
0010
0100
0000
1000
0000
0010
0000
1000
0001
0010
0100
2000
0000
3001
0000
,  // measure 14
0100
0010
1000
0000
0001
0000
1000
0000
0100
0010
0100
0001
0200
0000
1300
0000
,  // measure 15
0010
0100
0001
0000
0100
0000
1000
0000
0100
0010
0100
0001
0200
0000
0310
0000
,  // measure 16
1000
0001
0010
0000
0001
0000
0100
0000
0010
1000
0100
1000
0020
0000
0130
0000
,  // measure 17
0001
0010
0100
0000
1000
0000
0010
0000
1000
0001
0010
0001
2000
0000
3100
0000
,  // measure 18
0010
0100
1000
0000
0010
0000
0100
0000
0001
1000
0010
1000
0002
0000
0103
0000
,  // measure 19
0010
0000
0100
0000
0001
0000
0000
0000
0010
0000
0001
0000
0000
0000
1000
0010
0100
0000
0000
0000
0000
0000
0001
0010
0100
0000
0000
0000
1000
0000
0010
0000
,  // measure 20
0100
0001
1000
0010
0200
0000
0001
0000
0001
0000
0300
0010
0200
0000
0301
0000
,  // measure 21
0010
0100
1000
0000
0020
0000
1000
0000
1000
0000
0030
0100
0020
0000
1030
0000
,  // measure 22
0001
0010
0100
0000
2000
0000
0001
0000
0001
0000
3000
0010
2000
0000
3100
0000
,  // measure 23
0010
0001
1000
0000
0002
0000
0100
0000
0100
0000
0003
0010
0002
0000
1003
0000
,  // measure 24
0100
0010
0001
0000
0100
0000
0000
0110
0000
0000
0001
0000
2000
0000
3010
0000
,  // measure 25
0100
0010
1000
0000
0001
0000
0000
1100
0000
0000
0010
0000
0200
0000
0301
0000
,  // measure 26
0010
0001
1000
0000
0010
0000
0000
1001
0000
0000
0100
0000
0020
0000
0130
0000
,  // measure 27
0001
1000
0100
0000
0010
0000
0000
1001
0000
0000
0100
0000
0020
0000
1030
0100
,  // measure 28
0010
0001
1000
0000
0010
0000
0100
0000
0010
0100
0010
0000
2000
0000
3000
0100
,  // measure 29
1000
0000
0100
0000
1000
0000
0010
0000
1000
0100
1000
0000
0002
0000
0003
0010
,  // measure 30
0001
1000
0001
0000
0100
0000
0010
0000
1000
0100
1000
0000
0020
0000
0030
0100
,  // measure 31
0010
0000
1000
0000
0001
0000
0010
0000
0001
1000
0100
0000
2000
0000
3000
0010
,  // measure 32
1000
0100
1000
0000
0001
0000
0100
0000
0010
0100
0000
0010
2000
0000
3100
0000
,  // measure 33
0010
0100
1000
0000
0001
0000
0100
0000
0010
0100
0000
0010
2000
0000
3001
0000
,  // measure 34
0010
0001
1000
0000
0010
0100
0001
0000
0010
0000
0100
0000
1000
0010
0100
0000
,  // measure 35
0001
0000
0010
0001
1000
0010
1000
0000
0001
0100
0001
0000
1000
0010
0100
0001
,  // measure 36
0020
0000
0000
0000
0230
0000
0000
0000
1300
0000
0010
0000
1000
0100
1000
0010
,  // measure 37
2000
0000
3001
0000
0010
0001
1000
0000
0010
0000
0100
0000
0010
1000
0010
0100
,  // measure 38
0020
0000
1030
0000
0001
1000
0100
0000
0010
0000
0001
0000
1000
0010
0100
0010
,  // measure 39
2000
0000
3001
0000
0010
0001
1000
0000
0010
0000
0100
0000
0001
1000
0100
1000
,  // measure 40
0002
0000
0013
0000
0110
0000
0000
0000
1000
0010
0000
0010
0100
0010
0100
0010
,  // measure 41
2000
0000
3010
0000
0100
0010
1000
0000
0001
0010
0000
0010
0100
0010
0100
0010
,  // measure 42
0002
0000
1003
0000
0010
0100
0001
0000
1000
0100
0000
0100
0010
0100
1000
0100
,  // measure 43
0020
0000
0031
0000
0100
0010
1000
0000
0001
0100
0000
0100
0010
0100
0001
0100
,  // measure 44
0020
0000
1030
0000
0001
1000
0010
0000
0100
0000
0010
0000
0110
0000
0100
0000
,  // measure 45
0201
0301
0011
0000
1100
1000
1010
0010
,  // measure 46
0120
0130
0101
0000
0011
0010
0110
0100
,  // measure 47
1200
0000
1300
0000
1001
0000
0000
0000
0010
0000
0100
0000
0010
0100
0001
1000
,  // measure 48
0020
0000
0130
0010
0000
0010
0100
0010
1000
0001
0000
0001
0010
0100
1000
0100
,  // measure 49
0020
0000
0031
0100
0000
0010
0100
0000
0001
1000
0000
1000
0010
0100
0001
0100
,  // measure 50
0020
0000
1030
0100
0000
1000
0010
0000
0100
0001
0010
0100
1000
0000
0010
0000
,  // measure 51
1000
0010
0100
0001
0010
0000
0001
0000
1000
0010
0000
0010
0100
0000
0001
0010
,  // measure 52
0001
1000
0001
1000
0010
0100
0010
0100
0020
0000
0000
0000
0000
0000
0000
0000
,  // measure 53
0000
0000
0000
0000
0030
0000
0000
0000
0100
0000
0010
0000
1000
0100
0010
0100
,  // measure 54
2000
0000
3010
0000
0100
0010
0100
0000
0001
0000
0010
0000
0100
1000
0100
0010
,  // measure 55
0200
0000
1300
0000
0010
0100
0001
0000
0010
0000
0001
0000
1000
0100
0010
0001
,  // measure 56
0200
0000
0310
0000
1000
0001
0100
0000
0001
0000
0010
0000
0001
0100
0010
1000
,  // measure 57
0020
0000
0130
0010
1000
0000
0000
0000
1001
0000
0001
0000
0100
0010
0001
0010
,  // measure 58
0200
0000
0310
0000
1000
0100
0010
0000
0100
0000
1000
0000
0010
0100
1000
0100
,  // measure 59
0020
0000
0130
0000
0001
0100
0010
0000
1000
0000
0001
0000
1000
0100
0010
0100
,  // measure 60
2000
0000
3100
0000
0010
0001
1000
0001
0010
0001
0000
0001
0100
0001
0000
0001
,  // measure 61
1000
0010
0100
0001
0010
0100
1000
0010
0000
0000
0000
0000
0000
0000
0000
0000
;
