#TITLE:CO5M1C R4ILR0AD;
#SUBTITLE:;
#ARTIST:kanone;
#TITLETRANSLIT:;
#SUBTITLETRANSLIT:;
#ARTISTTRANSLIT:;
#GENRE:;
#CREDIT:;
#BANNER:CO5M1C R4ILR0AD_banner.png;
#BACKGROUND:CO5M1C R4ILR0AD.png;
#LYRICSPATH:;
#CDTITLE:;
#MUSIC:CO5M1C R4ILR0AD.ogg;
#OFFSET:-0.520000;
#SAMPLESTART:77.930000;
#SAMPLELENGTH:12.390000;
#LASTBEATHINT:344.500000;
#SELECTABLE:YES;
#BPMS:0.000000=155.000000
;
#STOPS:
;
#BGCHANGES:;
#KEYSOUNDS:;
#ATTACKS:;

//---------------dance-single - ----------------
#NOTES:
     dance-single:
     :
     Easy:
     6:
     0.232158,0.285870,0.088642,0.206831,0.007387,220.000000,208.000000,12.000000,28.000000,0.000000,0.000000,0.232158,0.285870,0.088642,0.206831,0.007387,220.000000,208.000000,12.000000,28.000000,0.000000,0.000000:
0000
0000
0000
0000
,
0000
0000
0000
0000
,
0100
0000
0000
0100
0000
0000
0000
0000
0000
0000
0000
0000
0000
0000
0000
0000
,
0000
0000
0000
0000
,
0001
0000
0000
0001
0000
0000
0000
0000
0000
0000
0000
0000
0000
0000
0000
0000
,
0000
0000
0000
0000
,
1000
0000
0100
0000
,
0010
0000
0001
0000
,
0100
0010
1000
0001
,
2002
0000
3003
0000
,
0100
0000
0001
0010
,
0100
0000
1000
0010
,
0100
0000
0001
0010
,
0100
0000
0100
0010
,
0001
0000
1000
0010
,
0100
0000
0010
1000
,
0002
0000
2003
0000
,
3010
0000
0010
0100
,
0001
0000
0001
0010
,
0100
0000
0010
0100
,
1000
0000
1000
0000
,
0100
1000
0010
0100
,
0001
0000
0010
0001
,
1000
0000
0010
1000
,
0100
0000
0100
0000
,
1000
0010
0100
0001
,
1001
0000
0100
0010
,
0100
0000
0001
0010
,
0001
0000
1000
0100
,
1000
0000
0010
0000
,
0100
0001
1000
0000
,
0010
0100
0002
0000
,
0023
0000
0030
0000
,
0220
0000
0000
0000
0000
0330
0000
0000
,
1001
0000
0000
0000
,
0000
0000
0000
0000
,
1000
0000
0010
0000
,
0100
0000
0000
0000
,
0001
0000
0010
0000
,
0100
0000
0000
0000
,
1000
0000
0001
0000
,
0220
0000
0330
0000
,
0001
0010
0001
0000
,
1000
0100
1000
0000
,
0010
0100
0010
0000
,
1000
0001
1000
0000
,
0001
0010
0010
0000
,
0001
0100
0100
0000
,
0001
0010
0100
1000
,
2002
0000
3003
0000
,
0100
0000
0010
0100
,
0001
0000
0010
0100
,
1000
0000
0001
0100
,
0010
0000
0110
0000
,
1000
0010
1000
0000
,
0100
1000
0001
0000
,
0010
0001
0100
0010
,
2000
0000
3001
0000
,
0100
0010
1000
0000
,
1000
0100
0010
0000
,
0001
0100
0010
0000
,
0010
0100
0001
0010
,
0200
0000
2300
0000
,
3002
0000
0203
0000
,
0310
1000
0001
0100
,
0220
0000
0330
0000
,
0001
0010
0100
0000
,
1000
0010
0100
0000
,
0001
1000
0100
0000
,
1000
0010
0100
0001
,
0020
0000
0230
0000
,
1300
0001
0100
0010
,
2000
0000
3200
0000
,
0310
0001
1000
0010
,
0110
0000
1001
0000
,
0010
0100
0001
0000
,
0010
0100
1000
0001
,
0100
0000
0110
0000
,
0020
0000
0030
0000
,
0200
0000
0300
0000
,
0001
0010
0100
1000
,
2002
0000
3003
0000
,
0100
0000
0100
0000
,
0100
0000
0100
0000
,
0010
0000
0010
0000
,
0010
0000
0020
0000
,
0030
0000
0000
0000
;

//---------------dance-single - ----------------
#NOTES:
     dance-single:
     :
     Medium:
     11:
     0.507581,0.475758,0.228992,0.214218,0.096029,481.000000,450.000000,31.000000,29.000000,0.000000,0.000000,0.507581,0.475758,0.228992,0.214218,0.096029,481.000000,450.000000,31.000000,29.000000,0.000000,0.000000:
// measure 0
0000
0000
0000
0000
,  // measure 1
0000
0000
0000
0000
,  // measure 2
0010
0000
0000
0110
0000
0000
0000
0000
0000
0000
0000
0000
0000
0000
0000
0000
,  // measure 3
2002
0000
0000
0000
3003
0000
0000
0100
,  // measure 4
0010
0000
0000
0101
0000
0000
0000
0000
0010
0000
0000
0000
0100
0000
0000
0000
,  // measure 5
2000
0000
3010
0000
0100
0010
0100
0000
,  // measure 6
0002
0000
0013
0000
0010
0100
0010
0000
,  // measure 7
0100
1000
0010
0000
0100
0001
0010
0000
,  // measure 8
0002
0000
0013
0100
1000
0100
0010
0000
,  // measure 9
0001
0011
0101
1001
,  // measure 10
1000
0000
0010
0100
0010
1000
0100
0000
,  // measure 11
1000
0000
0001
0010
0001
0100
0010
0000
,  // measure 12
1001
0000
0000
0000
0001
0000
0000
0010
0000
0000
0001
0000
0100
0000
0000
0000
,  // measure 13
0020
0000
0130
0001
0100
0010
1000
0000
,  // measure 14
1100
0000
0010
0000
0100
0001
0010
0000
,  // measure 15
0001
0000
0010
0001
0100
0010
1000
0000
,  // measure 16
0020
0000
0130
0001
0010
0100
0020
0000
,  // measure 17
0031
0000
0000
1000
0100
0000
1000
0000
,  // measure 18
0010
0100
0010
0000
1000
0000
0100
0000
,  // measure 19
1000
0000
0010
1000
0100
1000
0010
0000
,  // measure 20
0110
0000
0000
0000
1000
0000
0000
0001
0000
0000
0010
0000
0001
0000
0000
0000
,  // measure 21
0010
0100
1000
0000
0001
1000
0010
0100
,  // measure 22
0002
0000
1003
0010
0100
0010
1000
0000
,  // measure 23
0020
0000
1030
0001
0010
0001
2000
0000
,  // measure 24
3010
0000
0110
0000
1000
0001
0000
0001
,  // measure 25
0200
0000
0020
0330
,  // measure 26
1001
0000
0010
0000
0001
0100
0010
0000
,  // measure 27
1000
0000
0010
1000
0001
0100
0010
0000
,  // measure 28
1000
0000
0100
1000
0010
1000
0100
0000
,  // measure 29
0010
0000
0001
0010
0100
0010
0001
0000
,  // measure 30
0100
0010
0100
0000
0001
0000
0010
0100
,  // measure 31
0010
0000
0000
0000
0001
0000
1000
0000
0000
0010
0000
0100
0000
0010
0000
0000
,  // measure 32
0020
0230
0302
2003
,  // measure 33
3000
0000
0000
0000
1001
0000
0000
0100
0000
0000
0010
0000
0000
0000
0000
0000
,  // measure 34
1001
0010
0000
0100
,  // measure 35
0000
0001
0000
1000
,  // measure 36
0100
1000
0001
0100
,  // measure 37
0010
0100
0002
0003
,  // measure 38
0011
0000
1000
0000
0100
1000
0100
0000
,  // measure 39
1000
0000
0010
0000
0100
0010
0100
0000
,  // measure 40
0001
0000
0010
0000
0001
1000
0001
0000
,  // measure 41
0100
0010
0100
0000
0001
0010
0100
0000
,  // measure 42
1000
1100
1000
1100
,  // measure 43
0001
0011
0001
0011
,  // measure 44
1000
1001
0001
1001
,  // measure 45
0010
0110
2002
3003
,  // measure 46
0100
0010
1000
0000
0001
0010
0100
0000
,  // measure 47
1000
0010
0100
0000
0010
1000
0001
0000
,  // measure 48
0010
0001
0001
0000
1000
0010
0010
0000
,  // measure 49
0100
0110
1001
0200
,  // measure 50
0310
1000
0100
0000
1000
0010
0100
0000
,  // measure 51
0001
0010
0100
0000
0010
0001
0100
0001
,  // measure 52
0010
0001
0100
0000
0010
0100
0001
0000
,  // measure 53
0010
0100
1000
0001
0100
0000
0110
0000
,  // measure 54
0010
1000
0100
0000
1000
0010
0100
0000
,  // measure 55
0010
1000
0001
0000
0010
0001
0100
0001
,  // measure 56
0010
0100
2000
0000
3010
0100
0002
0000
,  // measure 57
1003
0000
0000
0010
0000
0000
1000
0000
0000
0000
0000
0000
0010
0000
0100
0000
0010
0000
0100
0000
0000
0000
0000
0000
,  // measure 58
0001
0000
0010
0000
0100
0000
0000
1000
0000
0000
0010
0000
0100
0000
0000
0001
,  // measure 59
0000
0000
0010
0000
0100
0000
0000
1000
0000
0000
0010
0000
0200
0000
0000
0000
,  // measure 60
0310
0000
1000
0000
0100
0000
0000
0010
0000
0000
0001
0000
0100
0000
0010
0000
,  // measure 61
0100
0000
0001
0010
0100
1000
0020
0000
,  // measure 62
1030
0000
0100
0000
0010
0000
0000
0001
0000
0000
0010
0000
0100
0000
0000
1000
,  // measure 63
0000
0010
0100
0001
0010
0100
1000
0000
,  // measure 64
0010
0100
0001
0000
0010
0001
1000
0000
,  // measure 65
0010
0000
0000
1000
0000
0000
0100
0000
0000
0000
0000
0000
1000
0000
0001
0000
1000
0000
0001
0000
0000
0000
0000
0000
,  // measure 66
0100
0010
0100
0000
0001
0010
0001
0000
,  // measure 67
0010
0100
1000
0000
0010
0100
0001
0010
,  // measure 68
0001
1000
0100
0000
1000
0010
0100
0000
,  // measure 69
0001
1000
0100
1000
0010
0100
0001
0000
,  // measure 70
0011
1000
1010
0001
,  // measure 71
0100
0010
1000
0000
0100
0010
0001
0100
,  // measure 72
0020
0000
0000
0000
1030
0000
0000
0000
0200
0000
0000
0000
0301
0000
0000
1000
,  // measure 73
0000
0000
0000
0001
0000
0000
1000
0000
0000
0000
0000
0000
0010
0000
0100
0000
0010
0000
0100
0000
0000
0000
0000
0000
,  // measure 74
0000
0000
1001
0000
0100
0010
1000
0000
,  // measure 75
0001
0010
0100
0000
0010
0100
1000
0000
,  // measure 76
0010
0100
0001
0000
1000
0100
0010
0000
,  // measure 77
0001
0100
0010
1000
0001
0010
0100
0000
,  // measure 78
1100
0000
0000
0000
0000
0000
1000
0000
0001
0000
0000
0010
0000
0000
0001
0000
,  // measure 79
0100
0010
0100
0001
,  // measure 80
1001
0000
0000
0100
0010
0000
1000
0000
,  // measure 81
0010
0100
0001
0010
0200
0000
2300
0000
,  // measure 82
3001
0000
0010
0000
0100
0000
0000
1000
0000
0000
0010
0000
0100
0000
0000
0001
,  // measure 83
0000
0010
0100
1000
0001
0000
1001
0000
,  // measure 84
1000
0000
0010
0000
0100
0000
0000
0001
0000
0000
0010
0000
0100
0000
0000
1000
,  // measure 85
0000
0010
0100
0001
0100
1000
0100
0001
;

//---------------dance-single - ----------------
#NOTES:
     dance-single:
     :
     Hard:
     16:
     0.849486,0.920469,0.265926,0.228992,0.849486,805.000000,769.000000,36.000000,31.000000,0.000000,0.000000,0.849486,0.920469,0.265926,0.228992,0.849486,805.000000,769.000000,36.000000,31.000000,0.000000,0.000000:
// measure 0
0000
0000
0000
0000
,  // measure 1
0000
0000
0000
0000
,  // measure 2
0100
0010
0000
1001
0000
0000
0010
0001
0010
0100
0000
1000
0000
0000
0000
0000
,  // measure 3
2002
0000
0000
0000
3003
0000
0000
0000
0010
0100
0010
0100
0010
0000
1000
0000
,  // measure 4
1000
0001
0000
0110
0000
0000
0010
0100
0001
0010
0001
1000
0000
0000
1000
0000
,  // measure 5
0010
0000
0100
0000
0001
0000
0010
0000
0100
1000
0010
0100
0010
0000
0100
0000
,  // measure 6
0001
0010
0001
0010
0001
0000
1000
0000
0010
0100
0010
0100
0010
0000
1000
0000
,  // measure 7
0001
0010
0100
0000
0010
0100
1000
0000
0010
0100
0001
0000
0010
0100
1000
0000
,  // measure 8
0010
0100
0010
0100
0010
0100
0010
0100
0001
1000
0001
1000
0001
1000
0001
1000
,  // measure 9
0001
0000
0110
0000
1001
0000
0220
0330
,  // measure 10
0010
0000
1000
0000
0100
0000
1000
0000
0001
0010
0000
0010
0001
0000
0100
0000
,  // measure 11
0010
1000
0001
0000
0100
0001
1000
0000
0010
0100
0010
0100
0020
0000
0000
0000
,  // measure 12
1030
0000
0100
0000
1100
0000
0000
0011
0000
0000
1000
0001
0100
0000
0010
0000
,  // measure 13
1000
0000
0010
0100
0001
0000
0010
0100
1000
0000
0100
0000
0001
0000
0100
0000
,  // measure 14
1000
0000
0001
0000
0010
0000
0001
0000
0100
0010
0000
0010
0100
0000
0001
0000
,  // measure 15
0010
0000
0001
1000
0001
0000
1000
0010
1000
0000
0001
0010
0200
0000
0000
0000
,  // measure 16
1300
0010
1000
0100
0001
1000
0020
0000
,  // measure 17
0031
0000
0100
0000
0010
0000
0100
0001
0010
0000
0100
0000
1000
0000
0010
0000
,  // measure 18
1000
0000
0001
0100
0001
0000
0010
0000
0100
0000
1000
0000
0001
0000
0100
0010
,  // measure 19
1000
0000
0100
0000
1000
0010
0100
0010
1000
0000
0001
0010
0200
0000
0000
0000
,  // measure 20
0310
0000
0001
0000
1001
0000
0000
0110
0000
0000
0100
0001
0010
0000
0100
0000
,  // measure 21
1000
0000
0010
0100
0010
0000
1000
0100
1000
0000
0010
0000
0001
0010
0100
0000
,  // measure 22
0001
0000
0010
0100
1000
0000
0010
0000
1000
0000
0001
0100
0010
0000
1000
0000
,  // measure 23
0100
0000
0010
0001
1000
0000
0010
1000
0001
0000
0100
0010
0200
0000
0000
0000
,  // measure 24
0301
0000
0010
0000
0001
0000
1000
0010
0100
0000
0110
0000
0000
0000
1000
0000
,  // measure 25
0001
0000
0010
0100
1000
0000
0010
0100
0001
1000
0001
0010
0100
0000
0000
0000
,  // measure 26
0100
0000
0010
0000
0001
1000
0001
1000
0001
0000
0100
0010
0000
0010
0100
0000
,  // measure 27
0001
0000
0010
0000
0100
1000
0100
1000
0100
0000
1000
0010
0000
0010
1000
0000
,  // measure 28
0001
0000
0100
0000
0010
0100
0010
0100
0010
0000
1000
0001
0000
0001
1000
0000
,  // measure 29
0100
0000
0010
0001
1000
0000
0010
1000
0001
0000
0000
0101
0000
1000
0010
1000
,  // measure 30
0001
0000
0010
0000
0001
1000
0100
0000
1000
0000
0001
0000
0010
0100
1000
0000
,  // measure 31
0010
0000
1000
0000
0100
0010
0001
0000
1000
0010
0000
0110
0000
0100
0000
0010
,  // measure 32
1000
0000
0000
0001
0000
0000
1000
0000
0000
0000
0000
0000
0010
0000
0000
0100
0000
0000
0010
0000
0000
0000
0000
0000
1000
0000
0000
0000
0100
0000
0000
0000
0001
0000
0000
0000
1000
0000
0000
0000
0010
0000
0000
0000
0001
0000
0000
0000
,  // measure 33
0100
0000
0001
0010
0100
0000
0000
1100
0000
0000
0022
0000
0000
0033
0000
0000
,  // measure 34
0100
0010
1000
0000
0100
0010
0001
0000
,  // measure 35
0100
0001
0010
0000
0100
1000
0010
0000
,  // measure 36
1000
0010
0001
0000
0001
0010
1000
0000
,  // measure 37
0001
0100
1000
0000
1000
0100
0001
0000
,  // measure 38
1001
0000
0010
0100
1000
0001
0100
0000
,  // measure 39
1010
0000
0001
1000
0100
0010
0001
0000
,  // measure 40
0101
0000
0010
0100
0001
0010
0100
0000
,  // measure 41
2000
3200
0301
0100
1000
1000
1000
0000
,  // measure 42
1001
0011
1001
1010
,  // measure 43
1001
0011
1001
1100
,  // measure 44
1001
0011
0101
1001
,  // measure 45
1100
1010
1001
0200
,  // measure 46
0301
0000
0010
0000
0001
1000
0001
0000
1000
0000
0010
0000
1000
0001
1000
0000
,  // measure 47
0001
0000
0010
0000
0001
0100
0001
0000
1000
0000
0010
0000
1000
0100
1000
0000
,  // measure 48
0010
0100
0001
0000
0001
0010
0100
0000
1000
0000
0010
0100
0002
0000
0000
0000
,  // measure 49
1000
0100
0013
1100
,  // measure 50
0010
0100
0001
0000
0010
0100
0000
0100
1000
0000
0010
0000
0100
0001
0000
0001
,  // measure 51
0010
0000
0100
0000
1000
0010
0000
0010
0100
0000
0001
0010
0001
0000
1000
0010
,  // measure 52
1000
0100
1000
0000
0010
0100
0000
0100
0001
0000
0010
0000
0100
1000
0000
1000
,  // measure 53
0001
0000
0010
0000
0001
0100
0001
0000
1000
0010
0100
0010
2000
0000
0000
0000
,  // measure 54
3001
0100
0010
0000
1000
0001
0000
0001
0010
0000
0100
0000
1000
0010
0000
0010
,  // measure 55
0100
0000
0001
0000
0010
0100
0000
0100
0010
0000
0001
1000
0001
0000
0100
0010
,  // measure 56
0100
0000
0001
0000
0100
0000
1000
0100
0010
0000
1000
0000
0100
0000
0010
0001
,  // measure 57
0100
0000
0000
0000
0000
0000
0010
0000
0000
0000
0000
0000
1000
0000
0000
0001
0000
0000
0100
0000
0000
0001
0000
0000
1000
0000
0000
0000
0100
0000
0000
0000
0001
0000
0000
0000
1000
0000
0000
0000
0000
0000
0010
0000
0000
0001
0000
0000
,  // measure 58
0100
0010
0100
0000
0001
0010
0000
0100
1000
0000
0010
0000
1000
0001
0000
0010
,  // measure 59
0001
0000
0100
0010
0100
0000
0010
1000
0010
0000
1000
0000
0100
0000
0010
0001
,  // measure 60
1000
0010
1000
0000
0001
0100
0000
0010
1000
0000
0100
0000
0010
0001
0000
1000
,  // measure 61
0100
0000
0010
0001
1000
0000
0010
1000
0001
0000
0100
0010
0100
0000
0001
0000
,  // measure 62
0010
0100
1000
0000
0010
0100
0000
0100
0001
1000
0100
0000
0010
0100
0000
0100
,  // measure 63
1000
0001
0100
0000
0010
1000
0001
0000
0010
0100
0010
0000
0001
0000
1000
0010
,  // measure 64
0100
0000
0000
0000
0000
0000
0010
0000
0000
0000
0000
0000
0001
0000
0000
0000
0000
0000
0010
0000
0000
1000
0000
0000
0100
0000
0000
0000
0000
0000
0010
0000
0000
0000
0000
0000
0001
0000
0000
0000
0100
0000
0000
0000
1000
0000
0000
0000
,  // measure 65
0100
0000
0000
0010
0000
0000
0100
0000
0000
0000
0000
0000
0001
0000
0000
0010
0000
0000
0001
0000
0000
0000
0000
0000
1000
0000
0000
0000
0001
0000
0000
0000
0010
0000
0000
0000
0100
0000
0000
1000
0000
0000
0001
0000
0000
0000
0000
0000
,  // measure 66
0100
0010
0100
0000
0001
0010
0000
0010
0100
0000
1000
0010
1000
0000
0001
0010
,  // measure 67
0001
0000
0100
0000
0010
1000
0010
1000
0010
0000
0100
0000
0001
0000
0010
0001
,  // measure 68
0010
0000
0100
0000
1000
0010
0000
0010
1000
0000
0001
0000
0010
0001
1000
0000
,  // measure 69
0001
0100
0001
0000
1000
0010
1000
0000
0001
0100
0010
0100
0002
0000
0000
0000
,  // measure 70
0013
0000
0100
0000
1000
0100
0000
0100
0010
0000
0001
0000
0100
0000
0010
0000
,  // measure 71
1000
0100
1000
0000
0001
0010
0001
0000
0100
0000
0001
0010
0100
0000
1000
0000
,  // measure 72
0010
0000
0100
0010
0000
0010
0100
0000
0001
0000
0010
0000
0100
1000
0100
1000
,  // measure 73
0000
0000
0000
0020
0000
0000
0130
0000
0000
0002
0000
0000
0013
0000
0100
0000
1000
0000
0001
0000
0100
0000
0010
0000
,  // measure 74
2000
0000
0000
0000
3001
0010
0000
0010
0001
0000
0100
0000
0010
0000
1000
0000
,  // measure 75
0100
0000
1000
0010
0100
0000
0001
0010
0100
0000
1000
0000
0001
0000
0100
0000
,  // measure 76
0010
0000
1000
0000
0001
0100
0000
0100
0010
0000
1000
0001
0100
0000
0010
1000
,  // measure 77
0001
0010
0001
0000
1000
0100
1000
0000
0001
0010
0100
1000
0010
0000
0000
0000
,  // measure 78
0220
0000
0000
0000
0330
0000
0100
0000
0001
0000
0000
0010
0000
0000
0100
0000
,  // measure 79
1000
0010
0100
0010
1000
0001
0010
0000
,  // measure 80
0022
0000
0000
0000
0033
0000
1000
0000
0010
0000
0000
0100
0000
0000
0010
0000
,  // measure 81
1000
0000
0000
0000
0000
0000
0001
0000
0000
0000
0000
0000
0010
0000
0000
0001
0000
0000
0010
0000
0000
0000
0000
0000
0100
0000
0000
0000
0001
0000
0000
0000
0100
0000
0000
0000
1000
0000
0000
0000
0010
0000
0000
0000
0001
0000
0000
0000
,  // measure 82
0020
0000
0000
0100
0000
0000
0130
0000
0200
0000
0000
0001
0000
0000
0301
0000
,  // measure 83
0002
0000
0000
1000
0000
0000
1003
0000
2000
0000
0000
0010
0000
0000
3010
0000
,  // measure 84
0020
0000
0000
0001
0000
0000
0031
0000
0002
0000
0000
0100
0000
0000
0103
0000
,  // measure 85
0200
0000
0000
1000
0000
0000
1300
0000
0001
0100
0010
1000
0100
0010
0001
0100
;
