#TITLE:BroGamer;
#SUBTITLE:;
#ARTIST:USAO;
#TITLETRANSLIT:;
#SUBTITLETRANSLIT:;
#ARTISTTRANSLIT:;
#GENRE:SUPER ULTIMATE HYPER CORE;
#CREDIT:;
#BANNER:BroGamer_banner.png;
#BACKGROUND:BroGamer.png;
#LYRICSPATH:;
#CDTITLE:;
#MUSIC:BroGamer.ogg;
#OFFSET:-0.276000;
#SAMPLESTART:89.550003;
#SAMPLELENGTH:18.500000;
#SELECTABLE:YES;
#BPMS:0.000000=207.000000
;
#STOPS:176.000000=0.870000
;
#BGCHANGES:;
#KEYSOUNDS:;
#ATTACKS:;

//---------------dance-single - ----------------
#NOTES:
     dance-single:
     :
     Easy:
     9:
     0.385484,0.419684,0.124064,0.162834,0.000000,348.000000,332.000000,16.000000,21.000000,0.000000,0.000000,0.385484,0.419684,0.124064,0.162834,0.000000,348.000000,332.000000,16.000000,21.000000,0.000000,0.000000:
0000
0000
0000
0000
,
0000
0000
0000
0000
,
0000
0000
0000
0000
,
0000
0000
0000
0000
,
0000
0000
0000
0000
,
0010
0001
0010
0001
,
1000
0100
1000
0100
,
1000
0010
0100
0001
,
2002
0000
0000
0000
0000
3003
0000
0000
,
0100
0010
0100
0010
,
1000
0100
1000
0100
,
0010
0001
0010
0001
,
1000
0010
0100
0100
,
0001
0010
0001
0010
,
0100
1000
0100
1000
,
0010
0100
0010
0100
,
0020
0000
0000
0000
0000
0030
0000
0000
,
0100
0001
0010
0001
,
0100
0010
0100
0001
,
0100
0010
1000
0100
,
0010
0100
1000
0100
,
1000
0100
0010
0100
,
1000
0001
0010
0001
,
0100
0010
0100
0010
,
0220
0000
0000
0000
0000
0330
0000
0000
,
1000
0010
0100
0010
,
0100
0001
0010
0001
,
1000
0001
0010
0001
,
0100
0010
1000
0100
,
0020
0000
0000
0030
,
0001
0001
1000
1000
,
0010
0000
0110
0000
,
0200
0000
0000
0000
0000
0300
0000
0000
,
0001
0010
0001
0100
,
0001
0010
0001
0100
,
0010
1000
0100
1000
,
0010
0100
1000
0100
,
0001
0010
0000
0010
,
0100
1000
0000
1000
,
0010
0100
0001
1000
,
2002
0000
0000
0000
0000
3003
0000
0000
,
0100
0010
0100
0000
,
0001
0010
0001
0000
,
1000
0100
1000
0000
,
0110
1000
0000
0001
,
0000
1000
0000
0001
,
0000
0100
0000
0010
,
0000
0100
0000
0010
,
0000
1000
0000
0001
,
0000
0100
0000
0010
,
0000
1000
0000
0100
,
0000
0010
0000
0001
,
0000
0001
0100
0010
,
0000
1000
0010
0100
,
0000
0000
0002
0000
0000
0000
0000
0003
,
0000
0000
2000
0000
0000
0000
0000
3000
,
0000
0101
0000
0010
,
0000
1000
0000
0100
,
0000
1000
0000
0001
,
0000
0100
0010
0010
,
0000
2000
0010
0000
,
3010
0002
0010
0000
,
0013
2000
0100
0000
,
3100
0002
0100
0000
,
0103
1000
0010
1000
,
0010
0100
0001
0100
,
0001
1000
0100
0010
,
0001
2020
0000
3030
,
0000
0100
0001
0010
,
0001
1000
0100
1000
,
0010
0100
0001
0010
,
0001
1000
0100
1000
,
0010
0100
0100
0001
,
0001
1000
1000
0010
,
0010
0100
0001
0010
,
0100
1000
1000
1000
,
1000
0001
0100
0010
,
0100
0001
1000
0100
,
1000
0010
1000
0100
,
0010
0001
0010
0100
,
1000
0010
0010
0100
,
0001
1000
0010
0100
,
0001
0010
0001
0100
,
0010
2000
0000
0002
,
3003
0100
0010
1000
,
0100
0010
0001
0100
,
0010
1000
0100
0001
,
0100
1000
0010
0001
,
0010
0100
0010
1000
,
0100
0010
0001
0100
,
0001
0010
0010
0100
,
0100
1100
0000
0101
,
0000
0010
0100
1000
,
0100
0010
0100
0001
,
0010
0001
0010
0100
,
1000
1100
0000
0011
,
0000
0100
0010
0100
,
0001
0010
0001
1000
,
0100
1000
1000
0001
,
0001
0100
0000
0110
,
0000
1000
0000
1000
,
0000
0001
0000
0001
,
0000
0100
0000
0110
,
0000
0010
0000
0110
,
0000
1000
0001
1000
,
0001
0100
0010
0100
,
0010
1000
0100
0010
,
0001
0000
2200
0000
0000
0000
0000
3300
,
0000
0101
0000
0000
;

//---------------dance-single - ----------------
#NOTES:
     dance-single:
     :
     Medium:
     13:
     0.675704,0.713463,0.186096,0.193850,0.062032,610.000000,586.000000,24.000000,25.000000,0.000000,0.000000,0.675704,0.713463,0.186096,0.193850,0.062032,610.000000,586.000000,24.000000,25.000000,0.000000,0.000000:
0000
0000
0000
0000
,
0000
0000
0000
0000
,
0000
0000
0000
0000
,
0000
0000
0000
0000
,
0000
0000
0000
0000
,
1010
0000
0011
0000
,
1100
0000
0011
0000
,
1000
0001
1000
0001
,
0220
0000
0000
0330
,
0100
0000
0010
1000
0010
1000
0010
0000
,
0100
0000
0001
1000
0001
1000
0001
0000
,
0010
0000
0001
0100
0001
0100
0001
0000
,
1000
0000
0010
1000
0010
1000
0010
0000
,
0100
0000
0001
1000
0100
0001
1000
0000
,
0010
0000
0001
1000
0010
0001
1000
0000
,
1000
0100
1000
0100
0010
0100
0010
0000
,
1002
0100
0100
0103
,
1000
0010
1000
0010
1000
0100
1000
0100
,
0010
0001
0010
0001
0100
0001
0100
0000
,
0010
1000
0010
1000
0100
1000
0100
1000
,
0001
0010
0001
0010
0100
1000
0100
0000
,
1000
0001
0100
0001
1000
0010
0100
0010
,
1000
0001
0010
0100
0010
0001
0010
0000
,
0001
0010
0100
1000
0100
1000
0001
0000
,
2001
0010
0010
3010
,
0100
0001
0010
0001
0100
0010
1000
0100
,
1000
0001
0010
0001
1000
0100
1000
0010
,
0100
0001
1000
0100
0010
0001
1000
0010
,
1000
0001
0100
0010
0100
0001
1000
0000
,
0001
0000
0010
0001
1000
0100
1000
0010
,
0100
0001
0010
0001
0100
0010
1000
0000
,
1020
0130
0201
0310
,
2002
0000
0000
3003
,
0001
0010
0001
0010
0001
0100
0001
0100
,
0010
1000
0010
1000
0100
1000
0100
1000
,
0010
0100
0010
0100
0001
0100
0001
0100
,
0001
0010
0001
0010
0001
1000
0001
1000
,
0010
0000
0100
0010
0000
0100
0010
0000
,
1000
0000
0001
1000
0000
0001
1000
0000
,
0001
0010
0100
1000
0010
0100
0010
0000
,
2002
0000
0000
0000
0000
3003
0000
0000
,
1000
0010
1000
0010
0100
0010
0100
0000
,
0001
0010
0001
0010
0100
0010
0100
0000
,
1000
0001
0010
0001
1000
0100
1000
0000
,
1001
0000
0000
0000
1000
0000
0000
1000
0000
0000
1000
0000
0000
1000
0000
0000
,
0010
0000
0000
0000
0100
0000
0000
0100
0000
0000
0100
0000
0000
0100
0000
0000
,
0001
0000
0000
0000
0010
0000
0000
0010
0000
0000
0010
0000
0000
0010
0000
0000
,
0100
0000
0000
0000
1000
0000
0000
1000
0000
0000
1000
0000
0000
1000
0000
0000
,
0001
0000
0100
0000
0010
0100
0010
0100
,
0010
0000
1000
0000
0001
1000
0001
1000
,
0001
0000
0100
0010
1000
0010
0100
0001
,
0010
0000
0001
1000
0100
1000
0010
0100
,
0001
2000
0010
0010
,
3010
0002
0100
0100
,
0103
0020
1000
1000
,
1030
0200
0001
0001
,
0301
0000
1010
0000
1000
0000
1000
0010
,
1000
0000
0101
0000
0001
0000
0001
0100
,
0001
0000
1000
0001
0100
0010
1000
0100
,
1000
0000
0001
0010
0100
0010
0001
1000
,
0100
2000
0001
0000
,
3001
0002
1000
0000
,
1003
0200
0010
0000
,
0310
0020
0100
0000
,
0130
1010
0000
0011
,
0000
1100
0000
0101
,
0000
1000
0001
1000
,
0001
0220
0000
0000
,
0330
0000
1000
0000
0100
0000
1000
0100
,
1000
0000
0001
0000
0100
0000
0001
0100
,
0001
0000
1000
0000
0010
0000
1000
0010
,
1000
0000
0001
0000
0010
0000
0001
0010
,
0001
1010
0010
1000
,
0010
0101
0001
0100
,
0001
0000
1000
0100
0010
0001
0010
0100
,
1000
0200
0010
0010
,
0310
0000
0110
0000
0010
0001
0010
1000
,
0010
0000
0100
0000
0100
1000
0100
0001
,
0100
0000
1000
0000
1000
0010
1000
0001
,
1000
0000
0001
0000
0001
0010
0001
1000
,
0001
0000
0100
0001
0100
0010
1000
0001
,
1000
0000
0010
1000
0100
1000
0001
0100
,
0010
0000
1000
0100
1000
0010
0100
0001
,
0010
0002
1000
1000
,
1003
0000
1000
0010
0100
0010
1000
0001
,
0010
0001
1000
0100
0001
0100
1000
0010
,
1000
0010
0100
0001
0010
0001
1000
0010
,
0001
0010
1000
0100
0010
0100
1000
0001
,
1000
0000
0001
0010
0100
0010
0001
1000
,
0100
1000
0010
0100
0001
1000
0010
1000
,
0010
0100
0001
0010
0100
1000
0100
0010
,
0001
2002
0000
0000
,
3003
0000
0100
0000
0010
1000
0001
0010
,
0001
0000
0100
0000
0100
0001
1000
0100
,
1000
0000
0010
0000
1000
0010
0100
0010
,
1000
0000
0010
1000
0100
1000
0010
0100
,
0001
0000
0010
0001
1000
0001
0100
0010
,
0100
0000
0001
1000
0100
1000
0010
0100
,
0010
0000
0100
0001
0010
0001
0100
0010
,
0100
0000
0001
0010
0100
0010
0001
1000
,
0100
0000
0000
0000
0010
0000
0000
0010
0000
0000
0010
0000
0000
0010
0000
0000
,
0100
0000
0000
0000
0001
0000
0000
0001
0000
0000
0001
0000
0000
0001
0000
0000
,
1000
0000
0000
0000
0100
0000
0000
0100
0000
0000
0100
0000
0000
0100
0000
0000
,
0001
0000
0000
0000
0010
0000
0000
0010
0000
0000
0010
0000
0000
0010
0000
0000
,
0100
0000
1000
0010
1000
0010
0100
0001
,
0100
0001
1000
0100
1000
0100
0010
0001
,
0010
0001
1000
0010
0001
0010
0001
0010
,
1000
0100
2000
0000
0001
0000
0001
0000
,
3001
0110
0000
0000
;

//---------------dance-single - ----------------
#NOTES:
     dance-single:
     :
     Hard:
     17:
     0.959278,1.133147,0.721120,0.217111,0.337298,866.000000,773.000000,93.000000,28.000000,0.000000,0.000000,0.959278,1.133147,0.721120,0.217111,0.337298,866.000000,773.000000,93.000000,28.000000,0.000000,0.000000:
// measure 0
0000
0000
0000
0000
,  // measure 1
0000
0000
0000
0000
,  // measure 2
0000
0000
0000
0000
,  // measure 3
0000
0000
0000
0000
,  // measure 4
0000
0000
0000
0000
,  // measure 5
0100
0001
0100
0001
1000
0010
1000
0010
,  // measure 6
0100
0010
1000
0001
0010
0001
1000
0100
,  // measure 7
0010
0001
0010
0000
1000
0001
1000
0000
0010
0100
0010
0000
1000
0100
1000
0000
,  // measure 8
2001
0010
0010
3010
,  // measure 9
0101
0000
0010
1000
0100
0001
0100
1000
,  // measure 10
0010
0100
0001
0100
0010
1000
0010
0001
,  // measure 11
0010
1000
0010
1000
0100
0010
0001
1000
,  // measure 12
0001
0010
0100
1000
1010
0000
0101
0000
,  // measure 13
0011
0000
0011
0000
0011
0000
0000
0000
0001
0000
1000
0000
0100
0000
1000
0010
,  // measure 14
0100
0000
0000
0001
0000
0000
0010
0000
0000
0100
0000
0000
1000
0000
0000
0010
0000
0000
1000
0000
0100
0000
0010
0000
,  // measure 15
0001
0000
0110
0000
0001
1000
0100
1000
,  // measure 16
0010
0100
0001
0100
1000
0000
1001
0000
,  // measure 17
0010
1000
0010
1000
0001
0100
0001
0100
,  // measure 18
0001
0000
0010
0000
0100
1000
0100
0000
0010
0000
0001
0000
1000
0001
1000
0000
,  // measure 19
0010
1000
0100
1000
0010
0100
0001
0010
,  // measure 20
0001
0100
1000
0100
0001
0010
0001
0100
,  // measure 21
0010
0010
0210
0000
0301
1000
0100
1000
,  // measure 22
0001
0000
0010
0000
0001
1000
0100
0000
0010
0000
0100
0000
1000
0001
0010
0000
,  // measure 23
0100
1000
0001
0100
1000
0100
0001
0010
,  // measure 24
0001
0100
1000
0100
0010
0100
0110
0000
,  // measure 25
1000
0001
1000
0010
1000
0001
1000
0100
,  // measure 26
0010
0001
0010
1000
0010
0100
0010
0001
,  // measure 27
0100
0010
0100
1000
0100
0001
0100
0010
,  // measure 28
1000
0001
0100
0010
1000
0010
0001
0010
,  // measure 29
2010
0000
3001
0010
0001
0100
0010
1000
,  // measure 30
0100
0000
0000
1000
0000
0000
0001
0000
0000
1000
0000
0000
0100
0000
0000
0010
0000
0000
0001
0000
0100
0000
0001
0000
,  // measure 31
0020
0130
2010
3001
,  // measure 32
0120
1000
0001
1030
,  // measure 33
1000
0100
1000
0001
1000
0010
1000
0001
,  // measure 34
0100
0001
0100
1000
0100
0010
0100
0001
,  // measure 35
0010
0100
1000
0100
0010
0001
0010
0100
,  // measure 36
1000
0001
0010
0001
0100
0010
1000
0001
,  // measure 37
0100
0010
1000
0010
0000
0010
0001
0010
,  // measure 38
1000
0100
0010
1000
0000
1000
0010
0001
,  // measure 39
0100
0000
1010
0000
1000
0001
1000
0000
0101
0000
0100
0010
,  // measure 40
0200
0001
0010
1300
,  // measure 41
1000
0100
0010
1000
0001
0100
0010
1000
,  // measure 42
0100
0010
0001
1000
0010
0001
0010
0100
,  // measure 43
0001
1000
0001
1000
0100
0010
0100
0010
0001
1000
0001
1000
0100
1000
0010
0100
,  // measure 44
1000
0000
0000
0000
1010
0000
0000
1001
0000
0000
1010
0000
0000
1001
0000
0000
,  // measure 45
0202
0303
0000
0000
0110
0000
0000
1010
0000
0000
0110
0000
0000
0011
0000
0000
,  // measure 46
2002
3003
0000
0000
1100
0000
0000
0110
0000
0000
0011
0000
0000
1001
0000
0000
,  // measure 47
0220
0330
0000
0000
1001
0000
0000
1010
0000
0000
0101
0000
1000
0010
0100
0000
,  // measure 48
0001
0000
0010
0000
0011
0000
0000
1100
0000
0000
1010
0000
0000
0011
0000
0000
,  // measure 49
2002
3003
0000
0000
1100
0000
0000
1010
0000
0000
1001
0000
0000
0101
0000
0000
,  // measure 50
0022
0033
0000
0000
1000
0000
0010
0000
0100
0000
0001
0000
0010
0100
1000
0100
,  // measure 51
0010
0100
1000
0100
0010
0000
0000
1100
0000
0000
0001
0000
0100
0010
0100
0001
,  // measure 52
0010
0012
0010
0010
,  // measure 53
0013
0210
0010
0010
,  // measure 54
0310
2100
0001
0001
,  // measure 55
3100
0000
0001
0000
0011
0000
1000
0001
,  // measure 56
0010
0100
1100
0000
0101
0000
0010
0100
,  // measure 57
0001
0100
0010
1000
0000
1000
0001
0010
,  // measure 58
0100
0000
0010
0001
1000
0010
0100
0001
,  // measure 59
1000
0000
0100
0000
0110
0000
0000
0000
1000
0000
0010
0000
1000
0001
0100
0001
,  // measure 60
0010
0000
1100
0000
0010
0100
0001
0100
,  // measure 61
1000
0100
0010
1000
0010
0100
0001
0010
,  // measure 62
1000
0000
0010
0100
0010
0001
1000
0100
,  // measure 63
0001
0100
1000
0010
0100
0010
0001
0010
,  // measure 64
1000
0000
0101
0000
0010
1000
0100
0010
,  // measure 65
0001
0100
0010
1000
0100
0001
0100
1000
,  // measure 66
0001
0000
0000
0000
0110
0000
0000
0000
0001
0000
1000
0000
0010
0000
1000
0100
,  // measure 67
0010
0001
1000
0100
0011
0000
0100
0100
,  // measure 68
0100
0100
0010
0001
1000
0001
0010
0001
,  // measure 69
0010
0001
0100
1000
0100
1000
0100
0001
,  // measure 70
0010
0000
0010
1000
0010
1000
0010
0001
,  // measure 71
0010
0001
0100
0010
1000
0100
0001
1000
,  // measure 72
0010
0000
0000
0000
1001
0000
0000
0000
0010
0000
0100
0001
1000
0000
0010
0000
,  // measure 73
0100
0000
0010
0000
1000
0000
0001
0000
0010
0001
1000
0000
0100
0000
1000
0000
,  // measure 74
0010
0100
0001
0000
1000
0000
0010
0000
1000
0100
1000
0100
1000
0000
0001
0000
,  // measure 75
0010
0001
0010
0001
0010
0000
0000
0000
0101
0000
0000
0000
0110
0000
0000
0000
,  // measure 76
1010
0000
0101
0000
0010
0001
0100
0001
,  // measure 77
0010
0100
1000
0010
1000
0001
0100
0010
,  // measure 78
0001
0010
1000
0100
0001
0100
1000
0100
,  // measure 79
0001
0000
0100
0000
1000
0000
0010
0100
0010
0100
0010
0000
1000
0000
0001
0000
,  // measure 80
1000
0000
0011
0000
0001
1000
0100
1000
,  // measure 81
0010
1000
0001
0010
0100
0010
0001
1000
,  // measure 82
1100
0000
0000
0000
0010
0000
0100
0000
0010
0000
0100
0000
0001
0000
0010
0100
,  // measure 83
1000
0010
0100
0001
0101
0000
1001
0000
,  // measure 84
0110
0000
0100
0001
1000
0001
0100
0001
,  // measure 85
0010
0000
0001
0000
0100
0000
0010
0000
1000
0010
1000
0000
0001
0000
0010
0000
,  // measure 86
0001
0100
0001
0000
0010
0000
0001
1000
0001
1000
0001
0000
0010
0000
0100
1000
,  // measure 87
0100
1000
0100
0000
1000
0000
0010
0000
0100
0000
0001
0000
1000
0000
0001
0000
,  // measure 88
0010
0010
0100
1000
1001
0000
0100
0001
,  // measure 89
0001
0000
0100
0000
0010
0000
1000
0001
0100
0000
0010
0000
0010
1000
0001
0000
,  // measure 90
1000
0000
0100
0000
1000
0000
0001
0010
0001
0010
0001
0000
0100
0000
0010
1000
,  // measure 91
0010
1000
0010
0000
0100
0000
0000
0000
1010
0000
0000
0000
0011
0000
0000
0000
,  // measure 92
1001
0000
0101
0000
0100
0010
1000
0010
,  // measure 93
0100
0001
0010
0001
1000
0100
0001
0100
,  // measure 94
1000
0010
0100
0001
1000
0010
0100
0010
,  // measure 95
0001
0000
0010
0000
1000
0000
0001
0010
0001
1000
0100
0000
0010
0000
0100
0000
,  // measure 96
0010
0010
0100
0100
0110
0000
1000
0100
,  // measure 97
1000
0010
0100
0001
0100
0010
1000
0010
,  // measure 98
0001
0000
0010
0000
1000
0000
0001
0100
0001
0000
0010
0000
0100
1000
0100
0000
,  // measure 99
0010
0001
0020
0000
0001
0000
1000
0000
,  // measure 100
0031
0000
0000
0000
1001
0000
0000
1100
0000
0000
0101
0000
0000
0011
0000
0000
,  // measure 101
0220
0330
0000
0000
1010
0000
0000
0011
0000
0000
1100
0000
0000
0101
0000
0000
,  // measure 102
2002
3003
0000
0000
0110
0000
0000
0110
0000
0000
1010
0000
0000
0011
0000
0000
,  // measure 103
0202
0303
0000
0000
1100
0000
0000
0011
0000
0000
1010
0000
0100
0001
0100
0000
,  // measure 104
0010
1000
0100
0010
0100
0010
0001
0010
,  // measure 105
0110
0000
1000
0010
0100
0010
1000
0100
,  // measure 106
0101
0000
0000
0000
0010
0001
0010
0000
0001
0010
0001
0000
0100
0000
0010
0000
,  // measure 107
0100
0010
0100
0010
1000
0000
0001
0000
0100
0000
0010
0000
0200
0000
0000
0000
,  // measure 108
1300
1001
0000
0000
;

//---------------dance-double - ----------------
#NOTES:
     dance-double:
     :
     Hard:
     17:
     0.953740,1.133147,0.798660,0.333421,0.395453,861.000000,758.000000,103.000000,43.000000,0.000000,0.000000,0.953740,1.133147,0.798660,0.333421,0.395453,861.000000,758.000000,103.000000,43.000000,0.000000,0.000000:
00000000
00000000
00000000
00000000
,
00000000
00000000
00000000
00000000
,
00000000
00000000
00000000
00000000
,
00000000
00000000
00000000
00000000
,
00000000
00000000
00000000
00000000
,
10000000
00010000
00100000
00001000
00010000
00000010
00001000
00000001
,
00000100
00000001
00001000
00000100
00010000
00001000
01000000
00010000
,
10000000
00000000
01000000
00000000
10000000
00010000
00100000
00010000
01000000
00000000
00001000
00000000
00010000
00000100
00010000
00001000
,
00100000
00101000
00001010
00101000
,
00010000
00000100
00001000
00000100
00010000
00000010
00001000
00000001
,
00000010
00000100
00001000
00000100
00010000
00001000
00100000
01000000
,
10000000
00100000
01000000
00100000
10000000
00010000
00100000
00001000
,
00010000
00000100
00001000
00000010
00000001
00000010
00001010
00000000
,
00000001
00000000
00000001
00000000
00001001
00000000
00000000
00000000
00000010
00000000
00000100
00000000
00000010
00000000
00001000
00000100
,
00010000
00000000
00000000
00001000
00000000
00000000
00100000
00000000
00000000
00010000
00000000
00000000
10000000
00000000
00000000
01000000
00000000
00000000
00100000
00000000
00010000
00000000
00100000
00000000
,
01000000
00000000
11000000
00000000
00010000
00010000
01010000
00000000
,
00100000
00000000
01000000
00000000
00010000
00000000
01000000
00000000
00001000
00010000
00001000
00010000
00002000
00000000
00000000
00000000
,
00013000
00000010
00000100
00000010
00001000
00000001
00000010
00000100
,
00001000
00000000
00000010
00000000
00010000
00001000
00010000
00000000
00000100
00000000
00001000
00000000
00000100
00010000
00001000
00000000
,
00010000
00000000
00001000
00100000
00001000
00100000
00000000
00000000
00010000
00000000
01000000
00100000
01000000
00100000
10000000
00000000
,
00010000
00000000
00100000
01000000
00100000
00000000
00010000
00000000
10000000
00000000
00100000
00000000
01000000
00000000
00010000
00000000
,
00100000
00000000
00100000
00000000
00102000
00000000
00000000
00000000
00013000
00000000
00000100
00000000
00010000
00001000
00010000
00000000
,
00000010
00000000
00000100
00000000
00000001
00000000
00001000
00000000
00000001
00000000
00000010
00000000
00000001
00001000
00000100
00000000
,
00001000
00000000
00000001
00000010
00000001
00000010
00000001
00000000
00001000
00000000
00000100
00010000
00000100
00010000
00000100
00000000
,
00002000
00100000
01000000
00103000
,
00010000
00001000
00100000
01000000
00010000
10000000
00100000
00010000
,
01000000
00001000
00010000
00000100
00001000
00000100
00000002
00000000
,
00000103
00000010
00001000
00000001
00000100
00001000
00000010
00010000
,
00001000
00100000
00010000
00100000
00001000
00001000
01001000
00000000
,
00100000
00000000
00010000
00000000
00100000
01000000
00100000
00000000
00010000
00000000
10000000
00000000
00100000
00000000
01000000
00000000
,
00100000
00000000
00000000
10000000
00000000
00000000
01000000
00000000
00000000
00010000
00000000
00000000
00001000
00000000
00000000
00000100
00000000
00000000
00000001
00000000
00000010
00000000
00000001
00000000
,
00001000
00000011
00010000
00001100
,
00000020
00010000
00000100
00010030
,
00000001
00001000
00000100
00001000
00000001
00000010
00001000
00000001
,
00000100
00001000
00010000
00100000
10000000
00010000
10010000
00000000
,
10000000
00010000
00100000
00010000
10000000
01000000
00010000
10000000
,
00100000
00010000
00001000
00000100
00000001
00001000
00001001
00000000
,
00000010
00000000
00000100
00000000
00000010
00001000
00000010
00000000
00000100
00000000
00000001
00000000
00001000
00000100
00001000
00000000
,
00000010
00000000
00010000
00000000
00001000
00010000
00001000
00000000
00100000
00000000
00010000
00000000
10000000
00100000
10000000
00000000
,
00010000
00000000
00110000
00000000
10000000
01000000
00100000
00000000
00011000
00000000
00000010
00000100
,
00000002
00001000
00001000
00001003
,
00000100
00000001
00000100
00000001
00001000
00000010
00001000
00000010
,
00010000
00000100
00010000
00000100
00100000
00001000
00100000
00001000
,
10000000
01000000
10000000
01000000
00100000
00010000
00100000
00010000
01000000
00001000
01000000
00001000
00010000
00000010
00010000
00000010
,
00000200
00000300
00000000
00000000
00000011
00000000
00000000
00001001
00000000
00000000
00010010
00000000
00000000
00011000
00000000
00000000
,
02002000
00000000
03003000
00000000
10010000
00000000
00000000
01100000
00000000
00000000
00101000
00000000
00000000
00011000
00000000
00000000
,
00002020
00000000
00003030
00000000
00001001
00000000
00000000
00010010
00000000
00000000
00010100
00000000
00000000
01001000
00000000
00000000
,
02020000
00000000
03030000
00000000
11000000
00000000
00000000
00110000
00000000
00000000
01001000
00000000
00010000
00001000
00010000
00000000
,
00000100
00000000
00000010
00000000
00000011
00000000
00000000
00001001
00000000
00000000
00010010
00000000
00000000
00010100
00000000
00000000
,
00202000
00000000
00303000
00000000
10010000
00000000
00000000
11000000
00000000
00000000
01010000
00000000
00000000
00101000
00000000
00000000
,
00020200
00000000
00030300
00000000
00001010
00000000
00000000
00001001
00000000
00000000
00000011
00000000
00000000
00001100
00000000
00000000
,
00020200
00000000
00030300
00000000
00011000
00000000
00000000
00101000
00000000
00000000
00010010
00000000
00000010
00001000
00000001
00010000
,
00000200
00020300
00001000
00001000
,
00001000
00230000
01000000
01000000
,
01000000
20300000
00010000
00010000
,
00010000
30200000
00001000
00001000
,
00301000
00000000
00011000
00000000
00000100
00000010
00000001
00001000
,
00000010
00001000
00000200
00010000
00000000
00010300
00002000
00100000
,
00000000
00103000
00010000
00000000
01000000
00010000
00001000
00000100
,
00000010
00000000
00001001
00000000
00000010
00010000
00000100
00001000
,
00000001
00000000
00000110
00000000
00010000
00001000
00010000
00000000
,
00000010
00001000
00000100
00010000
00000000
00101000
00000000
00010000
,
10000000
01000000
10000000
00100000
00010000
00100000
10000000
01000000
,
00010000
01000000
00100000
00001000
00010000
00000010
00001000
00000001
,
00000100
00000000
00000110
00000000
00001000
00000001
00000010
00000000
,
00001100
00000000
00010000
00001000
00000000
00010000
00000000
00000010
,
00001000
00000001
00000010
00001000
00000010
00000001
00000100
00001000
,
00000100
00000110
00001001
00002200
,
00003300
00000000
00010000
00001000
00010000
00001000
00100000
00010000
,
00100000
00010000
10000000
01000000
10000000
01000000
10000000
00010000
,
00100000
00000000
00001000
00010000
00001000
00010000
00000010
00000100
,
00000010
00000100
00000001
00001000
00000100
00000001
00000100
00001000
,
00000100
00000000
00000000
00000000
00011000
00000000
00000000
00000000
00100000
00000000
00010000
00100000
00010000
00000000
10000000
00000000
,
00100000
00000000
10000000
00000000
01000000
00000000
00100000
00000000
00001000
00010000
00001000
00000000
00000100
00000000
00000001
00000000
,
00000010
00000000
00000100
00000000
00000010
00000000
00000001
00000000
00001000
00000001
00001000
00000001
00000100
00000000
00000010
00000000
,
00010000
00001000
00010000
00001000
00100000
00000000
00000000
00000000
11000000
00000000
00000000
00000000
00110000
00000000
00000000
00000000
,
00001100
00000000
00000011
00000000
00001000
00000010
00001000
00000001
,
00000100
00001000
00000100
00000010
00010000
00001000
00010000
00000100
,
00100000
00010000
10000000
00100000
10000000
01000000
00010000
01000000
,
10000000
00000000
00100000
00000000
01000000
00000000
00001000
00010000
00001000
00010000
00001000
00000000
00010000
00000000
00000010
00000000
,
00000100
00000010
00001000
00000001
00000010
00000001
00001000
00000100
,
00010000
00000100
00001000
00000010
00000100
00001000
00010000
00001000
,
00101000
00000000
00000000
00000000
00010000
00000000
01000000
00000000
00100000
00000000
10000000
00000000
00001000
00000000
00010000
00001000
,
00100000
00001000
00010000
00010000
00020000
00000000
00030010
00000000
,
00000110
00000000
00000001
00001000
00000100
00010000
00001000
00100000
,
01000000
00000000
10000000
00000000
00010000
00000000
00100000
00000000
00001000
00010000
00001000
00000000
00100000
00000000
01000000
00000000
,
10000000
00010000
10000000
00000000
00100000
00000000
01000000
00010000
01000000
00010000
00100000
00000000
00001000
00000000
00010000
00001000
,
00010000
00001000
00010000
00000000
00000100
00000000
00000010
00000000
00000001
00000000
00001000
00000000
00000010
00000000
00000010
00000000
,
00010010
00000000
00001000
00011000
00011000
00000000
00100000
00010000
,
10000000
00000000
00100000
00000000
01000000
00000000
00001000
00100000
00001000
00000000
00010000
00000000
00000010
00001000
00000010
00000000
,
00000100
00000000
00000001
00000000
00000010
00000000
00000100
00010000
00001000
00010000
00000100
00000000
00010000
00000000
00001000
00100000
,
00010000
00100000
00001000
00000000
02000000
00000000
00000000
00000000
00010000
00000000
00000000
00000000
10000000
00000000
00000000
00000000
,
03010000
00000000
01100000
00000000
10000000
01000000
00010000
01000000
,
10000000
00010000
00100000
00001000
00010000
00000010
00001000
00000010
,
00000001
00000010
00000100
00001000
00000100
00000001
00001000
00000100
,
00010000
00000000
01000000
00000000
10000000
00000000
00010000
10000000
00100000
10000000
00010000
00000000
01000000
00001000
01000000
00000000
,
00020000
00000000
00030010
00000010
00001010
00000000
00000001
00001000
,
00000100
00000000
00010000
00000000
00000010
00000000
00001000
00000000
00010000
00000000
01000000
00000000
00100000
00000000
10000000
01000000
,
10000000
00000000
00010000
00000000
00100000
00000000
00001000
00010000
00000010
00010000
00001000
00000000
00000010
00000100
00000010
00000000
,
00000001
00001000
00000020
00000000
00000001
00000000
00001000
00000000
,
00000031
00000000
00000000
00000000
00001001
00000000
00000000
00010100
00000000
00000000
00101000
00000000
00000000
10100000
00000000
00000000
,
22000000
00000000
33000000
00000000
10010000
00000000
00000000
01001000
00000000
00000000
00010100
00000000
00000000
00000110
00000000
00000000
,
00002002
00000000
00003003
00000000
00000101
00000000
00000000
00010100
00000000
00000000
00011000
00000000
00000000
00110000
00000000
00000000
,
22000000
00000000
33000000
00000000
01010000
00000000
00000000
00101000
00000000
00000000
10010000
00000000
01000000
00100000
01000000
00000000
,
00010000
00000000
00100000
00000000
00110000
00000000
00000000
11000000
00000000
00000000
01001000
00000000
00000000
00011000
00000000
00000000
,
00020020
00000000
00030030
00000000
00001100
00000000
00000000
00000101
00000000
00000000
00000011
00000000
00000000
00001100
00000000
00000000
,
00022000
00000000
00033000
00000000
00101000
00000000
00000000
10010000
00000000
00000000
01000000
00000000
00100000
01000000
00010000
00000000
,
00100000
00001000
00020000
00000100
00000000
00030010
00000100
00000001
,
00001000
00011000
00000000
00000000
;
