#TITLE:Boomy and The Boost;
#SUBTITLE:;
#ARTIST:Eagle;
#TITLETRANSLIT:;
#SUBTITLETRANSLIT:;
#ARTISTTRANSLIT:;
#GENRE:NEO JUNGLE;
#CREDIT:;
#BANNER:Boomy_and_The_Boost_banner.png;
#BACKGROUND:Boomy_and_The_Boost.png;
#LYRICSPATH:;
#CDTITLE:;
#MUSIC:Boomy and The Boost.ogg;
#OFFSET:-0.270000;
#SAMPLESTART:34.750000;
#SAMPLELENGTH:12.000000;
#LASTBEATHINT:358.000000;
#SELECTABLE:YES;
#BPMS:0.000000=174.000000
;
#STOPS:
;
#BGCHANGES:;
#KEYSOUNDS:;
#ATTACKS:;

//---------------dance-single - ----------------
#NOTES:
     dance-single:
     :
     Easy:
     7:
     0.290832,0.316026,0.063126,0.142034,0.000000,258.000000,250.000000,8.000000,18.000000,0.000000,0.000000,0.290832,0.316026,0.063126,0.142034,0.000000,258.000000,250.000000,8.000000,18.000000,0.000000,0.000000:
// measure 0
0000
0000
0000
0000
,  // measure 1
0000
0000
0000
0000
,  // measure 2
0000
0000
0000
0000
,  // measure 3
0000
0000
0000
0000
,  // measure 4
0000
0000
0000
0000
,  // measure 5
0100
1000
0000
0000
,  // measure 6
0010
0001
0000
0000
,  // measure 7
0100
0001
0000
0000
,  // measure 8
0010
1000
0000
0000
,  // measure 9
0001
0100
0010
0000
,  // measure 10
1000
0100
0010
0000
,  // measure 11
0001
1000
0010
0000
,  // measure 12
2200
0000
0000
3300
0000
0000
0000
0000
,  // measure 13
0010
0100
1000
0000
,  // measure 14
0001
0010
0100
0000
,  // measure 15
1000
0100
0010
0000
,  // measure 16
0001
0010
1000
0001
,  // measure 17
0200
0000
0000
0300
,  // measure 18
0000
0000
0000
0000
,  // measure 19
0010
0100
0010
0000
,  // measure 20
1000
0100
1000
0000
,  // measure 21
0001
0100
0001
1000
,  // measure 22
0010
1000
0001
0000
,  // measure 23
0100
0010
0100
0010
,  // measure 24
1000
0000
0000
1000
0000
0000
1000
0000
,  // measure 25
0001
0010
0000
0010
,  // measure 26
0100
1000
0000
1000
,  // measure 27
0010
0100
0000
0100
,  // measure 28
0001
1000
0000
1001
,  // measure 29
0100
0001
0000
0001
,  // measure 30
0010
0100
0000
0100
,  // measure 31
1000
0000
0001
0000
1000
0000
0000
0010
,  // measure 32
0000
0010
0200
0300
,  // measure 33
0001
0010
0000
0010
,  // measure 34
0001
1000
0100
1000
,  // measure 35
0010
0100
0000
0100
,  // measure 36
0020
0000
0130
0000
,  // measure 37
1000
0100
0000
0100
,  // measure 38
0010
0100
1000
0001
,  // measure 39
0200
0000
0000
0300
,  // measure 40
0010
0010
0010
0000
,  // measure 41
2000
0000
0000
0000
,  // measure 42
3002
0000
0003
0110
,  // measure 43
0000
0002
0000
0000
,  // measure 44
0000
2003
0000
3000
,  // measure 45
0100
0000
0010
0000
0000
0010
0000
0000
,  // measure 46
0010
0000
0000
0010
0000
0000
0020
0000
,  // measure 47
0030
0000
0100
0000
0000
0100
0000
0000
,  // measure 48
0100
0001
1000
0002
,  // measure 49
1003
0010
0000
0010
,  // measure 50
1000
0100
0000
0100
,  // measure 51
0010
0000
0000
0010
0000
0010
0000
0000
,  // measure 52
0001
0000
0000
0001
0000
0001
0000
0000
,  // measure 53
0100
1000
0001
0100
,  // measure 54
0010
0000
0000
1000
0000
0000
0000
0000
,  // measure 55
0010
0000
0000
0001
0000
0001
0000
0000
,  // measure 56
0100
0000
0000
1000
0000
1000
0000
0000
,  // measure 57
1000
0100
0010
0100
,  // measure 58
1000
0000
0000
0001
0000
0001
0000
0000
,  // measure 59
0010
0000
0000
0100
0000
0100
0000
0000
,  // measure 60
0100
0000
0000
0010
0000
0010
0000
0000
,  // measure 61
0001
0100
0010
0100
,  // measure 62
0001
0000
0000
1000
0000
1000
0000
0000
,  // measure 63
0010
0000
0000
0010
0000
0110
0000
0000
,  // measure 64
1000
0000
0000
0001
0000
1001
0000
0000
,  // measure 65
0100
0010
1000
0010
,  // measure 66
1000
0100
0010
0000
,  // measure 67
0001
0100
0010
0100
,  // measure 68
0001
1000
0001
0000
,  // measure 69
1000
0100
0010
0001
,  // measure 70
1000
0001
0010
0000
,  // measure 71
0001
0100
0010
1000
,  // measure 72
0001
0000
0000
0001
0000
0000
1001
0000
,  // measure 73
0200
0000
0300
0010
,  // measure 74
0100
0010
0100
0020
,  // measure 75
2030
3001
1000
0001
,  // measure 76
1000
0001
2000
3000
,  // measure 77
0002
0013
0100
0010
,  // measure 78
0100
1000
0001
0000
,  // measure 79
0200
0310
1000
0001
,  // measure 80
0010
0000
0000
0100
0000
0000
0110
0000
,  // measure 81
0001
1000
0100
1000
,  // measure 82
0001
1000
0010
0000
,  // measure 83
0001
0010
0001
1000
,  // measure 84
0001
0100
0001
0000
,  // measure 85
0010
0100
1000
0001
,  // measure 86
0010
0100
0001
0000
,  // measure 87
0100
0010
0001
1000
,  // measure 88
0100
0010
1000
0000
,  // measure 89
0110
0000
0000
0000
;

//---------------dance-single - ----------------
#NOTES:
     dance-single:
     :
     Medium:
     12:
     0.537701,0.561824,0.307741,0.134143,0.122307,477.000000,438.000000,39.000000,17.000000,0.000000,0.000000,0.537701,0.561824,0.307741,0.134143,0.122307,477.000000,438.000000,39.000000,17.000000,0.000000,0.000000:
0000
0000
0000
0000
,
0000
0000
0000
0000
,
0000
0000
0000
0000
,
0000
0000
0000
0000
,
0000
0000
0000
0000
,
0001
0100
1000
0100
0000
0000
0010
0000
,
1000
0100
0001
0100
0000
0000
0010
0000
,
0100
1000
0001
0100
0000
0000
0010
0000
,
0100
0001
1000
0100
0010
0000
0110
0000
,
0001
1000
0100
1000
0000
0010
0100
0000
,
0010
1000
0100
0010
0000
0010
0100
0000
,
1000
0010
0100
0001
0000
0010
0001
0000
,
1000
0001
0010
0100
0010
0001
1000
0000
,
0010
0100
0010
0100
0000
0001
0010
0000
,
0100
0010
0100
1000
0000
0010
0100
0000
,
0010
1000
0100
0010
0000
0001
1000
0000
,
0010
0100
0001
0100
1000
0000
0110
0000
,
1000
0000
0000
0000
1010
0000
0000
0000
0001
0000
0000
0100
0000
0000
0110
0000
,
0000
0000
0001
0000
0001
0000
0000
0000
1000
0000
0000
1100
0000
0000
0010
0000
,
0001
0000
0000
0000
0101
0000
0000
0000
0010
0000
0000
1000
0000
0000
1001
0000
,
0000
0000
0010
0000
0100
0000
0000
0000
0010
0000
0000
1000
0000
0000
0100
0000
,
0010
0000
0100
0000
1000
0000
0000
0000
0101
0000
0000
0010
0000
0000
0110
0000
,
0000
0000
0001
0000
1000
0000
0010
0000
1000
0000
0000
0100
0000
0000
0010
0000
,
0100
0000
1000
0000
0010
0000
0100
0000
0001
0000
0000
0010
0000
0000
0100
0000
,
1000
1000
0000
1000
1000
0000
0011
0000
,
0101
0000
0010
0000
1000
0100
0000
1000
,
0010
0000
1000
0001
0000
0010
0001
1000
,
0001
0000
0011
0000
1000
0001
0000
0100
,
0001
0000
0010
0001
0000
1000
0100
0010
,
0200
0000
1300
0000
0010
0100
0000
0001
,
1000
0000
0100
0010
0000
0001
1000
0000
,
1001
0000
0000
0000
0010
0000
0000
0000
1000
0000
0000
0100
0000
0000
0011
0000
,
0000
0001
1000
0000
0010
0100
0002
0000
,
1003
0000
1001
0000
0100
0010
0000
1000
,
0001
0000
1000
0100
0000
0010
0100
1000
,
0001
0000
0101
0000
0010
1000
0000
0001
,
1000
0000
0000
0001
0000
0000
1000
0000
0020
0000
0000
0000
0030
0000
0000
0000
,
1000
0100
0010
0000
0100
1000
0000
0001
,
0100
0000
0010
0100
0000
0001
1000
0001
,
0020
0000
0230
0000
,
1300
0000
0000
0000
1001
0000
0000
0000
0010
0000
0000
0110
0000
0000
1000
0000
,
0002
0000
0000
0000
0013
0000
0000
0001
0000
0000
0100
0000
0000
0010
0000
0000
,
1000
0000
0000
0100
0000
0000
1000
0000
0000
0010
0000
0000
0200
0000
0300
0000
,
0200
0000
0300
0000
0010
0000
0000
1000
0000
0000
0001
0000
0000
0010
0000
0000
,
0100
0000
0000
1000
0000
0000
0001
0000
0000
0100
0000
0000
0001
0000
0000
0000
,
0020
0000
0000
0000
0031
0000
0000
1000
0000
0000
0010
0000
0000
1000
0000
0000
,
0100
0000
0000
0010
0000
0000
0100
0000
0000
1000
0000
0000
0001
0000
0000
0000
,
0110
0000
0000
0000
0010
0000
0000
1000
0000
0000
0100
0000
0000
1000
0000
0000
,
0001
0000
0000
0100
0000
0000
0010
0000
0000
0100
0000
0000
0002
0000
0000
0000
,
1003
0100
0010
0000
0010
0100
1000
0000
,
0001
0000
0100
0010
0000
0110
0000
0000
,
0101
0000
0000
0010
0000
0010
0000
0000
,
1100
0000
0000
0010
0000
0010
0000
0000
,
0100
1000
0001
0000
0010
0001
1000
0000
,
0001
0100
1000
0100
0000
0110
0000
0000
,
2000
0000
0000
3001
0000
0101
0000
0000
,
0020
0000
0000
1030
0000
1100
0000
0000
,
0010
0001
0100
0000
0010
1000
0001
0000
,
1000
0010
0001
0020
0000
1030
0000
0000
,
0001
0000
0000
1100
0000
1001
0000
0000
,
0010
0000
0000
0011
0000
1001
0000
0000
,
0010
0100
0001
0000
0010
0100
1000
0000
,
0010
1000
0100
0010
0000
1001
0000
0000
,
0200
0000
0000
0310
0000
0101
0000
0000
,
2000
0000
0000
3001
0000
1100
0000
0000
,
0010
0001
1000
0000
0001
0010
0100
0000
,
1000
0010
0001
0010
0000
0110
0000
0000
,
1000
0000
0010
0100
0000
1010
0000
0000
,
0001
0000
0010
0001
0000
0101
0000
0000
,
0010
1000
0001
0000
1000
0100
0010
0000
,
0001
0100
0010
1000
0000
1000
0001
0010
,
0100
0010
0001
1000
0001
1000
0010
0100
,
0010
0010
0000
0100
0100
0000
0001
0000
,
1001
0000
0000
0000
0100
0000
0000
0000
0010
0000
0000
1000
0000
0000
0001
0000
,
1000
0000
0100
0010
0001
0010
0200
0000
,
1300
0000
0000
0000
0011
0000
0000
0000
1000
0000
0000
0001
0000
0000
0010
0000
,
0001
0000
0000
0000
1000
0000
0000
0010
0000
0000
0100
0000
0010
0000
0000
0000
,
1001
0000
0000
0000
0010
0000
0000
0000
0001
0000
0000
0100
0000
0000
0010
0000
,
1000
0000
0000
0000
0100
0000
0000
1000
0000
0000
0010
0000
0100
0000
0000
0000
,
0002
0000
0000
0003
,
1000
0001
0010
0100
1000
0001
0100
0000
,
0010
1000
0100
1000
0000
0001
0010
0000
,
0001
0100
0010
0100
0000
0001
1000
0000
,
0100
1000
0100
0001
0000
0100
1000
0000
,
0010
0100
0001
1000
0001
0010
0100
0000
,
1000
0001
0010
0100
0000
0010
0001
0000
,
1000
0010
0100
0010
0000
1000
0001
0000
,
1000
0010
0001
0010
0000
0100
0001
1000
,
0001
0010
0100
1000
0010
0100
0001
0000
,
1001
0000
0000
0000
;

//---------------dance-single - ----------------
#NOTES:
     dance-single:
     :
     Hard:
     16:
     0.835297,0.842736,0.939004,0.228833,0.505011,741.000000,622.000000,119.000000,29.000000,0.000000,0.000000,0.835297,0.842736,0.939004,0.228833,0.505011,741.000000,622.000000,119.000000,29.000000,0.000000,0.000000:
0000
0000
0000
0000
,
0000
0000
0000
0000
,
0000
0000
0000
0000
,
0000
0000
0000
0000
,
0000
0000
0000
0000
0000
0000
0000
0000
0000
0000
0000
0000
0000
0000
0001
0100
,
0010
1000
0001
0010
0000
0010
0002
0000
,
1003
0000
0010
0000
0001
0000
0010
0000
0000
0000
1000
0000
0100
0000
1000
0001
,
0100
0010
1000
0001
0000
0001
0110
0000
,
1000
0000
0001
0000
0010
0000
0001
0000
1000
0001
0010
0100
2000
0000
0000
0000
,
3010
0100
0001
1000
0000
1000
0100
0010
,
0001
0100
0010
0100
0000
0100
1000
0100
,
0001
0010
0100
0010
0000
0010
0001
1000
,
0001
0000
0100
0000
0010
0000
1000
0000
0001
0010
0100
0000
1000
0000
0010
0000
,
0100
0000
0001
0000
1000
0000
0001
0000
0010
0100
1000
0000
0010
0000
0100
0000
,
0001
0000
0010
0000
0100
0000
0010
0000
0001
1000
0100
0000
1000
0000
0010
0000
,
1000
0000
0001
0000
0010
0000
0001
0000
1000
0010
0100
0000
0001
0000
0010
0000
,
0001
0000
0010
0100
0010
0100
0010
0000
0100
0000
1000
0000
1001
0000
0000
0000
,
0011
0000
0000
0000
1100
0000
0000
0000
0010
0000
0000
1001
0000
0000
0100
0000
,
0000
0000
0010
0000
1000
0000
0001
0000
1000
0000
0000
0110
0000
0000
1000
0000
,
1001
0000
0000
0000
0101
0000
0000
0000
0010
0000
0000
1100
0000
0000
0001
0000
,
0010
0000
0100
0000
0010
0000
0001
1000
0010
0000
0100
0010
0000
1000
0001
1000
,
0001
0000
0000
0000
1010
0000
0000
0000
0011
0000
0010
0100
0000
0000
1000
0000
,
0010
0000
0100
0000
0001
0000
0010
0001
1000
0000
0100
1000
0000
0010
1000
0000
,
0001
0100
0010
0000
1000
0000
0100
1000
0010
0000
0100
0000
0001
1000
0100
0000
,
0010
2002
3003
0100
2002
3003
0110
0000
,
1000
0000
0001
0000
0011
0000
0000
0000
1000
0000
0001
0010
0000
0001
0100
0000
,
0001
0010
0000
0001
1000
0000
0010
1000
0000
0100
1000
0000
0010
0000
1000
0000
,
0100
0000
1000
0000
1001
0000
0000
0000
0010
0000
0001
0100
0000
0010
0100
0000
,
0001
0100
0000
0010
0100
0000
0001
1000
0001
0000
1000
0000
0010
0000
0001
0000
,
0010
0000
0100
0000
0101
0000
0000
0000
0010
0000
0110
0000
0000
1100
0000
0000
,
1001
0000
0000
0110
0000
0000
0011
0000
0001
0000
1000
0000
0010
0000
0100
0000
,
1100
0000
0000
0000
0011
0000
0000
0000
1100
0000
0000
0011
0000
0000
0110
0000
,
0000
0000
1000
0001
1000
0000
0010
0000
0100
0000
0001
0000
2200
0000
3300
0000
,
0010
0000
0001
0000
1000
0000
0001
0010
0000
0001
1000
0000
0001
0010
0000
0001
,
1000
0000
0001
0010
0000
0001
1000
0001
0010
0000
0100
0000
1000
0000
0001
0000
,
0100
0000
0010
0000
0100
0000
0010
1000
0000
0010
0100
0000
0010
1000
0000
0010
,
0200
0300
0000
2002
3003
0000
0100
0010
1000
0001
0000
1000
0001
0010
0001
0000
,
0100
0000
0001
0000
1000
0000
0100
1000
0000
0001
0100
0000
0001
1000
0000
0100
,
1000
0000
0001
0100
0000
1000
0100
0000
1000
0000
0010
0000
0001
0000
0010
0100
,
0002
0000
0023
0000
,
0130
0000
0000
0000
0011
0000
0000
0000
1010
0000
0000
0101
0000
0000
1001
0000
,
0020
0000
0000
0000
1030
0000
0000
1100
0000
0000
0101
0000
0000
0011
0000
0000
,
1001
0000
0000
0110
0000
0000
0101
0000
0000
0011
0000
0000
1010
0000
0000
0000
,
0101
0000
0000
0000
0011
0000
0000
1001
0000
0000
1010
0000
0000
1100
0000
0000
,
1001
0000
0000
0101
0000
0000
1010
0000
0000
0011
0000
0000
1001
0000
0000
0000
,
0110
0000
0000
0000
1010
0000
0000
0110
0000
0000
0011
0000
0000
0110
0000
0000
,
0101
0000
0000
0110
0000
0000
1100
0000
0000
0110
0000
0000
1001
0000
0000
0000
,
0011
0000
0000
0000
1010
0000
0000
0110
0000
0000
1010
0000
0000
0110
0000
0000
,
0012
0000
1000
0003
1000
0010
0100
0001
,
1000
0100
0001
0000
0001
0100
1000
0000
,
0100
0010
0001
1000
0000
0010
0110
0000
,
2001
0000
0000
3010
0000
0011
0000
0000
,
0201
0000
0000
1300
0000
1001
0000
0000
,
0100
0010
1000
0100
0010
1000
0001
0000
,
0001
0010
1000
0100
0000
1000
1001
0000
,
1020
0000
0000
0031
0000
1001
0000
0000
,
0102
0000
0000
0013
0000
1100
0000
0000
,
0001
0000
0100
0000
0010
0000
1000
0000
0001
1000
0100
0000
1000
0000
0010
0000
,
0100
0001
0010
0001
0000
0001
1100
0000
,
0010
0100
0001
0011
0000
1010
0000
0000
,
1000
0010
0100
0101
0000
1100
0000
0000
,
0010
0000
0001
0000
1000
0000
0001
0000
0010
0100
0001
0000
0100
0000
1000
0000
,
0010
0000
0100
0000
0001
0000
1000
0000
0001
0100
0010
0000
1000
0000
0100
0000
,
0210
0000
1300
1001
0000
0011
0000
0000
,
1002
0000
0013
0011
0000
1100
0000
0000
,
0010
0000
1000
0000
0001
0000
1000
0000
0001
0010
0100
0000
1000
0000
0010
0000
,
1000
0000
0001
0000
0100
0000
0010
0000
1000
0001
0100
0000
0010
0000
1000
0000
,
0001
0000
0010
0000
0011
0000
0000
0000
1100
0000
0000
1010
0000
0000
1001
0000
,
0010
0000
0001
0000
0100
0000
0010
0000
1010
0000
0000
0101
0000
0000
1001
0000
,
0001
0000
0010
0000
0001
0000
0100
0000
0010
0100
0001
0000
0010
0000
0100
0000
,
1000
0000
0010
0000
0100
0000
0010
0000
1000
0001
0100
0000
0010
0000
1000
0000
,
0001
0100
0001
0100
0001
0000
1000
0000
0010
1000
0010
1000
0010
0000
0100
0000
,
0010
2002
3003
0100
2002
3003
0110
0000
,
1001
0000
0000
0000
0010
0000
0000
1100
0000
0000
1001
0000
0000
0011
0000
0000
,
1001
0000
0000
0101
0000
0000
0110
0000
0000
1010
0000
0000
2002
0000
3003
0000
,
0100
0000
0010
0000
0100
0000
0001
1000
0001
1000
0001
0000
0010
0000
0001
0000
,
1000
0100
0010
0000
0100
0010
0001
0000
0010
0100
1000
0000
0001
0000
0000
0000
,
0110
0000
0000
0000
1000
0000
0000
0011
0000
0000
0110
0000
0000
1100
0000
0000
,
1010
0000
0000
0110
0000
0000
0101
0000
0000
0011
0000
0000
2020
0000
3030
0000
,
0001
0000
0100
0000
0001
0000
0010
0001
0010
0001
0010
0000
0100
0000
1000
0000
,
0010
0000
0100
0000
1000
0000
0010
0100
0001
0000
1000
0000
1001
0000
0000
0000
,
0010
0000
1000
0100
1000
0000
0001
0000
0010
0001
0010
0000
0001
0000
0100
0010
,
0100
0000
0010
0000
1000
0100
1000
0000
0010
0000
0100
0001
1000
0000
0001
0000
,
0010
0000
0001
1000
0001
0000
0010
0000
0001
1000
0001
0000
0100
0000
0001
1000
,
0001
0000
0100
0000
0010
0100
0010
0100
0010
0000
1000
0000
1100
0000
0000
0000
,
0010
0000
0100
1000
0100
0000
0010
0000
0001
0100
0001
0000
1000
0000
0010
0100
,
0010
0000
1000
0000
0001
0010
0001
0000
1000
0000
0010
0100
0010
0000
1000
0000
,
0001
0000
1000
0010
0100
0010
1000
0010
0100
0000
0001
0000
0010
0000
0001
0100
,
0001
0000
0010
0000
0001
1000
0000
1000
0010
0100
0010
0000
1000
0000
0001
0000
,
0110
0000
0000
0000
;
