#TITLE:Blue Sky;
#SUBTITLE:;
#ARTIST:Sota F.;
#TITLETRANSLIT:;
#SUBTITLETRANSLIT:;
#ARTISTTRANSLIT:;
#GENRE:;
#CREDIT:;
#BANNER:Blue_Sky_banner.png;
#BACKGROUND:Blue_Sky.png;
#LYRICSPATH:;
#CDTITLE:;
#MUSIC:Blue Sky.ogg;
#OFFSET:-0.720000;
#SAMPLESTART:54.796001;
#SAMPLELENGTH:15.000000;
#SELECTABLE:YES;
#BPMS:0.000000=142.000000
;
#STOPS:
;
#BGCHANGES:;
#KEYSOUNDS:;
#ATTACKS:;

//---------------dance-single - ----------------
#NOTES:
     dance-single:
     :
     Easy:
     5:
     0.228571,0.249457,0.095652,0.095652,0.000000,184.000000,173.000000,11.000000,11.000000,0.000000,0.000000,0.228571,0.249457,0.095652,0.095652,0.000000,184.000000,173.000000,11.000000,11.000000,0.000000,0.000000:
0000
0000
0000
0000
,
0000
0000
0000
0000
,
0000
0000
0000
0000
,
0000
0000
0000
0000
,
0100
0010
1000
0000
,
0001
0010
0100
0000
,
1000
0001
0100
0010
,
2002
0000
0000
0000
0000
3003
0000
0000
,
1000
0010
0100
0000
,
0001
1000
0010
0000
,
0100
0001
1000
0000
,
0010
0000
0110
0000
,
0001
1000
0100
0000
,
0010
0001
0100
0000
,
0010
0100
0010
0000
,
2002
0000
0000
0000
0000
3003
0000
0000
,
1000
0100
0010
0000
,
0001
0100
0010
0000
,
1000
0010
0100
0000
,
0001
0010
0100
0000
,
0010
0001
0010
0000
,
0100
1000
0100
0000
,
1000
0010
0100
0001
,
2000
3000
0002
0003
,
0100
0000
0110
0000
,
0001
0000
1010
0000
,
0100
0000
0001
0100
,
0010
0000
1000
0100
,
1000
0000
0011
0000
,
0001
0000
0110
0000
,
0100
0000
0010
1000
,
0200
0000
1300
0000
,
0001
0100
0001
0000
,
1000
0010
1000
0000
,
0010
0010
0100
0100
,
0001
0000
1001
0000
,
1000
0100
1000
0000
,
0001
0010
0001
0000
,
0100
0100
0010
0010
,
1000
0000
1001
0000
,
0001
0010
0100
0000
,
1000
0100
0010
0000
,
0001
0100
1000
0000
,
1000
0100
0001
0000
,
0100
0010
0100
0000
,
0010
1000
0010
0000
,
0100
0001
0010
1000
,
0010
0000
1001
0000
,
0100
0010
1000
0000
,
0001
0100
0010
0000
,
1000
1000
0001
0001
,
0100
0000
0110
0000
,
0010
1000
0100
0000
,
1000
0001
0010
0000
,
0001
0100
0010
1000
,
0002
0000
1003
0000
,
1000
0010
1000
0100
,
1000
0000
0010
0000
,
0001
0010
0001
0100
,
0001
0000
2000
3000
,
0010
0010
0100
0100
,
0001
1000
0002
0000
,
1003
0100
0010
0001
,
0200
0000
0010
0310
;

//---------------dance-single - ----------------
#NOTES:
     dance-single:
     :
     Medium:
     9:
     0.406211,0.388043,0.191304,0.113043,0.100000,327.000000,305.000000,22.000000,13.000000,0.000000,0.000000,0.406211,0.388043,0.191304,0.113043,0.100000,327.000000,305.000000,22.000000,13.000000,0.000000,0.000000:
0000
0000
0000
0000
,
0000
0000
0000
0000
,
0000
0000
0000
0000
,
0000
0000
0000
0000
,
1000
0010
0100
0000
0010
0000
0110
0000
,
0001
0010
0100
0000
0010
0000
1001
0000
,
0100
0010
1000
0000
0001
0000
0010
0000
,
0220
0000
0000
0330
,
0001
0000
0000
0100
0000
0000
0010
0000
1000
0000
0100
0000
1000
0000
0000
0000
,
0010
0000
0000
1000
0000
0000
0001
0000
0100
0000
0000
0000
0110
0000
0000
0000
,
0010
0000
0000
1000
0000
0000
0001
0000
0010
0000
0001
0000
0100
0000
0000
0000
,
0010
0000
0000
1000
0000
0000
0100
0000
1000
0000
0000
0000
1001
0000
0000
0000
,
0010
0000
0000
0100
0000
0000
0001
0000
1000
0000
0010
0000
1000
0000
0000
0000
,
0010
0000
0000
0100
0000
0000
0001
0000
0010
0000
0000
0000
0100
0000
0000
0000
,
1000
0000
0000
0010
0000
0000
0100
0000
0020
0000
0000
0000
0130
0000
0000
0000
,
0001
0000
0000
0010
0000
0000
0100
0000
0020
0000
0000
0000
0130
0000
0000
0000
,
1000
0000
0010
0000
0100
0001
0100
0000
,
0010
0000
1000
0000
0100
1000
0100
0000
,
0010
0000
0001
0000
1000
0100
1000
0000
,
0010
0000
0100
0000
0001
1000
0001
0000
,
0100
0000
0110
0000
0001
1000
0100
0000
,
1000
0000
1001
0000
0010
0100
0001
0000
,
1000
1010
0001
0011
,
0220
0000
0000
0330
,
1000
0000
0000
0010
0000
0000
1000
0000
0020
0000
0000
0000
0130
0000
0000
0000
,
0001
0000
0000
0010
0000
0000
0001
0000
0200
0000
0000
0000
0310
0000
0000
0000
,
1000
0000
0000
0001
0000
0000
1000
0000
0010
0000
0000
0000
0110
0000
0000
0000
,
0100
0000
0000
0001
0000
0000
1000
0000
0010
0000
0000
0000
0110
0000
0000
0000
,
1000
0000
0000
0100
0000
0000
1000
0000
0001
0000
0000
0000
0100
0000
0000
0000
,
0010
0000
0000
1000
0000
0000
0001
0000
0100
0000
0000
0000
0010
0000
0000
0000
,
1000
0000
0000
0100
0000
0000
0010
0000
0100
0000
0000
0000
1000
0000
0000
0000
,
0001
0000
0000
0100
0000
0000
0010
0000
0100
0000
0000
0000
1001
0000
0000
0000
,
0010
0000
0100
0001
0010
0100
1000
0000
,
0010
0000
0000
0100
0000
0000
0020
0000
0000
0000
0000
0000
1030
0000
0000
0000
,
0001
0000
0000
0010
0000
0000
0100
0000
0000
0000
1000
0000
0100
0000
0000
0000
,
1000
0000
0000
0010
0000
0000
0100
0000
0000
0000
0001
0000
0010
0000
0000
0000
,
0000
0000
1001
0000
0100
0010
0100
0000
,
0001
0000
0000
1000
0000
0000
0010
0000
0000
0000
0100
0000
0010
0000
0000
0000
,
1000
0000
0000
0001
0000
0000
0100
0000
0000
0000
0010
0000
0100
0000
0000
0000
,
0001
0000
0000
0010
0000
0000
0100
0000
2000
0000
0000
0000
3001
0000
0000
0000
,
0100
0000
0101
0000
0001
1000
0010
0000
,
1000
0000
1100
0000
0010
0100
0001
0000
,
1000
0000
1001
0000
0010
0100
0001
0000
,
0010
0000
0101
0000
0010
1000
0001
0000
,
0100
0010
0100
0000
0001
1000
0100
0000
,
1000
0010
0100
0000
0001
0010
0100
0000
,
1000
1010
0001
0011
,
0100
0010
0100
0000
0020
0000
1030
0000
,
0001
0010
0001
0000
1000
0010
0100
0000
,
0010
0100
0001
0000
0010
0001
1000
0000
,
0100
1000
0010
0000
0100
0001
0010
0000
,
0001
0000
0000
0001
0000
0000
0001
0000
1000
0000
0000
0000
1100
0000
0000
0000
,
0010
0100
0010
0000
1000
0001
1000
0000
,
0001
0100
0010
0000
1000
0010
0100
0000
,
0010
1000
0100
0000
0010
0001
0100
0000
,
0020
0000
1000
1030
,
0001
0100
0010
1000
0010
0000
0100
0000
,
0010
1000
0001
1000
0100
0000
0010
0000
,
0001
1000
0100
0010
0100
0000
1000
0000
,
0001
0100
0010
0100
0001
0000
1000
0000
,
1000
0010
0100
0001
0010
0000
0001
0000
,
1000
0100
0010
0001
0200
0000
0300
0000
,
0010
1000
0001
0100
0010
0000
1000
0000
,
0100
1000
0001
0010
0100
0000
1001
0000
;

//---------------dance-single - ----------------
#NOTES:
     dance-single:
     :
     Hard:
     13:
     0.644720,0.609783,0.173913,0.078261,0.421739,519.000000,499.000000,20.000000,9.000000,0.000000,0.000000,0.644720,0.609783,0.173913,0.078261,0.421739,519.000000,499.000000,20.000000,9.000000,0.000000,0.000000:
0000
0000
0000
0000
,
0000
0000
0000
0000
,
0000
0000
0000
0000
,
0000
0000
0000
0000
,
0010
1000
0010
0000
0100
0000
0001
0000
0010
0000
0001
0000
1000
0000
0000
0000
,
0001
0100
0001
0000
1000
0000
0010
0000
0100
0000
0010
0000
1000
0000
0000
0000
,
0010
0100
0010
0000
1000
0000
0100
0000
0010
0000
0001
0000
1000
0000
0100
0000
,
2002
0000
3003
0000
0010
0100
0110
0000
,
0001
0000
1000
0010
0000
1000
0010
0000
0100
0000
0010
0000
1000
0000
0100
0000
,
1000
0000
0001
0100
0000
0001
0100
0000
0010
0000
1000
0000
0100
0000
0010
0000
,
0100
0000
1000
0001
0000
1000
0001
0000
0100
0000
0010
0000
0100
0000
0001
0000
,
1000
0000
0010
0100
0000
0010
0100
0000
0001
0000
0010
0000
1000
0000
0010
0000
,
0001
0000
0100
0010
0000
1000
0100
0000
1000
0000
0010
0000
0100
0000
0001
0000
,
0010
0000
0100
1000
0000
0001
0010
0000
0001
0000
1000
0000
0010
0000
0100
0000
,
0001
0000
1000
0100
0000
0010
0001
0000
0100
0000
0010
0000
1000
0000
0100
0000
,
0010
0000
0001
0100
0000
0010
1000
0000
0010
0000
0100
0000
0110
0000
0000
0000
,
1000
0010
0100
0010
1000
0001
0010
0001
,
1000
0100
0001
0100
1000
0010
0001
0010
,
0100
0010
1000
0010
0100
0001
0010
1000
,
0001
0100
1000
0010
0100
0001
1001
0000
,
1000
0010
0100
0001
0010
0100
1000
0001
,
0100
0010
0001
0010
0100
0010
1000
0100
,
1000
0010
0001
0010
1000
0100
0001
0100
,
1000
0000
0010
0000
0001
0000
1000
0000
0100
0000
0000
0110
0000
0000
1001
0000
,
0001
0000
0100
0010
0000
0010
0100
0000
0002
0000
0000
0000
1003
0000
0100
0000
,
1000
0000
0010
0100
0000
0100
0010
0000
2000
0000
0000
0000
3100
0000
0010
0000
,
0001
0000
0010
0001
0000
0001
0100
0000
0010
0000
1000
0000
0100
0000
0010
0000
,
0100
0000
1000
0010
0000
0010
0100
0000
0001
0000
0010
0000
0110
0000
0000
0000
,
1000
0000
0100
0010
0000
0010
0100
0000
1000
0000
0010
0000
0100
0000
0001
0000
,
1000
0000
0010
0100
0000
0100
0001
0000
0010
0000
0001
0000
0100
0000
0001
0000
,
0010
0000
0100
1000
0000
1000
0100
0000
0010
0000
0001
0000
1000
0000
0010
0000
,
0100
0000
0001
0000
0010
0000
0100
0000
1001
0000
0000
0110
0000
0000
1000
0000
,
0001
0000
0100
0010
0000
1000
0010
0000
0100
0001
0000
1000
0010
0000
0100
0000
,
0001
0000
1000
0100
0000
1000
0010
0000
0100
0010
0000
0000
1000
0000
0001
0000
,
0010
0000
0001
1000
0000
0001
0010
0000
0001
0100
0000
0000
0010
0000
0100
0000
,
0010
0000
1000
0001
0000
1000
0010
0000
0100
0010
0000
0000
0100
0000
0200
0000
,
0300
0000
0000
0000
1001
0000
1000
0000
0010
0100
0000
0001
0010
0000
0001
0000
,
1000
0000
0100
0010
0000
0100
1000
0000
0001
0100
0000
0000
0010
0000
0100
0000
,
0001
0000
0010
0100
0000
0010
0100
0000
1000
0001
0000
0000
0100
0000
0010
0000
,
1000
0000
0000
0001
0000
0000
1000
0000
0010
0100
0000
0000
0110
0000
0000
0000
,
0001
0100
1000
0000
0000
0000
0100
0000
0010
0000
1000
0100
0000
0000
0010
0000
,
0100
1000
0001
0000
0000
0000
0100
0000
0010
0000
0100
0001
0000
0000
0001
0000
,
1000
0100
0001
0000
0000
0000
0100
0000
1000
0000
0010
0100
0000
0000
0010
0000
,
0100
0001
0100
0000
0010
0000
1000
0000
0100
0000
0001
0000
0100
0000
1000
0000
,
0010
0100
0010
0000
0000
0000
1000
0001
1000
0000
0010
0100
0000
0000
0100
0000
,
0010
1000
0010
0000
0000
0000
0100
0001
0100
0000
0001
0010
0000
0000
0001
0000
,
1000
0100
1000
0000
0000
0000
0001
0010
0001
0000
0100
0010
0000
0000
0010
0000
,
1000
0100
0001
0100
0010
0001
0100
1000
,
0100
0000
0010
0000
0100
0001
1000
0000
0010
0000
0100
0010
0000
0000
1000
0000
,
0001
0000
0100
0000
0010
1000
0100
0000
1000
0000
0001
0010
0000
0000
0100
0000
,
1000
0000
0000
1010
0000
0000
0001
0000
0000
0011
0000
0000
0220
0000
0330
0000
,
1000
0000
0000
0101
0000
0000
0010
0000
0000
1100
0000
0000
0220
0000
0330
0000
,
0001
0000
1000
0000
0010
0100
0010
0000
1000
0000
0001
0000
0010
0100
0010
0000
,
0001
0000
1000
0000
0100
0001
0100
0000
1000
0000
0001
0000
0010
1000
0010
0000
,
0001
0000
1000
0010
0000
1000
0010
0000
0100
0001
0000
0010
0001
0000
1000
0000
,
0010
1000
0001
0010
0100
0010
0110
0000
,
1000
0000
0010
0000
0100
0001
0100
0000
0010
0000
1000
0000
0100
0000
0001
0000
,
0100
1000
0010
0001
0010
0100
0001
0010
,
0001
0000
1000
0000
0100
1000
0100
0000
0010
0000
0001
0000
0100
0000
0010
0000
,
1000
0100
0001
0100
0010
0001
1001
0000
,
0010
0000
0100
0000
0001
0010
0001
0000
1000
0000
0010
0000
0100
0000
0010
0000
,
0001
0000
0100
0000
0001
0000
0010
0000
1000
0100
1000
0001
0010
0000
0001
0000
,
0100
0000
0010
0000
1000
0100
1000
0000
0001
0000
0010
0000
0001
0100
0001
0000
,
1000
0001
0010
0100
1000
0001
1001
0000
;

//---------------dance-double - ----------------
#NOTES:
     dance-double:
     :
     Hard:
     13:
     0.634783,0.582065,0.156522,0.121739,0.430435,511.000000,493.000000,18.000000,14.000000,0.000000,0.000000,0.634783,0.582065,0.156522,0.121739,0.430435,511.000000,493.000000,18.000000,14.000000,0.000000,0.000000:
// measure 0
00000000
00000000
00000000
00000000
,  // measure 1
00000000
00000000
00000000
00000000
,  // measure 2
00000000
00000000
00000000
00000000
,  // measure 3
00000000
00000000
00000000
00000000
,  // measure 4
00000010
00000001
00001000
00000000
00000010
00000000
00010000
00000000
00000100
00000000
00001000
00000000
00000010
00000000
00000000
00000000
,  // measure 5
00010000
00000100
00010000
00000000
00001000
00000000
00100000
00000000
00010000
00000000
01000000
00000000
00010000
00000000
00000000
00000000
,  // measure 6
10000000
00100000
10000000
00000000
00010000
00000000
00100000
00000000
01000000
00000000
00100000
00000000
00001000
00000000
00010000
00000000
,  // measure 7
00022000
00000000
00033000
00000000
00000100
00010000
00010010
00000000
,  // measure 8
00001000
00000000
00000001
00000010
00000000
00000001
00000010
00000000
00000100
00000000
00000010
00000000
00000001
00000000
00001000
00000000
,  // measure 9
00000010
00000000
00010000
00001000
00000000
00010000
00001000
00000000
00100000
00000000
00010000
00000000
01000000
00000000
00010000
00000000
,  // measure 10
10000000
00000000
00100000
10000000
00000000
00010000
10000000
00000000
00100000
00000000
01000000
00000000
00001000
00000000
00010000
00000000
,  // measure 11
00001000
00000000
00010000
00000010
00000000
00001000
00000010
00000000
00000100
00000000
00000001
00000000
00000011
00000000
00000000
00000000
,  // measure 12
00001000
00000000
00000010
00000100
00000000
00000100
00000001
00000000
00000010
00000000
00000100
00000000
00010000
00000000
00001000
00000000
,  // measure 13
01000000
00000000
00100000
10000000
00000000
10000000
00010000
00000000
00100000
00000000
00001000
00000000
00010000
00000000
01000000
00000000
,  // measure 14
10000000
00000000
00010000
00100000
00000000
00100000
00001000
00000000
00010000
00000000
00000010
00000000
00000100
00000000
00000001
00000000
,  // measure 15
00000010
00000000
00001000
00000010
00000000
00000010
00000001
00000000
00001000
00000000
00000010
00000000
00000110
00000000
00000000
00000000
,  // measure 16
00010000
00000100
00001000
00000001
00000010
00000100
00010000
00001000
,  // measure 17
01000000
00010000
00100000
01000000
10000000
00100000
01000000
00001000
,  // measure 18
00010000
00000100
00010000
00001000
01000000
00001000
00010000
00000010
,  // measure 19
00001000
00000001
00000100
00000010
00010000
00001000
00011000
00000000
,  // measure 20
00100000
00010000
10000000
00010000
00100000
01000000
10000000
00010000
,  // measure 21
00100000
00001000
01000000
00001000
00010000
00000010
00001000
00000001
,  // measure 22
00000010
00000100
00010000
00000010
00001000
00000100
00010000
00001000
,  // measure 23
01000000
00000000
00010000
00000000
00100000
00000000
01000000
00000000
11000000
00000000
00000000
00010000
00000000
00000000
00100000
00000000
,  // measure 24
00001000
00000000
00010000
00000010
00000000
00000010
00010000
00000000
00002000
00000000
00000000
00000000
01003000
00000000
00010000
00000000
,  // measure 25
00100000
00000000
01000000
10000000
00000000
10000000
00100000
00000000
02000000
00000000
00000000
00000000
03001000
00000000
00100000
00000000
,  // measure 26
00010000
00000000
00100000
00001000
00000000
00001000
00010000
00000000
00000010
00000000
00001000
00000000
00000001
00000000
00000010
00000000
,  // measure 27
00000100
00000000
00010000
00000010
00000000
00000010
00010000
00000000
00001000
00000000
01000000
00000000
01100000
00000000
00000000
00000000
,  // measure 28
00100000
00000000
10000000
01000000
00000000
01000000
10000000
00000000
00020000
00000000
00000000
00000000
00130000
00000000
00001000
00000000
,  // measure 29
00010000
00000000
00000010
00001000
00000000
00001000
00000100
00000000
00000020
00000000
00000000
00000000
00000130
00000000
00001000
00000000
,  // measure 30
00000001
00000000
00000010
00000100
00000000
00000100
00010000
00000000
00001000
00000000
00100000
00000000
00001000
00000000
00010000
00000000
,  // measure 31
00000010
00000000
00001000
00000100
00000000
00000100
00010000
00000000
00001000
00000000
00000000
00202000
00000000
00303000
00000000
00000000
,  // measure 32
01000000
00000000
00010000
00100000
00000000
00010000
10000000
00000000
00100000
10000000
00000000
01000000
10000000
00000000
00010000
00000000
,  // measure 33
00100000
00000000
00001000
01000000
00000000
00001000
00010000
00000000
00001000
00010000
00000000
00000000
00000010
00000000
00001000
00000000
,  // measure 34
00000001
00000000
00000010
00000100
00000000
00001000
00000100
00000000
00000010
00000001
00000000
00000000
00001000
00000000
00000010
00000000
,  // measure 35
00010000
00000000
00000100
00010000
00000000
00001000
00010000
00000000
00001000
00100000
00000000
00000000
00010000
00000000
00020000
00000000
,  // measure 36
00030000
00000000
00000000
00000000
10010000
00000000
10000000
00000000
00100000
01000000
00000000
00010000
01000000
00000000
00001000
00000000
,  // measure 37
00010000
00000000
00100000
01000000
00000000
00010000
10000000
00000000
01000000
00010000
00000000
00001000
00010000
00000000
00000100
00000000
,  // measure 38
00001000
00000000
00000010
00000100
00000000
00000010
00001000
00000000
00000001
00000010
00000000
00000000
00000100
00000000
00010000
00000000
,  // measure 39
00000010
00000000
00000000
00010000
00000000
00000000
00001000
00000000
00100000
00010000
00000000
00000000
00011000
00000000
00000000
00000000
,  // measure 40
00001000
00010000
00000100
00000000
00000000
00000000
00001000
00000000
00000001
00000000
00000010
00000100
00000000
00000000
00010000
00000000
,  // measure 41
00001000
00100000
00010000
00000000
00000000
00000000
01000000
00000000
00010000
00000000
10000000
00100000
00000000
00000000
10000000
00000000
,  // measure 42
00010000
01000000
10000000
00000000
00000000
00000000
10000000
00000000
01000000
00000000
00010000
00100000
00000000
00000000
00001000
00000000
,  // measure 43
00010000
00000000
00000010
00000000
00010000
00001000
00010000
00000000
00000010
00000000
00001000
00000000
00000100
00000000
00000000
00000000
,  // measure 44
00001000
00000100
00000001
00000000
00000000
00000000
00000001
00000000
00000100
00000000
00001000
00000010
00000000
00000000
00010000
00000000
,  // measure 45
00001000
00100000
00010000
00000000
00000000
00000000
01000000
00000000
00010000
00000000
10000000
00100000
00000000
00000000
01000000
00000000
,  // measure 46
00010000
00100000
10000000
00000000
00000000
00000000
10000000
00000000
00100000
00000000
00010000
01000000
00000000
00000000
00001000
00000000
,  // measure 47
00010000
00000000
00000100
00000000
00001000
00000100
00000010
00000000
00000001
00000000
00001000
00000000
00000020
00000000
00000000
00000000
,  // measure 48
00010030
00000000
00001000
00010000
00000000
00000000
00000100
00000000
00010000
00001000
00000000
00100000
00010000
00000000
01000000
00000000
,  // measure 49
00010000
00000000
10000000
00100000
00000000
00000000
01000000
00000000
00001000
00010000
00000000
00001000
00100000
00000000
00010000
00000000
,  // measure 50
00100000
00000000
00000000
11000000
00000000
00000000
00010000
00000000
00000000
01010000
00000000
00000000
00022000
00033000
00000000
00000000
,  // measure 51
00000100
00000000
00000000
00010100
00000000
00000000
00001000
00000000
00000000
00000011
00000000
00000000
00002002
00003003
00000000
00000000
,  // measure 52
00000010
00000000
00010000
00000000
00000100
00001000
00000100
00000000
00010000
00000000
00001000
00000000
01000000
00010000
01000000
00000000
,  // measure 53
00001000
00000000
00010000
00000000
00001000
00100000
00001000
00000000
00010000
00000000
00000010
00000000
00000100
00000001
00000100
00000000
,  // measure 54
00000001
00000000
00000010
00000000
00000100
00001000
00000100
00000000
00010000
00000000
00000010
00000000
00010000
00001000
00010000
00000000
,  // measure 55
00001000
00100000
10000000
00100000
00010000
01000000
01000000
00000000
,  // measure 56
00100000
00000000
10000000
00000000
01000000
00100000
00010000
00000000
01000000
00000000
00001000
00000000
00010000
00000000
00000100
00000000
,  // measure 57
00001000
00000000
00000010
00000000
00000100
00000001
00001000
00000000
00000001
00000000
00000010
00000000
00000100
00000000
00010000
00000000
,  // measure 58
00001000
00000000
00100000
00000000
00001000
00010000
00000100
00000000
00001000
00000000
00000010
00000000
00000100
00000000
00000001
00000000
,  // measure 59
00000100
00001000
00000100
00000010
00010000
00010000
00011000
00000000
,  // measure 60
00001000
00000000
00100000
00000000
00010000
01000000
00010000
00000000
10000000
00000000
01000000
00000000
00010000
00000000
01000000
00000000
,  // measure 61
10000000
00000000
00100000
00000000
01000000
00000000
00001000
00000000
00010000
00000010
00010000
00001000
00010000
00000000
00000000
00000000
,  // measure 62
00001000
00000000
00010000
00000000
00000100
00000010
00000100
00000000
00001000
00000000
00000001
00000000
00000100
00000000
00000010
00000000
,  // measure 63
00010000
00000000
00001000
00000000
01000000
00010000
01000000
00000000
00100000
00000000
00100000
00000000
10100000
00000000
00000000
00000000
;
