#TITLE:Bleep Beep Bop;
#SUBTITLE:;
#ARTIST:kors k;
#TITLETRANSLIT:;
#SUBTITLETRANSLIT:;
#ARTISTTRANSLIT:;
#GENRE:CHIPPIN' RAVE;
#CREDIT:;
#BANNER:Bleep_Beep_Bop_banner.png;
#BACKGROUND:Bleep_Beep_Bop.png;
#LYRICSPATH:;
#CDTITLE:;
#MUSIC:Bleep Beep Bop.ogg;
#OFFSET:-0.600000;
#SAMPLESTART:78.750000;
#SAMPLELENGTH:12.000000;
#SELECTABLE:YES;
#BPMS:0.000000=175.000000
;
#STOPS:
;
#BGCHANGES:;
#KEYSOUNDS:;
#ATTACKS:;

//---------------dance-single - ----------------
#NOTES:
     dance-single:
     :
     Easy:
     6:
     0.275507,0.341076,0.151589,0.160011,0.000000,229.000000,211.000000,18.000000,19.000000,0.000000,0.000000,0.275507,0.341076,0.151589,0.160011,0.000000,229.000000,211.000000,18.000000,19.000000,0.000000,0.000000:
0000
0000
0000
0000
,
0000
0000
0000
0000
,
0000
0000
0000
0000
,
0000
0000
0000
0000
,
0000
0000
0000
0000
,
0000
0000
0000
0000
,
0000
0000
0000
0000
,
0000
0000
0000
0000
,
0000
0000
0000
0000
,
0010
0100
0010
0000
,
1000
0001
1000
0000
,
0001
0010
0100
0000
,
1000
0010
0100
0000
,
0010
1000
0001
0000
,
0100
0001
1000
0000
,
0001
1000
0001
0000
,
0220
0000
0000
0000
0000
0330
0000
0000
,
0010
0000
0010
1000
,
0010
0000
0100
0001
,
0100
0000
0100
0010
,
0100
0000
1010
0000
,
1000
0001
0100
0000
,
0001
1000
0010
0000
,
1000
0010
0100
0001
,
1001
0000
0110
0000
,
0001
0100
0010
0100
,
0002
0000
1003
0000
,
0100
1000
0001
1000
,
0200
0000
0310
0000
,
0001
0010
0100
1000
,
0001
0000
1001
0000
,
1000
0010
0100
0001
,
0020
0000
0031
0001
,
2000
0000
3010
0010
,
0100
0001
0100
0000
,
0010
1000
0010
0000
,
1000
0001
0100
0000
,
0020
0000
0130
0100
,
0001
1000
0010
0100
,
0002
0000
1003
0000
,
0220
0000
0000
0000
0000
0330
0000
0000
,
1000
0000
0000
0010
0000
0000
0000
0000
,
0100
0000
0000
0001
0000
0000
0000
0000
,
0010
0001
1000
0100
,
1000
0000
0101
0000
,
0010
0000
0000
1000
0000
0000
0000
0000
,
0001
0000
0000
0100
0000
0000
0000
0000
,
0020
0000
1030
0100
,
1000
0000
1001
0000
,
0020
0100
0000
0130
,
0002
0010
0000
0013
,
0200
1000
0000
1300
,
2000
0001
0000
3001
,
0100
0010
0100
0010
,
1000
0001
1000
0000
,
0001
0100
0010
1000
,
0220
0000
0000
0000
0000
0330
0000
0000
,
1000
0010
1000
0000
,
0001
0010
0001
0000
,
0100
0010
1000
0001
,
1001
0000
0110
0000
,
0001
0010
0100
0000
,
0010
0100
1000
0000
,
0010
0100
0001
1000
,
1001
0000
0110
0000
,
2000
0010
3010
0000
,
0001
0010
0100
0000
,
0020
0001
0031
0000
,
1000
0000
1001
0000
,
0010
0100
0010
0000
,
1000
0001
1000
0000
,
0010
0100
1000
0001
,
1001
0000
0110
0000
,
0010
1000
0010
0100
,
0001
0010
0100
0000
,
1000
0001
0100
0010
,
1000
0100
0010
0000
,
0001
0100
0010
1000
,
0100
1000
0001
0000
,
0110
0000
1001
0000
,
1000
0000
0001
0000
0100
0010
0100
0000
,
0001
0000
0000
0000
;

//---------------dance-single - ----------------
#NOTES:
     dance-single:
     :
     Medium:
     11:
     0.511313,0.511613,0.126324,0.193697,0.037897,425.000000,410.000000,15.000000,23.000000,0.000000,0.000000,0.511313,0.511613,0.126324,0.193697,0.037897,425.000000,410.000000,15.000000,23.000000,0.000000,0.000000:
// measure 0
0000
0000
0000
0000
,  // measure 1
0000
0000
0000
0000
,  // measure 2
0000
0000
0000
0000
,  // measure 3
0000
0000
0000
0000
,  // measure 4
0000
0000
0000
0000
,  // measure 5
0010
0000
0001
0010
0000
0001
1000
0100
,  // measure 6
1000
0000
0010
0100
0001
1000
0001
0000
,  // measure 7
0100
0000
0010
0100
0000
0001
0010
0100
,  // measure 8
2000
0000
0000
0000
0000
3000
0000
0000
,  // measure 9
0011
0000
0001
1000
0000
1000
0010
0000
,  // measure 10
0100
0010
1000
0010
0100
0000
0001
0000
,  // measure 11
0010
0000
0001
0010
0000
0001
0100
0000
,  // measure 12
0010
1000
0001
1000
0010
0000
0100
0000
,  // measure 13
1010
0000
1000
0100
0000
0100
1000
0000
,  // measure 14
0001
0010
0100
0010
0001
0000
1000
0000
,  // measure 15
0010
0100
0010
0000
1000
0001
1000
0000
,  // measure 16
1001
0000
0010
0100
0010
0100
0010
0000
,  // measure 17
1000
0000
0000
0000
0100
0000
0000
1000
0000
0000
0001
0000
0010
0000
0000
0000
,  // measure 18
0001
0000
0000
0000
0100
0000
0000
0010
0000
0000
0100
0000
0001
0000
0000
0000
,  // measure 19
1000
0000
0000
0000
0010
0000
0000
0100
0000
0000
0001
0000
0010
0000
0000
0000
,  // measure 20
0001
0000
0000
0000
1000
0000
0000
0100
0000
0000
1000
0000
0010
0000
0000
0000
,  // measure 21
0100
0010
1000
0000
0001
0010
0001
0100
,  // measure 22
0001
1000
0010
0000
0100
0010
1000
0100
,  // measure 23
1000
0000
0100
1000
0000
0100
0010
0100
,  // measure 24
0010
0001
0100
0010
2000
0000
3000
0000
,  // measure 25
0010
0100
0010
0000
1000
0001
0010
0000
,  // measure 26
0001
0010
0100
1000
0001
0000
1000
0000
,  // measure 27
0010
0100
0010
0000
1000
0100
1000
0000
,  // measure 28
0010
1000
0100
0010
0002
0000
1003
0000
,  // measure 29
0010
0100
0001
0000
1000
0100
0010
0000
,  // measure 30
0001
0010
0001
0100
0010
1000
0100
0000
,  // measure 31
1000
0010
1000
0000
0010
0100
0001
0000
,  // measure 32
0010
0001
2000
0000
3100
0000
1000
0000
,  // measure 33
0010
0100
0000
0100
0000
0100
0010
0100
,  // measure 34
0001
0010
0001
0000
1000
0100
1000
0000
,  // measure 35
0001
0100
0000
0100
0000
0100
0010
0100
,  // measure 36
0001
1000
0001
1000
0200
0000
1300
0000
,  // measure 37
2000
0001
3001
1001
,  // measure 38
0100
0010
0100
0000
0001
0010
0100
0000
,  // measure 39
1000
0010
0100
0001
1000
0001
0010
0000
,  // measure 40
0220
0000
0000
0330
,  // measure 41
0001
0010
0001
2000
0000
0000
3000
0000
,  // measure 42
0010
0100
0010
2000
0000
0000
3000
0000
,  // measure 43
0001
0000
1000
0100
0000
1000
0000
0001
,  // measure 44
0000
0100
0000
0100
0010
1000
0010
0000
,  // measure 45
1000
0100
0010
0002
0000
0000
0003
0000
,  // measure 46
0100
0010
0100
0002
0000
0000
0003
0000
,  // measure 47
1000
0000
0010
0000
0100
0000
0010
0200
,  // measure 48
0000
0000
0301
0000
0001
1000
0100
0000
,  // measure 49
0010
0001
0010
0200
0000
0000
1300
0000
,  // measure 50
1000
0010
0100
0002
0000
0000
0013
0000
,  // measure 51
0100
0000
1000
0001
0000
0100
0000
0010
,  // measure 52
0000
1000
0000
1000
0001
0010
0100
0000
,  // measure 53
0010
0001
0010
0000
0100
1000
0100
0000
,  // measure 54
1000
0010
1000
0000
0001
0100
0001
0000
,  // measure 55
1000
0010
0100
0010
1000
0001
0010
0000
,  // measure 56
0220
0000
0000
0330
,  // measure 57
0001
0000
0011
0000
1001
0000
0100
0010
,  // measure 58
0000
0010
1000
0000
0100
1000
0100
0000
,  // measure 59
1000
0000
1010
0000
1001
0000
0100
0010
,  // measure 60
0000
0010
1000
0000
0001
0010
0100
0000
,  // measure 61
0010
0000
0011
0000
0110
0000
1000
0010
,  // measure 62
0000
0010
0100
0000
0001
1000
0100
0000
,  // measure 63
1000
0000
1010
0000
0110
0000
0100
0001
,  // measure 64
0000
0001
1000
0000
0010
1000
0001
0000
,  // measure 65
0010
0000
0001
2000
0000
0000
3100
0000
,  // measure 66
1000
0010
1000
0100
0010
0000
0001
0000
,  // measure 67
0100
0000
0010
2000
0000
0000
3001
0000
,  // measure 68
0010
0001
1000
0100
0020
0000
0130
0000
,  // measure 69
1000
0000
0001
0020
0000
0000
0130
0000
,  // measure 70
0010
0001
1000
0100
2000
0000
3001
0000
,  // measure 71
0100
0010
0100
0001
1000
0000
0010
0000
,  // measure 72
0100
0001
0010
0100
1000
0001
1000
0000
,  // measure 73
0001
0000
0000
0000
0010
0000
0000
0001
0000
0000
1000
0000
0100
0000
1000
0000
,  // measure 74
0010
0000
0000
0000
0100
0000
0000
0001
0000
0000
1000
0000
0010
0000
0100
0000
,  // measure 75
0010
0000
0000
0000
1000
0000
0000
0001
0000
0000
1000
0000
0100
0000
0010
0000
,  // measure 76
0001
0100
0001
0010
0100
1000
0200
0000
,  // measure 77
1300
0000
0010
0000
1000
0000
0000
0001
0000
0000
0010
0000
0001
0000
0100
0000
,  // measure 78
0010
0000
1000
0000
0010
0000
0000
0100
0000
0000
0001
0000
1000
0000
0010
0000
,  // measure 79
1000
0100
1000
0001
0000
0100
0010
1000
,  // measure 80
0000
0001
0010
0100
1000
0001
1000
0000
,  // measure 81
0110
0000
0000
0000
;

//---------------dance-single - ----------------
#NOTES:
     dance-single:
     :
     Hard:
     15:
     0.748321,0.716259,0.227384,0.143168,0.294757,622.000000,595.000000,27.000000,17.000000,0.000000,0.000000,0.748321,0.716259,0.227384,0.143168,0.294757,622.000000,595.000000,27.000000,17.000000,0.000000,0.000000:
0000
0000
0000
0000
,
0000
0000
0000
0000
,
0000
0000
0000
0000
,
0000
0000
0000
0000
,
0000
0000
0000
0000
,
1000
0000
0010
0000
0100
0000
0010
1000
0000
0001
0100
0000
0001
0000
0010
0000
,
0001
0000
1000
0000
0100
0000
1000
0000
0010
0100
0010
0100
0010
0000
0000
0000
,
1000
0000
0100
0000
0010
0000
0100
1000
0000
0001
0010
0000
0001
0000
1000
0010
,
0200
0001
0010
0301
,
1000
0000
0010
0000
0100
0000
0010
1000
0000
0000
0001
0000
0010
0000
0100
0000
,
1000
0100
0010
0100
1000
0001
0010
0001
,
0010
0000
0100
0000
1000
0000
0001
0100
0000
0000
0010
0000
1000
0000
0001
0000
,
0100
0000
0010
0000
1000
0000
0001
0010
0000
0100
1000
0000
1001
0000
0000
0000
,
0001
0000
0100
0000
0010
0000
1000
0100
0000
0000
1000
0000
0001
0000
0010
0000
,
0001
0100
0010
1000
0010
0001
0010
1000
,
0100
0000
1000
0000
0001
0000
0100
0010
0000
0000
1000
0000
0001
0000
0010
0100
,
0010
0001
1000
0001
0100
0010
0110
0000
,
1000
0000
0100
0000
1000
0000
0001
0010
0000
0001
0100
0000
0010
0000
1000
0000
,
0100
0000
1000
0000
0001
0000
0010
0100
0000
0010
0100
0000
1000
0000
0100
0000
,
1000
0000
0010
0000
0100
0000
0001
1000
0000
0010
0100
0000
0001
0000
0010
0000
,
0100
0000
1000
0000
0100
0000
0010
0100
0000
1000
0100
0000
0010
0000
0010
0000
,
0001
0000
0010
0000
0100
0000
1000
0100
0000
1000
0010
0000
0100
0000
0001
0000
,
0010
0000
0001
0000
1000
0000
0010
0100
0000
0001
0100
0000
0010
0000
1000
0000
,
0001
0000
0100
0000
0001
0000
1000
0100
0000
1000
0010
0000
0100
0000
0001
0000
,
1000
0010
0001
0010
0200
0010
0310
0000
,
0001
0000
0010
0001
0010
0000
0100
0000
1000
0000
0010
0000
0100
0000
1000
0000
,
0100
0000
0010
0100
0010
0000
1000
0000
0001
0000
0010
0000
0100
0000
0010
0000
,
0001
0000
1000
0100
1000
0000
0010
0000
0100
0000
0001
0000
1000
0000
0010
0000
,
0100
0000
0010
1000
0000
0001
0100
0010
0100
0000
0010
0000
2000
0000
0000
0000
,
3001
0000
0010
0100
0010
0000
0100
0000
1000
0000
0001
0000
0010
0000
0001
0000
,
0100
0000
0010
1000
0001
0000
1000
0000
0001
0000
0100
0000
0010
0000
1000
0000
,
0001
0000
0100
0010
0100
0000
0010
0000
1000
0000
0001
0000
1000
0000
0001
0000
,
0010
0000
0100
0000
0010
0001
1000
0001
0100
0000
0010
0000
0100
0000
0010
0000
,
2000
0001
0000
3010
0000
0110
0100
0001
,
0010
0001
0010
0100
0010
0001
1001
0000
,
0100
0020
0000
1000
0000
1030
0001
0100
,
0010
0000
1000
0000
0001
1000
0001
1000
0010
0000
0100
0000
0100
0000
0000
0000
,
0001
1000
0001
1000
0100
0000
0010
0000
0100
0000
0000
0000
1001
0000
0000
0000
,
0010
0001
1000
0001
0100
0010
1000
0100
,
1000
0000
0010
0000
0100
0010
0100
0000
0001
0000
0010
0000
0100
0010
0100
0000
,
1000
0000
0001
0010
0000
0001
0100
0000
0010
0000
1000
0000
1010
0000
0000
0000
,
1000
0100
0001
0200
0000
0010
0310
0000
,
0001
0100
1000
0200
0000
0010
0310
1000
,
0001
0000
0011
0010
0000
1100
0000
1001
,
0000
0000
0100
0000
0010
0000
0100
0001
1000
0000
0010
0000
0200
0000
0000
0000
,
0310
1000
0100
0020
0000
0100
0130
0000
,
1000
0001
0010
0200
0000
0010
0310
0001
,
0000
1001
1000
0000
0010
0100
0010
2000
,
0000
0000
0001
0000
0000
0000
3001
0010
0100
0000
0010
0000
0001
0000
0100
0000
,
0010
1000
0010
0002
0000
0010
0013
0100
,
1000
0100
0010
0200
0000
0001
0301
1000
,
0100
0000
1000
0010
0100
0001
0000
0011
,
0000
1100
0000
1001
1000
0010
0100
0010
,
1000
0100
1000
0001
0010
1000
0010
0001
,
1000
0010
0001
1000
0100
0001
0010
0100
,
1000
0010
1000
0000
0001
0100
0001
0000
0100
0010
0100
0000
0010
1000
0010
0000
,
0200
0001
0001
0001
0001
0000
0310
0000
,
1000
0000
0100
0000
1100
0000
0000
0000
0011
0000
0000
0001
1000
0000
0100
0000
,
0000
0100
0010
0100
1000
0001
0010
0001
,
0100
0000
0010
0000
1010
0000
0000
0000
1001
0000
0000
0001
0010
0000
0100
0000
,
0000
0110
0010
0001
1000
0010
0001
0000
,
0010
0100
1000
0100
0010
0000
1000
1001
,
0000
0001
0100
0010
0100
0001
1000
0100
,
0010
0000
0100
1000
0100
0000
0010
0000
0001
0000
0100
0001
0100
0000
0010
0000
,
1010
0000
0000
0011
0000
0000
1001
0000
,
0100
0010
1000
0200
0000
0001
0301
0100
,
1000
0010
1000
0001
0010
0100
0010
0001
,
1000
0010
0001
2000
0000
0100
3100
0010
,
1000
0100
0010
0100
1000
0001
1001
0000
,
0100
0001
0010
0200
0000
1000
1300
0001
,
1000
0100
0001
1000
0010
0001
0100
0010
,
0100
1000
0010
0001
0100
1000
0010
0001
,
1000
0001
0100
0010
1000
0001
1001
0000
,
0100
0000
0010
0000
1000
0000
0100
1000
0000
0001
0010
0000
0001
0000
1000
0000
,
0010
0000
0100
0000
0001
0000
0010
0001
0000
1000
0100
0000
1000
0000
0010
0000
,
1000
0000
0001
0000
0010
0000
0001
0100
0000
0010
1000
0000
0010
0000
0100
0000
,
0010
0000
1000
0100
0000
1000
0001
1000
0010
0000
0100
0000
0110
0000
0000
0000
,
1000
0000
0001
0000
0010
0000
0001
1000
0000
0100
0010
0000
0100
0000
1000
0000
,
0001
0000
0100
0000
0010
0000
0100
0001
0000
0010
0100
0000
1000
0000
0100
0000
,
1000
0010
0010
0010
0001
0100
0100
0100
,
0001
0100
1000
0010
0100
0010
0110
0000
,
1001
0000
0000
0000
;
