#TITLE:Big Daddy;
#SUBTITLE:;
#ARTIST:USAO;
#TITLETRANSLIT:;
#SUBTITLETRANSLIT:;
#ARTISTTRANSLIT:;
#GENRE:;
#CREDIT:;
#BANNER:Big_Daddy_banner.png;
#BACKGROUND:Big_Daddy.png;
#LYRICSPATH:;
#CDTITLE:;
#MUSIC:Big Daddy.ogg;
#OFFSET:-0.480000;
#SAMPLESTART:117.959999;
#SAMPLELENGTH:15.000000;
#LASTBEATHINT:432.997925;
#SELECTABLE:YES;
#DISPLAYBPM:190.000000;
#BPMS:0.000000=190.000000
,62.000000=380.000000
,64.000000=190.000000
,173.000000=380.000000
,176.000000=190.000000
,225.000000=95.000000
,240.000000=190.000000
,252.000000=380.000000
,253.000000=285.000000
,254.000000=213.750000
,255.000000=80.156998
,255.250000=120.300003
,255.500000=95.000000
,256.000000=47.500000
,263.000000=190.000000
,270.000000=380.000000
,272.000000=190.000000
;
#STOPS:173.000000=0.158000,
174.000000=0.158000,
175.000000=0.158000,
239.000000=0.158000,
239.250000=0.158000,
239.500000=0.158000,
239.750000=0.158000
;
#BGCHANGES:;
#KEYSOUNDS:;
#ATTACKS:;

//---------------dance-single - ----------------
#NOTES:
     dance-single:
     :
     Easy:
     10:
     0.443028,0.576223,0.206747,0.140054,0.000000,465.000000,434.000000,31.000000,21.000000,0.000000,0.000000,0.443028,0.576223,0.206747,0.140054,0.000000,465.000000,434.000000,31.000000,21.000000,0.000000,0.000000:
0000
0000
0000
0000
,
0000
0000
0000
0000
,
0000
0000
0000
0000
,
0000
0000
0000
0000
,
1001
0000
0010
0000
0000
0100
0010
0000
,
1000
0000
0001
0000
0000
0010
0100
0000
,
1000
0000
0001
0000
0100
0010
0100
0000
,
0001
0010
0001
0100
,
0010
0000
1000
0100
1000
0000
0001
0000
,
0010
0000
0001
1000
0001
0000
0100
0000
,
0010
0000
1000
0001
1000
0000
0100
0000
,
0010
0000
0010
0000
0001
1000
0001
0000
,
1001
0000
0100
0010
0100
0000
0001
0000
,
1000
0000
0010
0100
0010
0000
1000
0000
,
0001
0010
0100
0000
0010
0100
1000
0000
,
0010
0010
0010
0010
,
0020
0130
0001
1000
,
0100
0000
1000
0000
0001
0000
1000
0010
,
1000
0000
0101
0000
0010
0000
1000
0001
,
1000
0010
0010
0010
,
0010
0000
0100
0001
0100
0000
0001
1000
,
0001
0000
1000
0010
1000
0000
0010
0100
,
0010
0000
1000
0000
1001
0000
0001
1000
,
0100
0000
1000
0001
0000
1000
0001
0000
,
1001
0100
0110
0000
,
1010
0000
0011
0000
,
0101
0000
1100
0000
,
0011
0000
1001
0010
,
0010
0100
0001
0100
,
0010
1000
0100
0010
,
0001
0000
1000
0000
1001
0000
0010
0100
,
0010
2000
0001
0001
,
3001
0000
0010
0000
0100
0100
0000
0100
,
0000
0100
0000
1000
0000
1000
0000
1000
,
0001
0000
1000
0000
0010
0010
0000
0010
,
0000
0010
0000
0100
0000
0100
0000
0100
,
0001
1000
1010
0000
,
0101
0000
0011
0000
,
1100
0000
0001
0000
1000
0001
1000
0001
,
1000
0000
0010
0010
0000
0100
0100
0000
,
0110
0001
1000
0001
,
0010
0100
1000
0010
,
1000
0001
0100
0010
,
1000
0000
0002
0003
0020
0030
0200
0300
,
1000
1000
0010
1000
,
0001
0100
0010
0010
,
0010
0100
1000
0100
,
0001
1000
0001
0010
,
1000
0000
0010
0000
0001
0010
0000
0100
,
0000
2000
0000
0000
0010
0000
3010
0000
,
0010
0000
0100
0001
0000
0100
0001
0000
,
1000
0001
0010
0100
,
1000
0000
0001
0000
0100
0010
0000
1000
,
0000
0002
0000
0000
0010
0000
0013
0000
,
0010
0000
0100
1000
0000
0100
1000
0000
,
0001
0100
0010
1000
,
0001
1000
0010
0100
,
0001
0010
0100
1000
,
0001
0000
1000
1000
0100
0100
0010
0010
,
0001
0001
1000
0001
1000
0001
1001
0000
,
0020
0000
0000
0030
,
0100
0100
0100
0110
,
0001
0000
1000
0100
0000
0010
0000
0100
,
2000
0000
0000
3000
,
0000
0000
0000
0000
,
0000
0000
0000
0000
,
0000
0000
0000
0001
,
0010
0100
2000
0000
,
3001
0100
0001
0100
,
0010
1000
0010
1000
,
0001
0010
0001
0010
,
0100
1000
0100
1000
,
1000
0010
1000
0010
,
0100
0001
0100
0001
,
1000
0100
0010
0001
,
0220
0000
0000
0000
0000
0330
0000
0000
,
1000
0000
0010
0100
0000
0010
0000
0200
,
0000
0301
0010
0100
,
1000
0001
0000
1000
0001
0000
0010
0000
,
0001
1000
0010
0100
,
0010
0000
1000
0100
0000
1000
0000
0002
,
0000
0100
0103
0100
,
0010
0000
0010
0000
0010
1000
0010
0000
,
2002
0000
0000
3003
,
0100
0000
0010
1000
0000
0001
0000
1001
,
0000
0010
0100
0010
,
1000
0001
0000
1000
0001
0000
0010
0000
,
0001
0010
0100
0000
0010
0100
1000
0000
,
0001
0000
0100
0010
0000
1000
0000
2100
,
0000
0001
0001
3001
,
0100
0010
0000
1000
0010
0000
0100
0000
,
0001
0001
0000
1000
1000
0000
1001
0000
,
0010
0000
0100
0010
0000
1010
0000
0102
,
0000
0010
0013
0100
,
1000
0010
0000
0100
0001
0000
1000
0000
,
0010
0100
0010
0000
1000
0001
1000
0000
,
0001
0010
0100
0010
0000
0001
0000
1020
,
0000
0100
0130
0001
,
1000
0010
0100
0000
0010
0100
0001
0000
,
1000
0001
0010
0000
0100
1000
0001
0000
,
0100
0010
0100
0010
,
1000
0001
1000
0001
,
0010
0001
1000
0100
,
1000
0010
0100
0001
,
2001
0010
0000
3010
,
1002
0100
0000
0103
,
0010
1000
0010
0000
0100
0001
0100
0000
,
0001
0010
0100
0010
0100
1000
0001
0000
,
0110
0000
0000
0000
;

//---------------dance-single - ----------------
#NOTES:
     dance-single:
     :
     Medium:
     15:
     0.739334,1.008390,0.513532,0.120046,0.050019,776.000000,699.000000,77.000000,18.000000,0.000000,0.000000,0.739334,1.008390,0.513532,0.120046,0.050019,776.000000,699.000000,77.000000,18.000000,0.000000,0.000000:
0000
0000
0000
0000
,
0000
0000
0000
0000
,
0000
0000
0000
0000
,
0000
0000
0000
0000
,
0011
0000
1000
0000
0010
1000
0010
0000
,
0100
0001
0010
0100
1000
0001
1000
0000
,
0010
0100
0001
1000
0100
0010
0001
1000
,
0010
0000
0100
0000
0010
0000
0100
0000
0001
0000
0010
0100
0010
0000
0001
0000
,
1000
0000
1100
0100
1000
0010
0100
0001
,
1000
0010
0100
0001
0010
0100
1000
0001
,
0010
1000
0010
0001
1000
0100
0001
0100
,
1000
0000
0010
0000
0100
0000
0001
0000
1000
0001
1000
0000
0001
0000
0010
0000
,
0200
0000
1300
0010
1000
0001
0010
0100
,
0010
0001
1000
0010
0100
0010
1000
0001
,
1000
0000
0010
0000
0100
0000
0001
0000
1000
0001
1000
0000
0010
0000
0100
0000
,
0010
0000
0110
0000
0010
0100
0010
0000
,
0010
0000
1001
0000
0100
0010
0100
0010
,
1000
0001
1000
0001
0010
0100
0010
0100
,
1000
0001
1000
0010
0100
0001
0010
0100
,
0010
0001
1000
0000
1010
0000
1001
0000
,
1010
0000
0000
0001
0010
0000
0000
0000
0001
0000
1000
0000
0100
0000
1000
0000
,
0001
0010
0100
1000
0010
0100
0001
0010
,
0100
0010
0100
1000
0001
1000
0010
0100
,
0001
0000
1000
0000
0010
0100
0010
0000
0010
0000
0010
0000
0010
0000
0010
0000
,
0220
0330
0010
0000
1010
0000
0010
0000
,
0011
0010
1100
0010
,
0101
0000
0001
0010
0011
0000
1000
0100
,
1100
0000
0001
0010
0101
0000
1000
0010
,
1100
0000
0001
0010
0100
1000
0001
1000
,
0010
0000
0100
0001
0010
1000
0010
0001
,
0100
0000
0010
1000
0010
1000
0001
0100
,
0001
0100
0010
0100
0001
1000
0001
0010
,
0100
0000
2100
0000
0010
0010
0000
0001
,
0000
0001
0000
0010
0000
0010
0000
0100
,
3100
0000
0012
0000
1000
1000
0000
0103
,
0000
0100
0001
0010
0010
0001
1000
0010
,
0100
0000
0110
0000
1000
0100
1000
0001
,
1000
0010
1000
0001
0010
0001
0100
1000
,
0010
0001
1000
0001
1000
0001
0010
0100
,
0010
0100
1000
1000
0001
1000
1000
0001
,
0110
0000
0011
0000
0001
1000
0000
1100
,
0000
0011
0000
1000
0010
1000
0001
0010
,
0100
1000
0010
0100
0010
1000
0001
0010
,
0100
0000
1000
0000
0002
0003
0000
0000
0202
0303
0000
0000
2020
3030
0000
0000
,
1000
0000
0001
1000
0001
0000
0100
0000
0010
0000
1000
0000
0000
0000
1010
0000
,
0000
0101
0001
0010
0100
0010
0001
1000
,
0010
1000
0100
1000
0010
0100
0001
0010
,
0100
1000
0010
1000
0010
1000
0001
0100
,
0100
0000
0011
0000
1000
0100
0000
0011
,
0000
1100
0000
1000
0010
0100
0010
1000
,
0001
0010
0100
1000
1000
0001
0100
0100
,
0010
0100
0001
1000
0100
1000
0010
0001
,
1000
0000
1001
0000
0100
0110
0000
1001
,
0000
1010
0000
0001
0010
0100
1000
0010
,
0100
0001
0010
0010
0100
0010
0010
0001
,
1000
0100
1000
0001
0010
0100
1000
0001
,
0020
0000
0031
0101
1000
1010
0100
0110
,
0001
0000
1001
0000
0100
0000
1010
0000
0100
0000
0101
0000
1000
0001
1000
0001
,
1000
0010
0010
0000
0100
0000
1001
0000
0010
0000
1001
0000
0100
0000
0011
0000
,
0100
0000
1100
0000
0001
0010
0100
1000
0001
0010
0100
1000
0010
0010
0010
0010
,
0010
0000
1000
0100
0000
0001
0000
0100
,
1000
1001
0001
0110
,
0001
1000
0100
0001
0000
0110
0000
1100
,
2000
0000
0000
3000
,
0000
0000
0000
0000
,
0010
0000
0000
1001
,
0010
0000
0000
0100
0010
0000
1100
0000
,
0011
1001
0110
0000
,
2000
0000
3010
0100
0010
1000
0010
0100
,
0001
1000
0001
0010
0100
1000
0001
0000
,
2000
0000
3001
0100
0010
1000
0100
0010
,
0001
0010
0100
1000
0010
0100
0110
0000
,
0001
1000
0001
0010
0100
0010
0001
0000
,
1000
0010
0100
0010
1000
0001
0010
0000
,
0100
1000
0010
1000
0001
0010
0100
0000
,
0010
0001
0001
0010
0100
0100
2000
0000
,
3001
0010
0100
0010
0000
0011
0000
1100
,
0000
0001
1000
0001
0010
0100
0010
0001
,
1000
0010
0010
0100
0010
0010
1000
0001
,
0100
0001
0100
1000
0100
0001
0010
1000
,
0010
0001
1000
0100
0000
1100
0000
0011
,
0000
1000
0010
0100
0010
1000
0001
0010
,
0001
0010
0100
1000
0010
0100
0001
1000
,
0010
0010
0010
0000
1000
0100
1001
0000
,
0011
0000
1000
0001
0000
0110
0000
1000
,
0001
1000
0010
0100
0001
0010
0100
1000
,
0010
0100
0100
0010
1000
1000
0001
0010
,
0001
1000
0100
0001
0100
1000
0010
0000
,
1000
0100
0010
0001
0000
0101
0000
1010
,
0000
0001
0010
0100
0001
0100
1000
0010
,
1000
0100
0001
0100
1000
0010
0100
0001
,
1000
0010
0001
0010
1000
0001
1001
0000
,
0110
0000
1000
0010
0000
0011
0000
1010
,
0000
1000
0100
0001
1000
0010
0001
1000
,
0001
0010
1000
0001
0100
1000
0010
0100
,
0001
0010
0010
0100
1000
1000
0001
1000
,
0010
1000
0001
0011
0000
1100
0000
0101
,
0000
0010
1000
0010
1000
0001
0010
0100
,
1000
0010
0010
0100
0001
0001
1000
0100
,
0010
0001
0010
1000
0010
0001
0200
0000
,
0310
1000
0011
0000
1100
0000
1001
0000
,
1000
0010
0100
0010
1000
0001
0010
0100
,
1000
0010
1010
0000
0011
0000
1100
0000
,
0001
1000
0100
1000
0010
0100
0001
0010
,
0200
1000
0000
0001
0000
1000
1300
0000
,
0020
1000
0000
0001
0000
1000
1030
0000
,
0001
1000
0001
0100
0010
0100
1000
0001
,
0010
1000
0001
0010
1000
0001
0100
0000
,
0110
0000
0000
0000
;

//---------------dance-single - ----------------
#NOTES:
     dance-single:
     :
     Hard:
     18:
     0.909876,1.512585,0.406824,0.273439,0.543544,955.000000,894.000000,61.000000,41.000000,0.000000,0.000000,0.909876,1.512585,0.406824,0.273439,0.543544,955.000000,894.000000,61.000000,41.000000,0.000000,0.000000:
// measure 0
0000
0000
0000
0000
,  // measure 1
0000
0000
0000
0000
,  // measure 2
0000
0000
0000
0000
,  // measure 3
0000
0000
0000
0000
,  // measure 4
1000
0010
0011
0000
0010
0100
0110
0000
,  // measure 5
0001
1000
1100
0000
1000
0001
0011
0000
,  // measure 6
1000
0001
0010
0100
0010
0001
1000
0010
,  // measure 7
0100
0000
0010
0000
0010
0000
0010
0000
1000
0001
1000
0001
0100
0010
0100
0000
,  // measure 8
0001
0000
0011
0001
1000
0001
0010
0100
,  // measure 9
1000
0000
0010
0000
1000
0000
0001
0000
0010
0100
1000
0000
0010
0000
0100
0000
,  // measure 10
0001
0000
1000
0000
0100
0000
1000
0000
0001
0010
0100
0000
1000
0000
0010
0000
,  // measure 11
1000
0000
0100
0000
1000
0000
0010
0000
0100
0010
0100
0010
1000
0000
0001
0000
,  // measure 12
0010
1000
0010
0001
1000
0100
0001
0100
,  // measure 13
1000
0010
0001
1000
0100
0001
1000
0001
,  // measure 14
0100
0000
0010
0000
0100
0000
0010
0000
1000
0001
1000
0001
0100
0010
0100
0010
,  // measure 15
0100
0000
1001
0000
0010
1000
0002
0000
,  // measure 16
0203
0000
0000
0000
0310
0000
1000
0000
0001
0010
0100
0000
1000
0010
0100
0000
,  // measure 17
0001
0010
0100
0000
1000
0100
0010
0000
0001
1000
0010
0000
1000
0001
0100
0000
,  // measure 18
0010
0000
0010
0000
1000
0000
0001
0000
0010
0001
1000
0000
0001
1000
0100
0000
,  // measure 19
1000
0010
0100
0000
0020
0000
0030
0000
0220
0000
0330
0000
1000
0000
0001
0000
,  // measure 20
0010
0100
0010
0100
1000
0000
0001
0000
1000
0000
0010
0000
0100
0010
1000
0000
,  // measure 21
0001
0000
0010
0000
0100
0000
0010
0000
0001
0000
1000
0000
0010
0100
0001
0000
,  // measure 22
1000
0000
0100
0000
0010
0000
0100
0000
1000
0000
0001
0000
1000
0001
0100
0000
,  // measure 23
0010
0000
1000
0000
0010
0100
0010
0100
0010
0000
1000
0001
1000
0001
1000
0000
,  // measure 24
0020
0000
1030
0100
1100
1000
0001
0010
,  // measure 25
0011
0001
1000
0010
0110
0100
0001
0010
,  // measure 26
0011
0001
1000
0010
0110
0100
0001
0010
,  // measure 27
0110
0100
1000
0001
1000
0001
0100
0100
,  // measure 28
0010
0100
0010
0100
0001
0000
0010
0000
1100
0000
0000
0000
0001
0000
0010
0000
,  // measure 29
1100
0000
1000
0010
0101
0000
1000
0010
,  // measure 30
0101
0000
0001
0010
0110
0100
1000
0100
,  // measure 31
0110
0001
1100
0000
1001
0000
0100
0010
,  // measure 32
1000
0001
1000
0000
0010
0000
0200
0000
0001
0000
0001
0000
0000
0000
0010
0000
,  // measure 33
0000
1000
0000
0010
0000
0301
0000
0101
,  // measure 34
0001
0010
0100
1000
0200
0010
0000
0001
,  // measure 35
0000
0010
0000
1000
0000
0310
0001
1000
,  // measure 36
0010
0100
0010
0000
2000
0000
0000
0000
3001
0010
0001
0010
0001
0010
0001
0010
,  // measure 37
0001
0010
0001
0010
0200
0000
0000
0000
1300
0100
1000
0100
1000
0100
1000
0100
,  // measure 38
1000
0100
1000
0100
0020
0000
0000
0000
0031
1000
0010
0100
0001
1000
0010
0100
,  // measure 39
0001
1000
0010
0100
0010
0100
1000
0100
0010
0000
0100
0001
0010
0001
0100
0000
,  // measure 40
0020
0000
1030
0100
0001
0100
0000
1100
,  // measure 41
0000
0000
0011
0000
0001
0000
1000
0000
0010
0000
0100
0000
0010
1000
0001
0000
,  // measure 42
0010
0000
0100
0000
1000
0000
0001
0000
0010
0000
0001
0000
1000
0010
0100
0000
,  // measure 43
0010
0000
1000
0000
2020
3030
0000
0000
0022
0033
0000
0000
0220
0330
0000
0000
,  // measure 44
0100
0000
0010
0100
1000
0000
0001
0000
0010
0000
0001
1000
0001
0000
0100
0000
,  // measure 45
0010
0000
1000
0000
0001
0000
0010
0000
1000
0000
0010
0001
1000
0000
0010
0000
,  // measure 46
1000
0000
0001
0000
1000
0000
0100
0000
0001
0000
0100
1000
0001
0000
0100
0000
,  // measure 47
0010
1000
0001
0010
2002
3003
1000
0010
,  // measure 48
0100
0000
0001
1000
0010
0000
1000
0000
0001
0000
0010
0100
0000
0100
1000
0000
,  // measure 49
0010
0000
1000
0000
0001
0000
0100
0000
0010
0000
1000
0001
0000
0001
0010
0000
,  // measure 50
0100
0000
1000
0000
0010
0000
0100
0000
0100
0000
0001
1000
0001
0000
0100
0000
,  // measure 51
0010
0000
1000
0000
0001
0000
0010
0000
0001
0000
1000
0010
0000
0010
1000
0000
,  // measure 52
0200
0000
0000
0000
1300
0000
0010
0000
1000
0000
0001
1000
0100
0000
1000
0000
,  // measure 53
0001
0000
0010
0000
0001
0000
1000
0000
0001
0000
0100
0010
1000
0000
0001
0000
,  // measure 54
0010
0000
0100
0000
0010
0000
0001
0000
1000
0000
0010
0100
0001
0000
1000
0000
,  // measure 55
0100
0010
0100
1000
2002
3003
0010
0100
,  // measure 56
0001
1000
0100
0010
0001
0100
0101
0000
1000
0010
1010
0000
0100
0001
0011
0000
,  // measure 57
0100
0000
0010
0000
1010
0000
0000
0000
1000
0000
0001
0000
0101
0000
0000
0000
0010
0000
0100
0000
1100
0000
0000
0000
0001
0010
0100
1000
0001
0010
0100
1000
,  // measure 58
0010
0100
0110
0000
1000
0010
0110
0000
0001
0010
0110
0000
1000
0001
0100
0010
,  // measure 59
1000
0000
0001
0000
0010
0000
0100
0000
0010
0001
0010
0000
0100
1000
0100
0000
1000
0001
1000
0000
0010
0100
0010
0100
0002
0003
0202
0303
2020
3030
2002
3003
,  // measure 60
0020
0000
0100
0100
0000
1000
0000
0130
,  // measure 61
0110
0000
0000
0000
1001
0000
0000
0000
0001
0000
1000
0100
0020
0000
0000
0000
,  // measure 62
0031
1000
0100
0000
1000
0000
0010
0000
0100
0000
0101
0000
0000
0000
0010
0000
,  // measure 63
2002
0000
0000
3003
,  // measure 64
0000
0000
0000
0000
,  // measure 65
0110
0000
0000
0110
,  // measure 66
0001
0000
0000
0001
1000
0000
1100
0000
,  // measure 67
0101
0110
2002
3003
,  // measure 68
0010
0100
0001
0100
0010
1000
0100
1000
,  // measure 69
0001
0010
1000
0010
0001
1000
0100
0001
,  // measure 70
0100
1000
0010
1000
0100
0001
0100
1000
,  // measure 71
0001
1000
0010
0001
0010
1000
0020
0000
,  // measure 72
0130
0001
0100
1000
0100
0001
0010
0100
,  // measure 73
1000
0010
0100
0010
1000
0001
0010
0001
,  // measure 74
1000
0100
0001
0100
1000
0010
0001
0010
,  // measure 75
0100
0010
0100
0010
0100
0000
0001
1000
0001
1000
0001
0000
0010
0000
0000
0000
,  // measure 76
1100
0000
0001
0010
0001
1000
0100
0010
,  // measure 77
0100
1000
0001
0011
0000
1100
0000
0001
,  // measure 78
0100
0000
0010
0000
0100
0000
0001
0010
0100
0000
1000
0000
0010
0000
1000
0000
,  // measure 79
0100
0000
0010
0000
0100
0000
1000
0001
0010
0000
0100
0000
2000
0000
0000
0000
,  // measure 80
3010
0100
0001
0000
1000
0010
0100
0000
,  // measure 81
1000
0001
0010
0000
0100
0010
1000
0000
,  // measure 82
0010
0001
0001
1000
0001
0001
0100
0010
,  // measure 83
1000
0000
1000
0000
1000
0000
1000
0000
0001
0010
0100
1000
0010
0000
0000
0000
,  // measure 84
0101
0000
0010
1000
0100
1010
0001
0101
,  // measure 85
1000
0000
0010
0000
1000
0000
0001
0100
0010
0000
1000
0000
0001
0000
0010
0000
,  // measure 86
0100
0000
1000
0100
1000
0000
0001
0010
0001
0000
1000
0000
0010
0000
0100
0000
,  // measure 87
0001
0000
0010
0100
1000
0100
0010
0000
0100
0000
1000
0000
1001
0000
0000
0000
,  // measure 88
0010
0000
0100
0000
0001
0000
1000
0010
0100
0000
0001
0000
0010
0000
0100
0000
,  // measure 89
1000
0000
0010
0000
0100
0000
0001
1000
0100
0000
1000
0000
0010
0000
0100
0000
,  // measure 90
0010
1000
0001
1000
0100
0010
0001
1000
,  // measure 91
0010
0100
0001
0100
0010
0000
1000
0100
0010
0100
1000
0000
0002
0000
0000
0000
,  // measure 92
0013
0000
1000
0000
0010
0000
0001
1000
0000
1000
0010
0000
0100
0000
0001
0000
,  // measure 93
1000
0010
0100
0000
0010
0000
1000
0100
0000
0100
1000
0000
0001
0010
0100
0000
,  // measure 94
1000
0000
0010
0000
0100
0000
0010
1000
0000
1000
0001
0000
0010
0100
0001
0000
,  // measure 95
0100
0000
1000
0000
0010
0100
0001
0000
1000
0000
0100
0000
0010
0100
1000
0000
,  // measure 96
0001
0010
0001
0000
1000
0000
1010
0000
0000
0000
0011
0000
0000
0000
1100
0000
,  // measure 97
0001
0000
1000
0000
0010
0000
0100
0000
0001
0100
0010
1000
0100
0000
1000
0000
,  // measure 98
0010
0000
0100
0010
0100
0000
0001
0010
0001
0000
1000
0000
0100
1000
0100
0000
,  // measure 99
2000
0000
0001
0000
0001
0000
0001
0000
3001
0000
0010
0000
0100
0010
0100
0010
,  // measure 100
0001
0000
0010
0000
0010
0001
1000
0000
0001
1000
0010
0000
1000
0001
0010
0000
,  // measure 101
0100
0010
0100
0010
0100
0000
1000
0000
0010
0100
0001
0000
1000
0100
0010
0000
,  // measure 102
0001
0000
0010
0000
0100
1000
0001
0000
0100
0001
1000
0000
0100
1000
0001
0000
,  // measure 103
0100
0000
0010
0100
0010
0100
0010
0000
1000
0000
0001
0000
0010
0000
0100
0000
,  // measure 104
1000
0010
0010
0010
0100
0001
0001
0001
,  // measure 105
1000
0001
0010
0100
1000
0010
0100
0001
,  // measure 106
1000
0000
1000
0000
0001
0000
0001
0000
0010
0100
0010
0100
1000
0001
1000
0001
,  // measure 107
0200
0000
0000
0010
0000
0000
1000
0000
0000
0001
0000
0000
0301
0000
1000
0001
,  // measure 108
0010
0000
0000
0000
;
