#TITLE:バルベリア・タンゴ;
#SUBTITLE:;
#ARTIST:ARM (IOSYS) × パプリカ (豚乙女);
#TITLETRANSLIT:Barberia tango;
#SUBTITLETRANSLIT:;
#ARTISTTRANSLIT:ARM (IOSYS) × paprika (Butaotome);
#GENRE:;
#CREDIT:;
#BANNER:Barberia tango_banner.png;
#BACKGROUND:Barberia tango_bg.png;
#LYRICSPATH:;
#CDTITLE:;
#MUSIC:Barberia tango.ogg;
#OFFSET:-0.600000;
#SAMPLESTART:6.080000;
#SAMPLELENGTH:10.960000;
#LASTBEATHINT:350.000000;
#SELECTABLE:YES;
#BPMS:0.000000=175.000000
;
#STOPS:
;
#BGCHANGES:;
#KEYSOUNDS:;
#ATTACKS:;

//---------------dance-single - ----------------
#NOTES:
     dance-single:
     :
     Easy:
     8:
     0.288242,0.351078,0.145274,0.161415,0.008071,250.000000,232.000000,18.000000,20.000000,0.000000,0.000000,0.288242,0.351078,0.145274,0.161415,0.008071,250.000000,232.000000,18.000000,20.000000,0.000000,0.000000:
0000
0000
0000
0000
,
0000
0000
0000
0000
,
0000
0000
0000
0000
,
0000
0000
0000
0000
,
0010
0100
0001
0000
,
0010
0001
0100
0000
,
0010
1000
0100
0000
,
1000
0010
0100
0000
,
0010
0100
0000
0100
,
0010
0000
2002
0000
0000
3003
0000
0000
,
0010
0000
0001
1000
,
0220
0000
0330
0000
,
1000
0010
0100
0000
,
0010
1000
0001
0000
,
0010
0001
0100
0000
,
0010
1000
0100
0000
,
2000
0000
3010
0100
,
0002
0000
0013
0100
,
1000
0010
1000
0000
,
0001
0100
0001
0000
,
0011
0000
0100
0010
,
1000
0000
0100
1000
,
0001
0000
0010
0001
,
0100
0000
0010
1000
,
0001
0100
0010
0100
,
0001
0100
0010
0000
,
1000
0100
0010
0100
,
1000
0100
0010
0000
,
0002
0000
0000
0000
0000
0003
0000
0000
,
0000
1001
0000
0000
,
1000
0010
0100
0001
,
0220
0000
0330
0000
,
0001
0000
0010
0001
,
0100
0000
0010
1000
,
0100
0000
1000
0001
,
0100
0000
0010
0100
,
0001
0000
0010
0001
,
1000
0000
2002
0000
0000
3003
0000
0000
,
0100
0010
0100
0010
,
1000
0001
1000
0000
,
0001
0100
0010
0100
,
0001
0100
0010
0000
,
1000
0100
0010
0100
,
1000
0100
0010
0000
,
0001
0000
0100
0010
,
1000
0000
0100
0010
,
0001
0100
0001
0100
,
0010
1000
0010
0000
,
1000
0000
0100
0000
,
0010
0000
0001
0000
,
1000
0000
0001
0000
,
0010
0000
0100
0000
,
1000
0010
0100
0001
,
0010
0100
1000
0000
,
0010
0100
0001
1000
,
0100
0010
0001
0000
,
1000
0000
1001
0000
,
0010
0000
0110
0000
,
1000
0000
1100
0000
,
0001
0000
0011
0000
,
2002
0000
3003
0000
,
0220
0000
0330
0000
,
0001
0000
1001
0000
,
1000
0000
1001
0000
,
0100
0000
0010
0000
,
0100
0000
0010
0000
,
0100
0010
0100
0010
,
0220
0000
0330
0000
,
0001
0000
0001
0000
,
0001
0010
0000
0010
,
0100
1000
0001
0000
,
0100
0000
0100
0000
,
0100
0010
1000
0000
,
0100
0010
0001
0000
,
1000
0001
0100
0010
,
1000
0000
2002
0000
0000
3003
0000
0000
,
0010
0100
0001
1000
,
0001
0010
0100
1000
,
0010
1000
0100
1000
,
0010
0100
0001
0010
,
0001
0100
0010
1000
,
0001
0010
0100
1000
,
0001
0100
0010
1000
,
0001
0100
0010
1000
,
1100
0000
0011
0000
,
0000
1000
0000
0002
0000
0000
0000
0000
0000
0000
0000
0000
0000
0000
0000
0000
,
0000
0000
0000
0000
,
0003
0000
0000
0000
;

//---------------dance-single - ----------------
#NOTES:
     dance-single:
     :
     Medium:
     12:
     0.515376,0.596833,0.185628,0.266335,0.064566,447.000000,424.000000,23.000000,33.000000,0.000000,0.000000,0.515376,0.596833,0.185628,0.266335,0.064566,447.000000,424.000000,23.000000,33.000000,0.000000,0.000000:
// measure 0
0000
0000
0000
0000
,  // measure 1
0000
0000
0000
0000
,  // measure 2
1000
0000
0000
0010
0000
0000
1000
0000
0000
0000
0001
0000
0100
0000
0000
0000
,  // measure 3
0210
0000
0002
0303
,  // measure 4
0001
0010
0100
0010
0001
1000
0000
0010
,  // measure 5
1000
0100
0010
0000
2002
0000
3003
0000
,  // measure 6
0010
1000
0100
0010
0100
1000
0000
0010
,  // measure 7
1000
0000
0001
0100
0010
0000
0000
0010
,  // measure 8
1000
0001
0000
0001
0010
0000
0001
0000
,  // measure 9
0010
0220
0330
0000
,  // measure 10
1000
0001
0000
0001
1000
0100
0010
0000
,  // measure 11
0022
0000
0000
0033
,  // measure 12
0100
0010
0000
0010
1000
0100
0010
0000
,  // measure 13
0002
0023
0230
2300
,  // measure 14
3010
0100
0000
0100
0001
0010
0100
0000
,  // measure 15
2000
3002
0023
0230
,  // measure 16
0310
0001
0000
0001
1000
0010
1000
0000
,  // measure 17
0001
0220
0330
1000
,  // measure 18
0100
1000
0100
0000
0010
0001
0010
0000
,  // measure 19
0001
0100
0001
0000
1000
0010
1000
0000
,  // measure 20
0001
0100
0000
0100
0010
0100
0001
0000
,  // measure 21
1000
0100
0000
0100
0010
0100
1000
0000
,  // measure 22
0001
0010
0000
0010
0001
0010
0100
0000
,  // measure 23
1000
0010
0000
0010
1000
0010
0100
0000
,  // measure 24
0001
0100
1000
0000
1000
0100
0001
0000
,  // measure 25
0001
0100
1000
0000
2002
0000
3003
0000
,  // measure 26
1000
0010
0001
0000
0001
0010
1000
0000
,  // measure 27
1000
0010
0001
0000
2002
0000
3003
0000
,  // measure 28
0100
0000
0010
0000
1000
0001
0010
0100
,  // measure 29
1000
0220
0330
0000
,  // measure 30
0001
0101
1000
1100
,  // measure 31
0220
0000
0000
0000
0000
0330
0000
0000
,  // measure 32
1000
0000
0100
1000
0000
1000
0001
0010
,  // measure 33
0001
0010
0100
1000
,  // measure 34
0010
0000
0100
0001
0000
0001
1000
0000
,  // measure 35
0100
1000
0010
0100
,  // measure 36
0001
0010
0001
0010
0001
0000
1000
0100
,  // measure 37
1000
2020
3030
0100
,  // measure 38
0001
0100
0010
0000
1000
0100
0010
0000
,  // measure 39
0010
0100
1000
0000
0001
0100
0010
0000
,  // measure 40
1000
0100
0001
0100
1000
0100
0001
0100
,  // measure 41
1000
0100
0001
0100
1000
0000
0000
0000
,  // measure 42
0001
0100
1000
0100
0001
0100
1000
0100
,  // measure 43
0001
0100
1000
0100
0001
0000
0000
0000
,  // measure 44
0010
0001
0100
0010
1000
0000
0001
0000
,  // measure 45
1000
0000
1001
0000
0000
0100
0010
0000
,  // measure 46
1100
0000
0001
0100
0001
0000
1000
0010
,  // measure 47
1000
0001
0010
0100
1000
0000
0000
0000
,  // measure 48
0001
0000
0001
0000
0001
0010
0001
0010
,  // measure 49
0001
0000
0001
0100
0001
0000
0001
0000
,  // measure 50
1000
0000
1000
0010
1000
0010
1000
0000
,  // measure 51
1000
1100
0001
0101
,  // measure 52
1000
0010
0100
0010
1000
0010
0100
0000
,  // measure 53
0001
0010
0100
0010
0001
0010
0100
0000
,  // measure 54
0010
0001
0100
0000
0010
1000
0100
0000
,  // measure 55
1000
0010
0100
0000
0001
0010
0100
0000
,  // measure 56
1000
0000
0000
0000
0000
0001
0010
0000
0000
0000
0000
0001
,  // measure 57
0100
0000
0000
0000
0000
0010
1000
0000
0000
0000
0000
0100
,  // measure 58
0010
0000
0000
0000
0000
0001
0100
0000
0000
0000
0000
0010
,  // measure 59
1000
0000
0000
0000
0000
0001
0010
0000
0000
0000
0000
0000
,  // measure 60
1001
0000
0000
0000
0000
0100
0010
0000
0000
0000
0000
1000
,  // measure 61
0010
0000
0000
0000
0000
0100
0001
0000
0000
0000
0000
0010
,  // measure 62
0001
0000
0000
0000
0000
1000
0100
0000
0000
0000
0000
1000
,  // measure 63
0001
0000
1001
0000
,  // measure 64
0100
0010
0100
0010
,  // measure 65
0100
0010
0100
0000
0010
0100
0010
0000
,  // measure 66
1000
0001
0010
0100
1000
0100
0010
0001
,  // measure 67
2000
0000
0000
3000
,  // measure 68
0010
0000
0010
0100
0010
0000
0010
0100
,  // measure 69
0010
0220
0330
0001
,  // measure 70
0010
0001
1000
0100
,  // measure 71
1000
1010
0001
0011
,  // measure 72
1000
0010
0100
0010
1000
0001
0000
0001
,  // measure 73
0010
0100
1000
0100
0010
0000
0000
0000
,  // measure 74
0001
0100
0010
0000
1000
0010
0100
0000
,  // measure 75
0001
1000
0200
0000
0000
0000
1300
0000
,  // measure 76
1000
0010
0100
0000
0001
0010
0100
0000
,  // measure 77
0010
0000
0001
0010
0100
1000
0010
0000
,  // measure 78
1000
0001
0100
0001
1000
0001
0100
0000
,  // measure 79
0001
1000
0010
1000
0001
1000
0010
0000
,  // measure 80
0100
0010
1000
0001
0100
0010
1000
0001
,  // measure 81
0010
0001
0100
0010
1000
0100
0010
0001
,  // measure 82
1000
0010
0100
0001
1000
0010
0100
0001
,  // measure 83
0010
0100
1000
0001
0010
0000
1001
0000
,  // measure 84
0110
0000
1000
0000
,  // measure 85
0000
0001
0200
0000
0000
0000
0000
0000
0000
0000
0000
0000
,  // measure 86
0000
0000
0000
0000
,  // measure 87
0300
0000
0000
0000
;

//---------------dance-single - ----------------
#NOTES:
     dance-single:
     :
     Hard:
     17:
     0.852042,1.018127,0.330901,0.411609,0.677944,739.000000,698.000000,41.000000,51.000000,0.000000,0.000000,0.852042,1.018127,0.330901,0.411609,0.677944,739.000000,698.000000,41.000000,51.000000,0.000000,0.000000:
// measure 0
0000
0000
0000
0000
,  // measure 1
0000
0000
0000
0000
,  // measure 2
0011
0000
0000
1100
0000
0000
1001
0000
0000
0000
0100
0000
0110
0000
0000
0000
,  // measure 3
2002
3003
0220
0330
,  // measure 4
0010
1000
0100
1000
0010
1000
0100
1000
0010
0000
0100
0000
0000
0000
0100
0000
,  // measure 5
0001
0010
1000
0010
0001
0000
1000
0000
,  // measure 6
0001
0100
0010
0100
0001
0100
0010
0100
0001
0000
0010
0000
0000
0000
0010
0000
,  // measure 7
0100
0000
1000
0000
0001
0000
0100
0000
0010
0000
0000
0000
0000
0000
0010
1000
,  // measure 8
0001
0000
0010
0000
0000
0000
0010
0000
0100
0000
1000
0010
0100
0000
0001
0000
,  // measure 9
0010
0000
2200
0000
3300
0001
0100
0010
,  // measure 10
1000
0000
0010
0000
0000
0000
0010
0100
0010
0000
1000
0100
0010
0000
0001
0000
,  // measure 11
0200
0000
0000
0000
0000
0000
0300
0001
,  // measure 12
0010
0000
0001
0100
0001
0000
1000
0010
1000
0000
0002
0000
0000
0000
0013
0100
,  // measure 13
0010
0000
0100
1000
0100
0000
1000
0010
1000
0000
0010
0100
0010
0000
0100
0000
,  // measure 14
0001
0000
0010
0100
0010
0000
0001
0000
1000
0000
0010
0100
0010
0000
1000
0100
,  // measure 15
1000
0000
0100
0010
0100
0000
0010
0001
0010
0000
0001
1000
0001
0000
0100
0000
,  // measure 16
0010
0000
0100
0000
0000
0000
0100
0001
0100
0000
0010
1000
0100
0000
0010
0000
,  // measure 17
0001
0000
2002
0000
3003
0100
0010
1000
,  // measure 18
0001
0010
0100
0000
1000
0000
0010
0000
1000
0010
0100
0000
0001
0000
0010
0000
,  // measure 19
0001
1000
0100
0000
1000
0000
0010
0000
1000
0001
0100
0000
0010
0000
0100
0000
,  // measure 20
0001
0000
0010
0001
0010
0000
0100
1000
0100
0000
2000
0000
0000
0000
3010
0100
,  // measure 21
0010
0000
1000
0100
1000
0000
0001
0100
0001
0000
0010
0001
0010
0000
0100
0000
,  // measure 22
1000
0000
0100
0010
0100
0000
1000
0000
0001
0000
0010
0100
0010
0000
0001
0100
,  // measure 23
0001
0000
0100
0010
0100
0000
0010
1000
0010
0000
1000
0100
1000
0000
0000
0000
,  // measure 24
0001
0100
0010
0100
0001
0100
0010
0100
0001
0100
0010
0100
0001
0000
0000
0000
,  // measure 25
1000
0100
0010
0100
1000
0100
0010
0100
1000
0000
0001
0000
0100
0000
1000
0000
,  // measure 26
0100
0010
1000
0010
0100
0010
1000
0010
0100
0010
1000
0010
0100
0000
0000
0000
,  // measure 27
0001
0010
0100
0010
0001
0010
0100
0010
0001
0000
1000
0000
0010
0000
0001
0000
,  // measure 28
0010
0000
1000
0001
1000
0000
0001
0010
0001
0000
1000
0010
1000
0000
0001
0000
,  // measure 29
0100
0000
0220
0000
0330
0100
0001
1000
,  // measure 30
0100
0000
1100
0000
0011
0000
1001
0100
,  // measure 31
0220
0000
0000
0000
0000
0000
0330
0001
,  // measure 32
0010
0001
1000
0100
1000
0000
1000
0010
,  // measure 33
0100
0000
0001
0000
0010
0000
0100
0000
1000
0000
0010
0000
0100
0010
0100
0000
,  // measure 34
0001
1000
0100
0001
0000
0001
0100
1000
,  // measure 35
0010
0001
0010
0100
0001
0010
0100
0000
,  // measure 36
1000
0000
0010
0000
0100
0000
0010
0000
0000
0000
1000
0000
0100
0000
0010
0000
0001
0000
0100
0000
0000
0010
0000
0000
,  // measure 37
0100
0000
2002
0000
3003
0010
0100
0001
,  // measure 38
0010
0001
0100
0000
0010
0000
1000
0000
0100
1000
0010
0000
0100
0000
0001
0000
,  // measure 39
0010
0100
1000
0000
0010
0000
0100
0000
0001
1000
0001
1000
0001
0000
0000
0000
,  // measure 40
0100
0010
1000
0010
0100
0010
1000
0010
0100
0010
1000
0010
0100
0000
0000
0000
,  // measure 41
0001
0010
0100
0010
0001
0010
0100
0010
0001
0000
0020
0000
0230
0000
1300
0000
,  // measure 42
0001
1000
0100
1000
0001
1000
0100
1000
0001
1000
0100
1000
0001
0000
0000
0000
,  // measure 43
0010
0100
1000
0100
0010
0100
1000
0100
0010
0000
0002
0000
0203
0000
0310
0000
,  // measure 44
1000
0000
0100
0000
0001
0000
0100
0000
1000
0000
0001
0000
0100
0010
0100
0010
,  // measure 45
1000
0000
0220
0000
0330
0001
0010
0001
,  // measure 46
1000
0000
0010
0100
0010
0000
1000
0000
1001
0000
0010
0100
0010
0000
1000
0000
,  // measure 47
1001
0110
2002
3003
,  // measure 48
0010
0100
0010
0100
0010
0100
0010
0100
,  // measure 49
0010
1000
0010
0100
0010
0001
0010
0100
,  // measure 50
1000
0100
0010
0100
1000
0100
0001
0100
,  // measure 51
0001
0010
0100
1000
0100
0001
0100
1000
,  // measure 52
0001
0010
0100
0000
1000
0000
0010
0000
1000
0010
0100
0000
0001
0000
0010
0000
,  // measure 53
0001
1000
0100
0000
1000
0000
0010
0000
1000
0001
0100
0000
0010
0000
0100
0000
,  // measure 54
0001
0010
0001
0000
0001
0000
0001
0000
1000
0100
1000
0000
1000
0000
1000
0000
,  // measure 55
0010
0100
0010
0000
0010
0000
0010
0000
1000
0001
1000
0000
1000
0000
1000
0000
,  // measure 56
0200
0000
0000
0010
0000
0310
0002
0000
0000
1000
0000
1003
,  // measure 57
0020
0000
0000
0100
0000
0130
2000
0000
0000
0100
0000
3100
,  // measure 58
0002
0000
0000
0010
0000
0013
0200
0000
0000
1000
0000
1300
,  // measure 59
0020
0000
0000
0100
0000
0130
0002
0000
0000
0013
0000
0000
,  // measure 60
2100
0000
0000
0010
0000
3010
0200
0000
0000
0001
0000
0301
,  // measure 61
0020
0000
0000
0100
0000
0130
2000
0000
0000
0100
0000
3100
,  // measure 62
0020
0000
0000
0001
0000
0031
2000
0000
0000
0010
0000
3010
,  // measure 63
0200
0000
0301
0000
0001
0010
1000
0010
,  // measure 64
0001
0100
1000
0100
0001
0010
1000
0010
,  // measure 65
0001
0100
1000
0100
0001
0010
0100
1000
,  // measure 66
0001
0010
0001
0010
0100
1000
0100
1000
0001
0010
0100
1000
0100
0010
0001
0100
,  // measure 67
0020
0000
0000
0030
,  // measure 68
0100
0010
1000
0001
0100
0010
1000
0001
,  // measure 69
1000
0022
0033
1100
,  // measure 70
1001
0010
1001
0100
,  // measure 71
0011
1100
1010
0101
,  // measure 72
1000
0010
0100
0010
1000
0010
0100
0010
1000
0000
0001
0000
0100
0000
0001
0000
,  // measure 73
1000
0010
0001
0010
1000
0000
1001
0000
,  // measure 74
0001
0100
0010
0100
0001
0100
0010
0100
0001
0100
0010
0100
0001
0000
1000
0000
,  // measure 75
0100
2002
3003
0100
,  // measure 76
0010
1000
0100
1000
0010
1000
0100
1000
0010
1000
0100
1000
0010
0000
0100
0000
,  // measure 77
0001
0010
0100
1000
0010
0100
1001
0000
,  // measure 78
0001
0100
1000
0000
1000
0100
0001
0000
1000
0100
0001
0000
0001
0100
1000
0000
,  // measure 79
0001
0010
1000
0000
1000
0010
0001
0000
1000
0010
0001
0000
0001
0010
1000
0000
,  // measure 80
0001
1000
0100
0000
1000
0001
0100
0000
0010
1000
0001
0000
0010
0001
1000
0000
,  // measure 81
0010
0100
0010
0100
0010
0100
0010
0100
0001
1000
0001
1000
0001
1000
0001
1000
,  // measure 82
0001
0100
1001
0010
1001
0100
1001
0010
,  // measure 83
0110
1000
0110
0001
0110
0000
1001
0000
,  // measure 84
0220
0330
0022
0033
,  // measure 85
0000
0100
2002
0000
0000
0000
0000
0000
0000
0000
0000
0000
,  // measure 86
0000
0000
0000
0000
,  // measure 87
3003
0000
0000
0000
;
