#TITLE:BIG SHOT / [[BIG]]の力;
#SUBTITLE:;
#ARTIST:Toby Fox;
#TITLETRANSLIT:BIG SHOT;
#SUBTITLETRANSLIT:;
#ARTISTTRANSLIT:;
#GENRE:;
#CREDIT:from「deltarune」;
#BANNER:banner.png;
#BACKGROUND:bg.png;
#LYRICSPATH:;
#CDTITLE:;
#MUSIC:BIG SHOT.ogg;
#OFFSET:-0.110000;
#SAMPLESTART:27.489998;
#SAMPLELENGTH:12.000000;
#LASTBEATHINT:526.000000;
#SELECTABLE:YES;
#DISPLAYBPM:70.000000:280.000000;
#BPMS:0.000000=70.400002
,16.000000=280.000000
,208.000000=140.000000
,272.000000=280.000000
,392.000000=70.000000
,394.000000=280.000000
,522.000000=70.500000
;
#STOPS:
;
#BGCHANGES:;
#KEYSOUNDS:;
#ATTACKS:;

//---------------dance-single - ----------------
#NOTES:
     dance-single:
     :
     Easy:
     7:
     0.271983,0.461919,0.133482,0.182660,0.000000,271.000000,252.000000,19.000000,26.000000,0.000000,0.000000,0.271983,0.461919,0.133482,0.182660,0.000000,271.000000,252.000000,19.000000,26.000000,0.000000,0.000000:
// measure 0
0000
0000
0000
0000
,  // measure 1
0000
0000
0000
0000
,  // measure 2
0010
0010
0010
0010
,  // measure 3
0100
0100
0100
0100
,  // measure 4
0001
0000
0000
0000
,  // measure 5
0010
0000
0001
0000
,  // measure 6
1000
0000
0000
0000
,  // measure 7
0010
0000
1000
0000
,  // measure 8
0100
0000
0000
0000
,  // measure 9
1000
0000
0001
0000
,  // measure 10
0010
0000
0000
0000
,  // measure 11
0001
0000
1001
0000
,  // measure 12
0100
0000
0100
0000
,  // measure 13
0100
0000
0100
0000
,  // measure 14
0001
0000
0001
0000
,  // measure 15
0001
0000
0001
0000
,  // measure 16
1000
0000
1000
0000
,  // measure 17
1000
0000
1000
0000
,  // measure 18
0010
0000
0200
0000
,  // measure 19
0310
0000
0110
0000
,  // measure 20
1000
0000
0000
0000
,  // measure 21
0001
0000
0010
0000
,  // measure 22
0001
0000
0000
0000
,  // measure 23
0100
0000
0010
0000
,  // measure 24
1000
0000
0000
0000
,  // measure 25
0100
0000
1000
0000
,  // measure 26
0001
0000
0000
0000
,  // measure 27
0010
0000
0001
0000
,  // measure 28
1000
0000
0100
0000
,  // measure 29
1000
0000
0001
0000
,  // measure 30
0010
0000
0001
0000
,  // measure 31
0100
0000
0001
0000
,  // measure 32
1000
0000
0010
0000
,  // measure 33
1000
0000
0001
0000
,  // measure 34
0200
0000
0000
0000
,  // measure 35
0310
0000
1001
0000
,  // measure 36
0010
0000
0001
0000
,  // measure 37
0010
0000
0000
0000
,  // measure 38
0100
0000
1000
0000
,  // measure 39
0100
0000
0000
0000
,  // measure 40
1000
0000
0001
0000
,  // measure 41
1000
0000
0001
0000
,  // measure 42
0010
0000
0000
0000
,  // measure 43
0110
0000
0000
0000
,  // measure 44
0001
0000
0100
0000
,  // measure 45
0001
0000
0000
0000
,  // measure 46
1000
0000
0010
0000
,  // measure 47
1000
0000
0000
0000
,  // measure 48
0100
0000
0000
0000
,  // measure 49
0100
0000
0000
0000
,  // measure 50
1000
0000
0001
0000
,  // measure 51
2002
0000
3003
0000
,  // measure 52
0010
0000
0001
0100
,  // measure 53
0001
0000
1000
0010
,  // measure 54
2000
0000
3100
0000
,  // measure 55
0010
0001
0100
0010
,  // measure 56
2000
0000
3010
0100
,  // measure 57
0020
0000
1030
0100
,  // measure 58
1000
0000
0011
0000
,  // measure 59
0001
0100
0010
1000
,  // measure 60
0001
0010
0001
0000
,  // measure 61
1000
0100
1000
0000
,  // measure 62
0010
1000
0010
0000
,  // measure 63
0100
0001
0100
0000
,  // measure 64
1000
0010
0010
0000
,  // measure 65
0001
0100
0100
0000
,  // measure 66
0101
0000
1010
0000
,  // measure 67
0100
1000
0010
0001
,  // measure 68
0010
0000
0000
0000
,  // measure 69
0010
0000
0100
0000
,  // measure 70
0010
0000
0000
0000
,  // measure 71
0010
0000
0100
0000
,  // measure 72
0100
0000
0000
0000
,  // measure 73
0100
0000
0010
0000
,  // measure 74
0100
0000
0000
0000
,  // measure 75
0110
0000
0000
0000
,  // measure 76
0001
0000
0001
0000
,  // measure 77
0001
0000
0001
0000
,  // measure 78
1000
0000
1000
0000
,  // measure 79
1000
0000
1000
0000
,  // measure 80
0100
0000
0100
0000
,  // measure 81
0010
0000
0010
0000
,  // measure 82
0100
0000
0010
0000
,  // measure 83
0220
0000
0330
0000
,  // measure 84
1000
0000
0010
0000
,  // measure 85
2020
0000
3030
0000
,  // measure 86
0001
0000
0010
0000
,  // measure 87
0022
0000
0033
0000
,  // measure 88
1000
0000
0100
0000
,  // measure 89
2200
0000
3300
0000
,  // measure 90
0001
0000
0100
0000
,  // measure 91
0202
0000
0303
0000
,  // measure 92
0010
0000
0001
0000
,  // measure 93
0002
0000
0003
0000
,  // measure 94
1000
0000
0100
0000
,  // measure 95
0200
0000
0300
0000
,  // measure 96
1000
0000
0010
0000
,  // measure 97
0100
0000
0001
0000
,  // measure 98
0020
0030
0110
0000
,  // measure 99
0000
0000
1000
0000
,  // measure 100
0001
0000
1000
0000
,  // measure 101
0000
0000
0010
0000
,  // measure 102
0100
0000
0010
0000
,  // measure 103
0000
0000
0100
0000
,  // measure 104
0001
0000
0010
0000
,  // measure 105
0000
0000
1100
0000
,  // measure 106
0000
0000
0001
0000
,  // measure 107
0100
0000
0001
0000
,  // measure 108
0100
0000
1000
0000
,  // measure 109
0100
0000
1000
0000
,  // measure 110
0100
0000
0001
0000
,  // measure 111
0100
0000
0001
0000
,  // measure 112
1000
0000
0100
0000
,  // measure 113
0010
0000
0220
0000
,  // measure 114
0330
0000
1000
0000
,  // measure 115
1000
0000
1000
0000
,  // measure 116
0010
0100
0010
0000
,  // measure 117
0010
0000
0010
0000
,  // measure 118
1000
0001
0010
0000
,  // measure 119
0010
0000
0010
0000
,  // measure 120
0001
0000
0100
0000
,  // measure 121
0010
0000
0220
0000
,  // measure 122
0330
0000
1000
0000
,  // measure 123
0100
0000
1000
0100
,  // measure 124
1000
0000
0001
0000
,  // measure 125
0100
0000
0001
0100
,  // measure 126
0001
0000
0010
0000
,  // measure 127
0001
0000
1000
0010
,  // measure 128
1000
0000
0001
0000
,  // measure 129
0001
0000
0001
0000
,  // measure 130
0001
0000
0001
0000
0001
0010
0100
0000
,  // measure 131
1000
0010
0220
0000
0330
0000
0000
0000
;

//---------------dance-single - ----------------
#NOTES:
     dance-single:
     :
     Medium:
     12:
     0.490773,1.015256,0.203736,0.014051,0.077279,489.000000,460.000000,29.000000,2.000000,120.000000,0.000000,0.490773,1.015256,0.203736,0.014051,0.077279,489.000000,460.000000,29.000000,2.000000,120.000000,0.000000:
0000
0000
0000
0000
,
0000
0000
0000
0000
,
1000
0000
0010
0000
0000
0010
0000
0000
0100
0000
0000
0001
0000
0000
1000
0000
0000
0000
0100
0000
0000
0010
0000
0000
0001
0000
0000
0010
0000
0000
0100
0000
,
MMMM
0000
0010
0000
0000
1000
0000
0000
0100
0000
0000
0010
0000
0000
0001
0000
0000
0000
1000
0000
0000
1000
0000
0000
0010
0000
0000
0100
0000
0000
0010
0000
,
1000
0001
0000
0001
,
0010
0100
1000
0000
,
0010
0100
0000
0100
,
0010
1000
0001
0000
,
0010
0001
0000
0001
,
1000
0010
0100
0000
,
0001
1000
0000
1000
,
0100
0000
0110
0000
,
0010
0001
0010
0001
,
1000
0001
0010
0000
,
0001
0100
0001
0100
,
1000
0100
0001
0000
,
1000
0010
1000
0010
,
0100
0010
1000
0000
,
0100
1000
0001
0010
,
0100
0000
1001
0000
,
0010
0000
0001
0000
0000
1000
0000
0000
,
0001
0000
0000
0100
0000
0000
0010
0000
,
MMMM
0000
0010
0000
0000
1000
0000
0000
,
0001
0000
0000
0010
0000
0000
0100
0000
,
MMMM
0000
0001
0000
0000
1000
0000
0000
,
0001
0000
0000
0100
0000
0000
0010
0000
,
MMMM
0000
0010
0000
0000
1000
0000
0000
,
0100
1000
0001
0010
,
0001
0000
1000
0000
0000
0010
0000
0000
,
0100
0000
0000
0001
0000
0000
0010
0000
,
MMMM
0000
0010
0000
0000
0001
0000
0000
,
1000
0000
0000
0010
0000
0000
0100
0000
,
MMMM
0000
0100
0000
0000
0001
0000
0000
,
1000
0000
0000
0100
0000
0000
0010
0000
,
0001
0000
1000
0000
0000
1000
0000
0000
,
0001
0010
0100
1000
,
0010
1000
0100
0000
,
0100
1000
0010
0000
,
0010
1000
0100
1000
,
0010
0100
0100
0000
,
0001
0000
0000
0011
0000
0000
MMMM
0000
,
1000
0000
0000
1010
0000
0000
MMMM
0000
,
0100
0000
0000
0110
0000
0000
0001
0000
,
1000
0001
0020
0000
,
0031
0100
0010
0000
,
0010
0100
0001
0000
,
0010
0001
0100
0001
,
0010
0100
0010
0000
,
0001
0000
0000
0101
0000
0000
MMMM
0000
,
1000
0000
0000
1010
0000
0000
MMMM
0000
,
0001
0000
0000
1001
0000
0000
0010
0000
,
0100
1000
0002
0000
,
1003
0000
0010
0100
0000
0010
0100
0001
,
0010
0001
0000
0001
1000
0010
0100
0000
,
0001
0000
0010
0100
0000
0100
1000
0010
,
0100
0001
0000
0001
1000
0100
0010
0000
,
0001
1000
0100
1000
0000
0010
0100
0010
,
1000
0001
0010
0001
0000
0100
0010
0100
,
0001
0000
0010
0001
0000
1000
0100
1000
,
0010
0000
0100
0001
0010
0000
0110
0000
,
MMMM
0000
1000
0001
0010
0001
1000
0000
,
MMMM
0000
0010
0001
1000
0001
0010
0000
,
MMMM
0000
0100
0010
1000
0001
0010
0000
,
MMMM
0000
1000
0100
0010
0100
1000
0000
,
0001
0100
0010
0000
1000
0010
0100
0000
,
0001
0010
0100
1000
0001
0100
0010
0000
,
1000
0100
1000
0000
0001
0100
0001
0000
,
0010
0001
0100
0001
0010
0000
1100
0000
,
0001
0010
0000
0010
,
0001
1000
0010
0000
,
0100
0010
0000
0010
,
1000
0001
0100
0000
,
0010
1000
0000
1000
,
0100
0010
0001
0000
,
1000
0010
0100
0001
,
1000
0000
1001
MMMM
,
0010
1000
0100
1000
,
0010
1000
0100
0000
,
0010
0001
0100
0001
,
0010
0001
0100
0000
,
0010
1000
0001
0100
,
0001
0010
0100
1000
,
0010
0000
0100
0001
0000
0000
0001
0000
,
0010
0100
1000
0000
,
1010
MMMM
0101
MMMM
,
0010
0001
0100
0000
,
0011
MMMM
1100
MMMM
,
0001
1000
0100
0000
,
1010
MMMM
1100
MMMM
,
0010
0001
1000
0000
,
0001
0100
0001
0010
,
0001
0000
1001
0000
,
0100
0010
1000
0000
,
1000
0010
0100
0000
,
0001
0010
0100
0010
,
0100
0010
0001
0000
,
1000
0010
0100
0010
,
1000
0000
0011
0000
,
1000
0001
0010
0100
1000
0000
MMMM
0000
0010
0000
0000
0000
0100
0000
0000
0000
,
0000
0110
0000
0000
0001
0000
0000
1000
,
0000
0100
1000
0001
,
0000
0101
0000
0000
0010
0000
0000
1000
,
0000
0100
1000
0001
,
0000
0011
0000
0000
1000
0000
0000
0100
,
0000
0010
0001
1000
,
0000
1010
0000
0000
0100
0000
0001
0000
,
1000
0000
0001
0010
,
0100
0000
0100
0010
,
0001
0000
1000
0010
,
0100
0010
1000
0001
,
0010
MMMM
0010
0001
,
1000
0000
0010
1000
,
0001
0000
0001
0010
,
0100
1000
0010
0100
,
0001
0000
MMMM
1000
,
0000
0100
0000
0000
1000
0000
0000
1001
,
0000
0010
MMMM
0001
,
0000
1000
0000
0000
0100
0000
0000
1010
,
0000
0010
MMMM
0100
,
0000
0001
0000
0000
0010
0000
0000
1001
,
0000
0000
0100
0000
0010
0000
0000
1000
,
0000
0010
1000
0100
,
0001
0100
1000
0001
,
0000
0100
0000
0000
0010
0000
0000
0110
,
0000
1000
MMMM
0001
,
0000
0010
0000
0000
0100
0000
0000
1001
,
0000
0010
MMMM
0010
,
0000
1000
0000
0000
0100
0000
0000
1100
,
0000
0001
0010
0001
,
0100
0010
1000
0010
,
0001
0000
0000
0000
0010
0000
0000
0000
1000
0010
0001
0010
1000
0000
MMMM
0000
,
0001
0100
1000
0100
0001
0000
MMMM
0000
0000
0000
0000
0000
0000
0000
0000
0000
;

//---------------dance-single - ----------------
#NOTES:
     dance-single:
     :
     Hard:
     16:
     0.834013,1.569778,0.800894,0.077279,0.347756,831.000000,717.000000,114.000000,11.000000,200.000000,0.000000,0.834013,1.569778,0.800894,0.077279,0.347756,831.000000,717.000000,114.000000,11.000000,200.000000,0.000000:
0000
0000
0000
0000
,
0000
0000
0000
0000
,
0100
0000
0010
0000
0000
0110
0000
0000
1000
0000
0000
0011
0000
0000
0100
0000
0010
0000
1000
0000
0000
1100
0000
0000
0001
0000
0000
0011
0000
0000
0100
0000
,
MMMM
0000
0010
0000
0000
0110
0000
0000
0001
0000
0000
1100
0000
0000
0010
0000
0100
0000
0001
0000
0010
0100
0000
0100
1000
0001
1000
0000
0010
0000
0100
0000
,
0001
0000
0010
0100
0000
0100
1000
0000
,
0010
0100
1000
0100
0001
0000
MMMM
0000
,
0010
0000
1000
0100
0000
0100
0010
0000
,
0001
0010
0100
0010
0001
0000
MMMM
0000
,
0010
0000
1000
0001
0000
0100
0001
0000
,
0010
0100
1000
0100
0010
0000
MMMM
0000
,
1000
0000
0001
0100
0000
0010
1000
0000
,
0001
0100
0010
1000
0100
0010
0001
0000
,
1000
1100
1000
1010
,
1000
1100
1000
1001
,
0001
0011
0001
1001
,
0001
0101
0001
1001
,
0010
0110
0100
1100
,
1000
1010
0010
0110
,
1000
0000
0001
0100
0000
0100
1000
0000
,
0100
0010
1000
0001
0010
0100
1000
0010
,
1000
0000
0001
0010
0000
0001
0100
0000
,
0001
0000
1000
0100
0000
1000
0010
1000
,
0001
0000
0010
0001
0000
1000
0010
0000
,
0100
0000
0001
0100
0000
1000
0100
0010
,
0100
0000
0001
0010
0000
0001
1000
0000
,
0100
0000
0010
0100
0000
1000
0001
1000
,
0010
0000
0100
0000
0001
1000
0000
0010
,
1000
0100
0010
0001
0100
0010
1000
0000
,
0001
0000
0000
0000
0011
0000
0000
MMMM
0000
0000
1010
0000
0000
MMMM
0000
0000
,
1100
0000
0000
MMMM
0000
0000
0101
0000
0000
MMMM
0000
0000
1001
0000
0000
0000
,
1000
0000
0000
0000
1010
0000
0000
MMMM
0000
0000
0101
0000
0000
MMMM
0000
0000
,
0011
0000
0000
MMMM
0000
0000
0110
0000
0000
MMMM
0000
0000
1100
0000
0000
0000
,
0001
0000
0000
0000
0101
0000
0000
MMMM
0000
0000
0110
0000
0000
MMMM
0000
0000
,
1100
0000
0000
MMMM
0000
0000
0110
0000
0000
MMMM
0000
0000
0011
0000
0000
0000
,
1000
0000
0001
0000
0100
0010
0000
0010
,
1000
0001
0010
0100
0010
0001
1000
0000
,
0010
1010
0210
0000
,
0301
0011
1002
0000
,
1003
1010
1000
1001
,
1200
0010
0310
MMMM
,
0011
0000
1000
0010
0000
0000
0110
0000
,
0001
0000
1000
0100
0000
0000
0110
0000
,
1000
0000
0001
0100
0000
0100
0010
0100
,
0001
1001
1100
MMMM
,
0010
0011
2001
0000
,
3010
0110
0102
0000
,
0013
0110
0010
0011
,
0110
0100
1100
MMMM
,
0101
0000
0010
1000
0000
0000
1010
0000
,
1001
0000
0010
0001
0000
0000
0101
0000
,
1000
0000
0100
0010
0000
0010
0100
1000
,
0001
0100
0010
1000
0001
0010
0200
0000
,
1300
0000
0010
0000
0100
0000
0001
0000
0010
0100
0001
0000
0100
0000
1000
0000
,
0010
0000
0100
0000
1000
0100
0010
0000
0100
0000
0001
0000
0010
0000
0001
0000
,
1000
0000
0100
0000
0010
0000
0001
0000
0100
0010
1000
0000
0100
0000
0010
0000
,
0001
0000
0100
0000
0010
1000
0100
0000
0010
0100
1000
0001
1000
0000
0010
0000
,
0100
0001
0010
0000
0100
0000
1000
0000
0010
1000
0100
0000
0010
0000
0100
0000
,
1000
0001
0100
0000
0010
0000
1000
0000
0001
0100
0010
0000
1000
0000
0001
0000
,
0010
0100
1000
0000
0010
0000
0100
0000
0010
1000
0001
0000
0100
0000
0001
0000
,
0010
0000
0100
0000
1000
0001
0000
0001
0010
0100
0010
0001
1000
0000
MMMM
0000
,
1000
0001
0010
0000
0001
0000
0100
0000
0010
1000
0000
1000
0100
0000
0010
0000
,
0100
1000
0001
0000
0100
0000
0010
0000
1000
0001
0000
0001
0010
0000
0100
0000
,
0010
0001
1000
0000
0010
0000
0100
0000
0001
0010
0000
0010
0100
0000
1000
0000
,
0010
0000
1000
0000
0001
0010
0000
0010
0001
1000
0100
1000
0010
0000
MMMM
0000
,
0001
1000
0100
0000
1000
0000
0010
0000
0100
0001
1000
0000
0100
0000
0010
0000
,
0100
1000
0001
0000
0100
0000
0010
0000
1000
0001
0010
0000
0100
0000
1000
0000
,
0010
1000
0001
0000
0010
0000
0100
0000
0010
0001
1000
0000
0010
0000
0100
0000
,
0001
0000
0010
1000
0000
1000
0010
0001
1000
0010
1000
0001
0010
0100
2000
0000
,
3001
0000
1000
0100
0000
1000
0010
0000
,
0100
0001
0010
0001
0100
0000
MMMM
0000
,
0010
0000
0001
1000
0000
1000
0010
0000
,
1000
0001
0010
0001
1000
0000
MMMM
0000
,
0100
0000
0010
1000
0000
0001
0010
0000
,
0100
1000
0001
0100
0010
0000
MMMM
0000
,
0010
0000
1000
0001
0000
0010
0100
0000
,
1000
0001
0100
0010
1000
0001
0010
0000
,
0100
1100
0100
0101
,
0100
1100
MMMM
0110
,
0010
0011
0010
1010
,
0010
0011
MMMM
0110
,
0001
0000
1001
0000
1000
0001
0010
0000
,
0001
1000
0100
1000
0001
0000
0010
0000
,
0001
0000
1000
0010
0000
0010
0100
0000
,
0001
1000
0010
0100
0001
0010
0100
0000
,
1100
0100
0102
0000
,
0103
1000
0010
1000
0000
1000
0010
0000
,
0101
0100
2100
0000
,
3100
0001
0010
0001
0000
0010
0001
0000
,
0011
0010
2010
0000
,
3010
0001
1000
0001
0000
0001
0010
0000
,
0001
0000
0101
0000
1000
0010
0100
0000
,
0001
1000
0100
0010
0001
1000
0010
0000
,
0100
0001
0011
MMMM
,
0100
0010
1010
MMMM
,
0100
0000
0001
0010
0000
0001
1000
0010
,
0100
0010
1000
0001
0010
0100
1000
0000
,
0001
1000
0011
MMMM
,
1000
0001
1100
MMMM
,
0010
0000
0001
0000
0010
0000
1000
0000
0010
0001
0010
0000
0100
0000
MMMM
0000
0010
0000
0000
0000
0000
0000
0000
0000
0110
0000
0000
0000
0000
0000
MMMM
0000
,
0000
0000
1010
0000
0000
MMMM
0000
0000
0011
0000
0000
MMMM
0000
0000
0110
0000
,
0000
MMMM
0000
0000
1100
0000
0000
0000
1000
0000
0000
0000
0101
0000
0000
MMMM
,
0000
0000
0011
0000
0000
MMMM
0000
0000
1010
0000
0000
MMMM
0000
0000
0110
0000
,
0000
MMMM
0000
0000
1001
0000
0000
0000
0001
0000
0000
0000
0011
0000
0000
MMMM
,
0000
0000
1100
0000
0000
MMMM
0000
0000
0101
0000
0000
MMMM
0000
0000
0110
0000
,
0000
MMMM
0000
0000
1010
0000
0000
0000
1000
0000
0000
0000
0001
0000
0000
0000
,
0100
0010
0000
0010
1000
0001
0100
0010
,
0001
0010
0100
0000
0010
0000
1010
0000
,
1100
MMMM
0010
0011
,
1001
MMMM
1000
1010
,
0001
0010
0000
0010
0001
1000
0010
0100
,
0001
1000
0100
0000
1000
0000
1001
0000
,
0101
MMMM
0010
0011
,
1001
MMMM
0010
0110
,
1000
0001
0000
0010
0100
1000
0001
0100
,
0010
1000
0020
0000
0130
0000
0100
0001
,
0000
1000
0010
0000
1000
0100
0000
0010
,
0001
0000
1001
0000
1000
0000
0010
0100
,
0000
0001
0010
0000
0010
0100
0000
1000
,
0010
0000
0110
0000
0100
0000
0001
0010
,
0000
0100
1000
0000
0010
0100
0000
0010
,
1000
0000
1100
0000
0100
0000
1000
0010
,
0000
0100
0001
1000
0001
0000
0011
0000
,
1100
0000
MMMM
0000
0010
0000
1000
0010
,
0000
1000
0100
0000
0010
0100
0000
1000
,
0001
0000
0011
0000
0010
0000
0001
0100
,
0000
0001
0010
0000
0100
0010
0000
0001
,
1000
0000
1100
0000
0100
0000
0001
0100
,
0000
1000
0010
0000
0001
0010
0000
1000
,
0001
1001
0010
0011
,
1000
1100
0001
1001
,
0110
0000
0000
0000
0000
0000
0000
0000
MMMM
0000
0000
0000
0000
0000
0000
0000
0100
0000
0001
0000
0100
0000
1000
0000
0100
0010
1000
0000
0100
0000
MMMM
0000
,
0100
1000
0010
0000
0100
0000
0001
0000
0010
0000
0100
1000
0001
0000
0100
0000
0000
0000
0000
0000
0000
0000
0000
0000
0000
0000
0000
0000
0000
0000
0000
0000
;
