#TITLE:BEEF;
#SUBTITLE:;
#ARTIST:BEMANI Sound Team "牛";
#TITLETRANSLIT:BEEF;
#SUBTITLETRANSLIT:;
#ARTISTTRANSLIT:BEMANI Sound Team "Ushi";
#GENRE:;
#CREDIT:;
#BANNER:BEEF_banner.png;
#BACKGROUND:BEEF.png;
#LYRICSPATH:;
#CDTITLE:;
#MUSIC:BEEF.ogg;
#OFFSET:-1.500000;
#SAMPLESTART:37.169998;
#SAMPLELENGTH:12.000000;
#SELECTABLE:YES;
#BPMS:0.000000=87.500000
,132.000000=175.000000
,196.000000=87.500000
;
#STOPS:
;
#BGCHANGES:;
#KEYSOUNDS:;
#ATTACKS:;

//---------------dance-single - ----------------
#NOTES:
     dance-single:
     :
     Easy:
     4:
     0.149815,0.200645,0.092743,0.149815,0.000000,147.000000,134.000000,13.000000,21.000000,0.000000,0.000000,0.149815,0.200645,0.092743,0.149815,0.000000,147.000000,134.000000,13.000000,21.000000,0.000000,0.000000:
// measure 0
0000
0000
0000
0000
,  // measure 1
1000
0001
1000
0000
,  // measure 2
0010
0100
0010
0000
,  // measure 3
1000
0100
1000
0000
,  // measure 4
0001
0010
0001
0100
,  // measure 5
0002
0003
2000
3000
,  // measure 6
0020
0030
0200
0300
,  // measure 7
1001
0000
1001
0000
,  // measure 8
0110
0000
0110
0000
,  // measure 9
1000
1000
0100
0000
,  // measure 10
0001
0001
0010
0000
,  // measure 11
0100
0100
0010
0000
,  // measure 12
0001
0010
0100
0000
,  // measure 13
1000
0000
0010
0000
,  // measure 14
0001
0000
0100
0010
,  // measure 15
1000
0000
0001
0000
,  // measure 16
0010
0000
0100
0000
,  // measure 17
2000
0000
3000
0000
,  // measure 18
0002
0000
0003
0000
,  // measure 19
0200
0000
0300
0000
,  // measure 20
0020
0000
0000
0030
,  // measure 21
2000
0000
0200
3300
,  // measure 22
0002
0000
0200
0303
,  // measure 23
0020
0000
2000
3030
,  // measure 24
0002
0000
0010
0013
,  // measure 25
1000
0010
0100
0000
,  // measure 26
0001
0100
0010
0000
,  // measure 27
0001
1000
0010
0000
,  // measure 28
1000
0001
0100
0000
,  // measure 29
0010
0100
0100
0000
,  // measure 30
0100
0010
0010
0000
,  // measure 31
1000
1000
0001
0000
,  // measure 32
1000
0001
0001
0100
,  // measure 33
0010
1000
0000
0001
,  // measure 34
0000
0100
0000
0010
,  // measure 35
0000
1000
0000
0010
,  // measure 36
0000
0100
0000
0001
,  // measure 37
1000
1000
1000
0000
,  // measure 38
0001
0001
0001
0000
,  // measure 39
0100
0010
0100
0000
,  // measure 40
0010
0100
0010
0000
,  // measure 41
0000
1001
0000
1001
,  // measure 42
0000
1001
0000
1001
,  // measure 43
0000
0110
0000
0110
,  // measure 44
0000
0110
0000
0110
,  // measure 45
0010
1000
0010
0000
,  // measure 46
0100
0001
0100
0000
,  // measure 47
0001
0001
0010
0000
,  // measure 48
1000
1000
0100
0000
,  // measure 49
2000
0000
0000
0000
,  // measure 50
3200
0000
0000
0000
,  // measure 51
0320
0000
0000
0000
,  // measure 52
0032
0000
0000
0000
,  // measure 53
1003
0100
0010
0001
,  // measure 54
0100
0010
1000
0001
,  // measure 55
2002
0000
0000
0000
,  // measure 56
0000
3003
0000
0000
;

//---------------dance-single - ----------------
#NOTES:
     dance-single:
     :
     Medium:
     11:
     0.396449,0.601935,0.114145,0.263960,0.096310,389.000000,373.000000,16.000000,37.000000,0.000000,0.000000,0.396449,0.601935,0.114145,0.263960,0.096310,389.000000,373.000000,16.000000,37.000000,0.000000,0.000000:
0000
0000
0000
0000
,
2000
0000
3001
0010
0100
0010
1001
0000
,
0100
0010
1000
0010
0100
0001
0011
0000
,
1100
0000
0001
0010
0100
0010
0101
0000
,
1010
0010
0100
0001
0100
0010
1001
0000
,
0110
0000
1000
0100
0010
0001
0101
0000
,
1000
0100
0001
0100
1000
0010
0100
0000
,
0001
0010
1000
0010
0001
0100
0010
1000
,
0001
0010
0100
1000
0001
0010
0110
0000
,
0001
0100
0001
0100
0010
1000
0010
0000
,
1000
0100
1000
0100
0010
0001
0010
0000
,
0001
0100
0010
1000
0001
0010
0100
0000
,
1000
0010
0100
0001
0010
0100
1001
0000
,
1000
0100
1000
0000
0001
0100
0001
0000
1000
0010
1000
0000
0001
0010
0001
0000
,
1000
0100
0010
0000
0001
0100
0010
0000
1000
0001
1000
0000
0220
0000
0330
0000
,
0001
0010
0001
0000
1000
0010
1000
0000
0001
0100
0001
0000
1000
0100
1000
0000
,
0001
0010
0100
0000
1000
0010
0100
0000
0001
0100
1000
0000
0200
0000
0300
0000
,
0002
0010
0013
0000
2000
0100
3100
0000
,
0020
0001
0031
0000
0200
1000
1300
0000
,
0001
0010
0001
0010
0001
1000
0100
0000
1000
0010
1000
0010
1000
0001
0100
0000
,
0001
0010
0100
1000
0001
0010
0100
1000
0010
1000
0001
0100
0010
0100
0010
0000
,
2000
0100
3002
0100
,
2003
0010
3002
0010
,
1003
0100
1000
0000
0001
0100
0001
0000
,
1000
0010
1000
0000
0001
0010
0001
0000
,
1000
0000
1010
0000
0001
0010
0100
0000
,
0010
0100
1000
0100
0010
0001
0010
0000
,
0001
0010
0100
1000
0010
0100
1000
0000
,
0010
1000
0010
0100
0001
0010
0100
0000
,
0001
0100
1000
1000
0100
1000
1000
0100
,
0010
0010
0100
0010
0100
0001
0011
0000
,
1100
1000
0001
0010
0100
0010
0001
1000
,
0010
0100
0010
0100
0001
0001
1001
0000
,
1000
0100
0010
0000
1000
0100
0010
0000
,
0001
0100
0010
0000
0001
0100
0010
0000
,
1000
0100
0001
0000
0001
0100
1000
0000
,
0010
1000
0010
0000
0100
0001
0100
0000
,
0001
0010
0100
0000
0001
0010
0100
0000
,
1000
0010
0100
0000
1000
0010
0100
0000
,
0001
0010
1000
0000
1000
0010
0001
0000
,
1000
0010
1000
0000
0001
0100
0001
0000
,
1000
0100
1000
0001
1000
0010
1000
0000
,
0001
0100
0001
1000
0001
0010
0001
0000
,
1000
0100
0010
0100
1000
0100
0010
0000
,
0001
0100
0010
0100
0001
0100
0010
0000
,
1000
0010
0100
0010
1000
0001
0010
0100
,
1000
0010
0100
0010
1000
0010
0100
0000
,
0001
0100
0001
0100
0001
1000
0010
0000
,
1000
0010
1000
0010
1000
0001
0100
0000
,
0002
0023
0230
2300
,
3020
0230
0302
2003
,
3002
0203
0320
0230
,
0320
2030
3002
0023
,
0230
2300
3200
0320
,
0032
0023
0230
0310
,
2002
0000
0000
0000
,
0000
3003
0000
0000
;

//---------------dance-single - ----------------
#NOTES:
     dance-single:
     :
     Hard:
     16:
     0.658370,0.802580,0.306764,0.271094,0.799013,646.000000,603.000000,43.000000,38.000000,0.000000,0.000000,0.658370,0.802580,0.306764,0.271094,0.799013,646.000000,603.000000,43.000000,38.000000,0.000000,0.000000:
0000
0000
0000
0000
,
1010
0000
0100
0001
1000
0010
0100
0000
0000
0001
0010
0100
1100
0000
0011
0000
,
0010
0100
0010
0001
1000
0001
0100
0010
0000
0010
0100
0001
0101
0000
1010
0000
,
0000
0000
0100
0000
0010
0000
0100
0000
1000
0000
0100
0000
0010
0000
0100
0000
0001
0000
0010
0001
0010
0000
0100
0000
1000
0000
0001
0000
1000
0000
0000
0000
,
0002
0000
0103
0010
1000
0100
1000
0010
0100
0001
0100
0000
2002
0000
3003
0000
,
0110
0000
0010
1000
0001
0100
0001
1000
0100
1000
0010
0100
0010
0000
0010
0000
,
1100
0000
0001
0010
0100
0010
0001
1000
0010
0100
0010
1000
1010
0000
0101
0000
,
0000
0001
0010
0001
1000
0100
1000
0010
0100
0000
0001
1000
1001
0000
0110
0000
,
1000
0100
0001
0100
1000
0010
0100
0010
1000
0001
0100
0000
0220
0000
0330
0000
,
0001
0010
0001
0010
0100
1000
0100
0000
0000
0110
0000
0110
0010
0001
1000
0000
,
0010
1000
0010
1000
0001
0100
0001
0100
0000
1001
0000
1001
1000
0100
0010
0000
,
0001
0000
0010
0000
0001
0100
0001
0000
1000
0000
0010
0000
1000
0000
0010
0000
0100
0000
0001
0000
1000
0010
1000
0000
0001
0100
0001
0000
1001
0000
0000
0000
,
0000
0000
1000
0000
0010
0000
0100
0000
0001
0000
0010
0000
0100
0000
1000
0000
0001
0000
0100
0000
0001
0010
0001
0000
1000
0100
1000
0000
0110
0000
0000
0000
,
1000
0100
1000
0100
1000
0000
0000
0000
0001
0100
0001
0100
0001
0000
0000
0000
1000
0010
1000
0010
1000
0000
0000
0000
0001
0010
0001
0010
0001
0000
0000
0000
,
1000
0100
0010
0100
1000
0100
0010
0100
0010
0001
0010
0000
2002
0000
3003
0000
,
1000
0100
0010
0100
1000
0000
0000
0000
0001
0010
0100
0010
0001
0000
0000
0000
1000
0010
0100
0010
1000
0000
0000
0000
0001
0100
0010
0100
0001
0000
0000
0000
,
0000
0010
1000
0100
1000
0001
0100
0010
0100
0001
0010
0100
2002
0000
3003
0000
,
2100
0100
3100
0001
0012
0010
0013
0100
,
1200
1000
1300
0001
0102
0100
0103
0010
,
1000
0010
1000
0010
1000
0010
1000
0010
1000
0010
0000
0000
0100
0001
0100
0001
0100
0001
0100
0001
0100
0001
0000
0000
,
1000
0000
0010
0000
0001
0000
0010
0000
1000
0000
0010
0000
0001
0000
0010
0000
1000
0010
0100
0001
1000
0010
0100
0001
2000
0000
0000
0000
3001
0000
0000
0000
,
0010
0000
0010
0100
1000
0000
0001
0010
0001
0000
0010
0100
0010
0000
1001
0000
,
1000
0000
0010
0100
0010
0000
1000
0100
0010
0000
0001
0010
0001
0000
1010
0000
,
0100
0000
0001
0010
0100
0000
1000
0000
0010
0000
0100
0001
1000
0000
0011
0000
,
1000
0100
1000
0100
0010
0000
0001
0100
0010
1000
0010
1000
0002
0000
0103
0000
,
0010
1000
0010
0100
0001
0010
0001
0010
0000
0100
0010
0100
1000
0001
1000
0000
,
0010
1000
0001
1000
0010
0100
0001
0100
0010
0100
1000
0100
0001
0010
0001
0000
,
0000
0000
1000
0100
1000
0000
0001
0000
0100
0000
0010
0000
0100
0000
0010
0000
0000
0000
0010
0000
1000
0000
0001
0000
0100
0000
0000
0000
0110
0000
0000
0000
,
0010
1000
0010
1000
0001
0001
0100
0000
0001
0010
0001
0010
1000
1000
0000
0000
,
0001
0100
1000
0100
0001
0001
0001
0000
1000
0100
0001
0001
0001
0000
0100
0010
,
0000
1000
0100
0010
0100
0010
0001
0010
0001
0100
0101
0000
1010
0000
0001
0010
,
0000
0100
1000
0100
0010
0100
0010
0001
0100
0010
1000
0010
1000
0001
0010
0100
,
1000
0000
1000
0001
0010
0100
0010
0001
1001
0000
0110
0000
2002
0000
3003
0000
,
1000
0000
0100
0000
0010
0100
0010
0000
0001
0000
0100
0000
0010
0100
0010
0000
,
1000
0000
0010
0000
0100
0001
0100
0000
0001
0000
0010
0000
0100
1000
0100
0000
,
1000
0000
0001
0000
0100
0010
0100
0010
0200
0000
0000
0000
0301
0000
0010
0000
,
0100
1000
0010
0100
0001
0010
1001
0000
,
0010
0000
1000
0000
0001
0100
0001
0000
0010
0000
0001
0000
1000
0100
1000
0000
,
0001
0000
0100
0000
0010
1000
0010
1000
0010
0000
0100
0000
0100
0000
0000
0000
,
0001
0000
1000
0000
0001
0010
0001
0000
2000
0000
0000
0000
3010
0000
0100
0000
,
0001
0100
1000
0100
0001
0010
0010
0000
,
0100
0000
1000
0000
0001
0100
0001
0100
0001
0000
1000
0000
1000
0000
0000
0000
,
0100
0000
1000
0000
0010
1000
0010
1000
0010
0000
0100
0000
0100
0000
0000
0000
,
0001
0010
0100
0010
0100
1000
0001
0100
,
0010
0010
0100
0100
0001
1000
1001
0000
,
0010
0000
0100
0000
0010
0100
1000
0100
0010
0000
0100
0000
0001
0000
0010
0000
,
0100
0000
0010
0000
0001
0010
0100
0010
0001
0000
1000
0000
1000
0000
0000
0000
,
0001
0010
0001
0010
0100
1000
0100
1000
0001
0010
0100
1000
0010
0000
0010
0000
,
1000
0010
0100
0000
0001
0010
0100
0000
1000
0100
0010
0001
0010
0100
1000
0000
,
0002
0023
0230
1300
,
1020
0230
0302
1003
,
0021
0230
2300
3020
,
0230
0302
2003
3010
,
2001
3100
1002
0013
,
0120
0031
0210
1300
,
2002
0000
0000
0000
,
0000
3003
0000
0000
;
