#TITLE:B4U(BEMANI FOR YOU MIX);
#SUBTITLE:;
#ARTIST:Remixed by DJ YOSHITAKA with Michael a la mode;
#TITLETRANSLIT:;
#SUBTITLETRANSLIT:;
#ARTISTTRANSLIT:;
#GENRE:RECKLESS RAVE;
#CREDIT:;
#BANNER:B4U(BEMANI FOR YOU MIX)_banner.png;
#BACKGROUND:B4U(BEMANI FOR YOU MIX).png;
#LYRICSPATH:;
#CDTITLE:;
#MUSIC:B4U(BEMANI FOR YOU MIX).ogg;
#OFFSET:0.930000;
#SAMPLESTART:47.709999;
#SAMPLELENGTH:12.000000;
#SELECTABLE:YES;
#BPMS:0.000000=170.000000
;
#STOPS:
;
#BGCHANGES:;
#KEYSOUNDS:;
#ATTACKS:;

//---------------dance-single - ----------------
#NOTES:
     dance-single:
     :
     Easy:
     7:
     0.325259,0.339593,0.216104,0.231540,0.000000,295.000000,267.000000,28.000000,30.000000,0.000000,0.000000,0.325259,0.339593,0.216104,0.231540,0.000000,295.000000,267.000000,28.000000,30.000000,0.000000,0.000000:
0000
0000
0000
0000
,
0000
0000
0000
0000
,
0000
0000
0000
0000
,
0000
0000
0000
0000
,
0000
0000
0000
0000
,
0000
0000
0000
1001
,
2002
0000
0000
0000
0000
3003
0000
0000
,
0220
0000
0000
0000
0000
0330
0000
0000
,
1000
0000
0001
0000
,
0100
0010
1000
0001
,
1000
0100
1000
0100
,
0010
0100
0010
0100
,
0010
0001
0010
0001
,
1000
0001
1000
0001
,
0100
0010
0100
0010
,
1000
0001
1000
0010
,
0100
0001
0010
0100
,
1000
0010
1000
1001
,
0001
0001
0001
0001
,
1000
1000
1000
1000
,
0010
0010
0100
0100
,
0010
0100
0010
0110
,
1000
0010
2000
0000
,
3001
0010
0001
0000
,
0110
0000
1001
0000
,
1000
0000
0010
0000
1000
0010
1000
0000
,
0001
0100
0010
1000
,
0001
0010
0100
1000
,
0100
1000
0001
0010
,
0100
0010
0001
1000
,
0001
0001
1000
1000
,
0010
0010
0100
0100
,
1001
0000
1001
0000
,
0110
0000
0110
0000
,
2002
0000
0000
3003
,
0100
0010
0100
0001
,
1000
1000
1000
0010
,
0100
0010
1000
0001
,
0010
0100
1000
1100
,
1000
0010
0100
0001
,
0010
0010
0010
0001
,
1000
0100
0001
0100
,
2002
0000
0000
3003
,
0001
0010
0100
0010
,
0100
0100
0100
1000
,
0001
0000
0000
1000
0000
0000
0001
0000
,
0200
0000
0010
0310
,
1000
0100
1000
0100
,
0010
0001
0010
0001
,
1000
0010
0001
0100
,
2020
0000
0000
3030
,
0001
0010
0100
0010
,
0001
0010
0100
0010
,
0001
0100
1000
0100
,
0001
0100
1000
0100
,
0010
1000
0100
1000
,
0010
1000
0100
1000
,
0202
0303
2200
3300
,
1000
0001
1000
0001
,
0010
0000
0010
0000
0010
0100
0010
0000
,
0002
0000
0000
0000
,
2003
0000
0000
0000
,
3200
0000
0000
0000
,
0320
0000
0000
0000
,
0031
0000
0001
0000
,
1000
0000
1000
0000
,
0110
0000
1010
0000
,
0101
0000
0011
0000
,
1010
0000
1100
0000
,
2002
0000
0000
3003
,
0100
0010
1000
0010
,
0100
0001
0010
0001
,
1000
0100
0001
0100
,
1000
0010
0001
0010
,
1000
0100
0010
0001
,
0100
0010
1000
0001
,
2200
3300
0022
0033
,
1000
0010
0202
0303
,
1000
0010
0100
0001
,
1000
0100
1000
0010
,
0100
0001
0010
0001
,
0100
0001
0010
0100
,
1000
0010
0100
0010
,
1000
0001
0100
0001
,
1000
1000
0001
0001
,
0010
0010
0100
0100
,
2002
0000
0000
0000
,
0000
0000
0000
0000
,
3003
0000
0000
0000
;

//---------------dance-single - ----------------
#NOTES:
     dance-single:
     :
     Medium:
     12:
     0.584364,0.611267,0.362747,0.131206,0.046308,530.000000,483.000000,47.000000,17.000000,0.000000,0.000000,0.584364,0.611267,0.362747,0.131206,0.046308,530.000000,483.000000,47.000000,17.000000,0.000000,0.000000:
0000
0000
0000
0000
,
0000
0000
0000
0000
,
0000
0000
0000
0000
,
0000
0000
0000
0000
,
0000
0000
0000
0000
,
0000
0000
0000
0110
,
1001
0220
0000
0330
,
2002
0000
0000
3003
,
0010
0001
0100
0010
1000
0100
2000
0000
,
3001
0000
0000
0100
0000
0000
0010
0000
0000
1000
0000
0000
0010
0000
0100
0000
,
0001
0010
0001
0000
1000
0100
1000
0000
,
0010
1000
0010
0100
0001
0010
0100
0000
,
1000
0100
1000
0000
0001
0100
0001
0000
,
1000
0010
0100
0001
0010
0100
1000
0000
,
0001
0010
0100
0000
0010
0100
1000
0000
,
0001
0100
0001
0010
0100
1000
0100
0000
,
1000
0001
0010
0000
0100
1000
0001
0000
,
1000
0001
0100
1000
0100
0010
1000
0000
,
0001
0001
0001
0001
,
1000
0000
1000
0000
1000
0010
0100
0000
,
1100
0000
0011
0000
,
0100
0010
0000
0010
0000
1000
0001
1000
,
0001
0000
0001
0000
0100
0010
0100
0000
,
0010
0000
0010
0000
1000
0100
1000
0001
,
0101
0000
1100
0000
,
0110
0000
0110
0000
1000
0001
1001
0000
,
1000
0010
0100
0010
1000
0100
0010
0000
,
0001
0010
0001
0100
0010
1000
0100
0000
,
1000
0001
0010
0001
0100
0010
0100
0000
,
0001
0000
0010
0000
0100
0000
0010
0000
0001
0000
0000
1000
0000
0000
0001
0000
,
0100
0010
0100
1000
0100
0001
0100
0000
,
0001
1000
0001
0010
0001
0100
0001
0000
,
1000
0000
0000
0010
0000
0000
1010
0000
0000
0000
0100
0000
0001
0000
0010
0000
,
0001
0000
0000
1001
0000
0000
1001
0000
0000
1000
0000
0000
0010
0000
0100
0000
,
0020
0000
0000
0130
,
1000
0100
0010
0100
1000
0001
0010
0001
,
0100
0000
0110
0000
1001
0000
0010
0100
,
0001
0010
0100
1000
0001
0010
0001
0000
,
1000
0000
0010
0000
0100
0000
0010
0000
0100
0000
0000
0001
0000
0000
1000
0000
,
0001
0010
0100
0010
0001
1000
0100
0000
,
1100
0000
0011
0000
1100
0000
1000
0010
,
0100
0001
0010
0001
1000
0010
0100
0000
,
0001
0010
0100
1000
0001
0000
0110
0000
,
1000
0010
0001
0010
1000
0100
1000
0000
,
0001
0000
0101
0000
1010
0000
1000
0100
,
1000
0000
0000
0011
0000
0000
0110
0000
,
1000
0010
0100
0001
0010
0100
0010
0002
,
0000
0000
1003
0001
1000
0100
0010
0100
,
1000
0000
1001
0000
0110
0000
0100
0100
,
0001
1000
0100
1000
0010
0100
0001
0010
,
0001
0100
0010
1000
0100
2000
0000
3000
,
0001
0010
0001
0010
0001
0100
0001
0100
,
0010
1000
0010
1000
0010
0100
0010
0100
,
0001
1000
0001
1000
0010
0100
0010
0100
,
0010
1000
0001
0100
0010
1000
0100
0010
,
0100
1000
0100
0010
0100
1000
0100
0000
,
1000
0001
1000
0010
1000
0001
1000
0000
,
0202
0000
0303
0000
1010
1010
0000
0000
,
1000
0100
0001
0100
0010
0001
0100
0000
,
1010
0000
1010
0000
0001
0100
0101
0000
,
1000
0100
1000
0100
,
0010
0001
0010
0001
,
1000
0001
1000
0001
,
0100
0010
0100
0010
,
0000
1010
0000
1010
0000
1010
0000
1010
,
0000
0101
0000
0101
0000
0101
0000
0001
,
1000
0100
0010
0100
1000
0001
0010
0001
,
0100
0000
0000
0010
0000
0000
0100
0000
0000
0010
0000
0000
1000
0000
0001
0000
,
1000
0000
0000
0001
0000
0000
1000
0000
0000
0001
0000
0000
0100
0000
0010
0000
,
0220
0000
0000
0330
,
0001
0010
0001
0100
0010
1000
0100
1000
,
0001
0000
0101
0000
1010
0000
1000
0010
,
0100
0001
0010
0100
1000
0001
0100
0010
,
1000
0000
0100
0000
1000
0000
0010
0000
0100
0000
0000
0110
0000
0000
2002
0000
,
3003
0000
1000
0001
1000
0100
0001
0100
,
1000
0010
1000
0010
0100
0001
0100
0001
,
0010
0010
0001
0100
0010
0010
1000
0100
,
0010
0001
0100
0010
1000
0000
0101
0000
,
1000
0010
0100
0010
1000
0001
0100
0001
,
0010
0001
0100
0010
1000
0100
2000
0000
,
3001
0100
0010
0100
0001
1000
0100
1000
,
0001
0010
0100
1000
0010
0000
0110
0000
,
1000
0001
1000
0001
0100
0010
0100
0010
,
1000
0100
1000
0100
0010
0001
0010
0001
,
1000
0100
0010
0001
1000
0100
0010
0001
,
0100
0010
1000
0001
0010
0100
1000
0000
,
2002
0000
0000
0000
,
0000
0000
0000
0000
,
3003
0000
0000
0000
;

//---------------dance-single - ----------------
#NOTES:
     dance-single:
     :
     Hard:
     15:
     0.744237,0.815022,0.656031,0.123488,0.648313,675.000000,590.000000,85.000000,16.000000,0.000000,0.000000,0.744237,0.815022,0.656031,0.123488,0.648313,675.000000,590.000000,85.000000,16.000000,0.000000,0.000000:
// measure 0
0000
0000
0000
0000
,  // measure 1
0000
0000
0000
0000
,  // measure 2
0000
0000
0000
0000
,  // measure 3
0000
0000
0000
0000
,  // measure 4
0000
0000
0000
0000
,  // measure 5
0000
0000
0000
1100
,  // measure 6
0011
0120
1000
0130
,  // measure 7
0210
0010
0001
0310
,  // measure 8
1000
0000
0001
0000
0100
0000
0010
0000
1000
0001
1000
0001
0100
0010
0100
0010
,  // measure 9
0100
0000
0000
1001
0000
0000
0010
0000
0000
1001
0000
0000
0100
0000
0010
0000
,  // measure 10
1000
0100
1000
0100
0000
0000
0010
0001
0010
0001
0000
0000
1000
0100
1000
0001
,  // measure 11
0000
0000
0100
0010
0100
0000
0001
0000
1000
0000
0100
0000
0010
0000
0001
0000
,  // measure 12
0100
0001
0100
0001
0000
0000
1000
0010
1000
0010
0000
0000
0100
0010
0100
0000
,  // measure 13
0001
0000
1000
0001
0000
1000
0001
0000
0100
0000
0010
0100
0000
0010
0100
0000
,  // measure 14
0001
0010
0001
0010
0000
0000
0100
1000
0100
1000
0000
0000
0010
0100
0010
0100
,  // measure 15
0000
0000
0001
1000
0001
0000
0100
0000
0010
0000
1000
0000
0001
0000
0010
0000
,  // measure 16
0100
1000
0100
1000
0000
0000
0001
0010
0001
0010
0000
0000
0100
0010
0100
0000
,  // measure 17
1000
0000
0001
1000
0000
0001
1000
0000
0010
0000
0100
0000
0110
0000
0000
0000
,  // measure 18
0001
0001
0001
0001
,  // measure 19
1000
0000
1000
0000
1000
0000
1000
0010
,  // measure 20
0100
0100
0110
0110
,  // measure 21
1001
1001
0000
0011
0000
1100
1000
0001
,  // measure 22
1000
0100
1000
0100
0010
0001
0010
0001
,  // measure 23
1000
0000
0010
0000
1000
0000
0010
0000
0100
0001
0010
0000
0100
0000
1000
0000
,  // measure 24
0200
0010
0310
0000
0002
1000
1003
0000
,  // measure 25
0110
0000
1001
0000
0110
1001
0110
0000
,  // measure 26
1000
0000
0100
0000
0001
0000
0100
1000
0000
0001
0000
0100
1000
0000
0100
0000
,  // measure 27
0010
0000
0100
0000
0010
0000
1000
0010
0000
0000
1000
0000
0100
0000
0010
0000
,  // measure 28
0001
0000
0010
0000
1000
0000
0010
0001
0000
1000
0000
0010
0001
0000
0010
0000
,  // measure 29
1000
0000
0100
0000
1100
0000
0000
0000
0011
0000
0000
0110
0000
0000
1100
0000
,  // measure 30
1000
0000
0100
0000
0001
0000
0100
1000
0000
0001
0000
0100
1000
0000
0100
0000
,  // measure 31
0001
0000
0010
0000
1000
0000
0010
0001
0000
0000
1001
0000
0000
1001
0000
0000
,  // measure 32
0100
0000
0010
0000
0100
0000
0010
0000
1000
0100
1000
0000
0001
0010
0001
0000
,  // measure 33
0101
0000
0000
1001
0000
0000
0101
0000
0000
1010
0000
0000
1000
0000
0001
0000
,  // measure 34
0102
0000
0000
0013
,  // measure 35
1000
0100
0000
0010
0000
0001
0000
0010
0000
0100
0000
1000
0001
0000
0100
0000
,  // measure 36
0110
0000
1001
0000
0110
0000
0001
0100
,  // measure 37
0001
0010
0000
0100
0000
1000
0000
0100
0000
0010
0000
0001
1000
0000
0010
0000
,  // measure 38
0100
0000
0010
0000
1000
0100
1000
0100
0010
0000
0000
0001
0000
0000
1000
0000
,  // measure 39
0001
0100
0000
0010
0000
1000
0000
0010
0000
0100
0000
0001
0010
0000
0100
0000
,  // measure 40
1000
0000
1100
0000
0011
0000
0100
0010
,  // measure 41
1000
0010
0000
0100
0000
0001
0000
0100
0000
0010
0000
1000
0001
0000
0010
0000
,  // measure 42
0100
1000
0001
0100
0110
0220
0000
0330
,  // measure 43
0100
0001
0000
0100
0000
0010
0000
0100
0000
0001
0000
0010
0100
0000
1000
0000
,  // measure 44
0001
0000
0101
0000
0011
0000
1000
0100
,  // measure 45
1100
1000
0010
0220
0000
0330
0011
0000
,  // measure 46
1000
0000
0001
0000
0010
0001
0100
0001
0010
0000
0000
1001
0000
0000
0100
0000
,  // measure 47
0010
1000
0000
0010
0000
0100
0000
0010
0000
1000
0000
0100
0010
0000
0001
0000
,  // measure 48
1000
0000
1100
0000
0011
0000
0100
0010
,  // measure 49
1000
0001
0000
1000
0000
0100
0000
0010
0000
0100
0000
1000
0001
0000
0100
0000
,  // measure 50
0010
1000
0001
0100
0010
0100
0110
0000
,  // measure 51
1000
0000
0010
0000
1000
0100
0000
1000
0010
0000
1000
0100
0000
1000
0010
0000
,  // measure 52
0100
0000
0001
0000
0100
0010
0000
0100
0001
0000
0100
0010
0000
0100
0001
0000
,  // measure 53
1000
0000
0001
0000
1000
0010
0000
0100
0010
0000
1000
0001
0000
0100
0010
0000
,  // measure 54
1000
0000
0100
0000
0010
0001
0000
0100
0010
0000
1000
0100
0000
1000
0001
0000
,  // measure 55
1000
0000
0100
0000
0010
0100
0000
1000
0100
0000
0010
0100
0000
1000
0100
0000
,  // measure 56
0010
0000
0001
0000
0010
0100
0000
0010
0001
0000
0010
0100
0000
0010
0001
0000
,  // measure 57
1000
1000
1100
0000
0001
0001
0101
0000
,  // measure 58
0100
0000
0010
0000
1000
0001
1000
0001
0100
0000
0010
0000
0110
0000
0000
0000
,  // measure 59
1001
0000
1001
0000
1001
0110
1001
0000
,  // measure 60
0100
0100
0100
0100
,  // measure 61
0010
0010
0010
0010
,  // measure 62
1000
1000
1000
1000
,  // measure 63
0001
0001
0001
0001
,  // measure 64
2000
0100
0000
0100
0000
0100
0000
3100
,  // measure 65
0002
0010
0000
0010
0000
0010
0000
0013
,  // measure 66
0001
0000
0100
0000
0010
0000
0100
0000
0001
1000
0001
1000
0010
0100
0010
0000
,  // measure 67
0110
0000
0000
0101
0000
0000
1100
0000
0000
1010
0000
0000
0001
0000
1000
0000
,  // measure 68
1010
0000
0000
0011
0000
0000
1010
0000
0000
1001
0000
0000
0100
0000
0010
0000
,  // measure 69
0210
0000
0000
0310
,  // measure 70
0001
0100
0000
1000
0000
0100
0000
0001
0000
0010
0000
1000
0010
0000
0001
0000
,  // measure 71
1000
0000
1100
0000
1001
0000
0010
0010
,  // measure 72
1000
0010
0000
0001
0000
0010
0000
1000
0000
0100
0000
0001
0100
0000
1000
0000
,  // measure 73
0010
0000
0100
0000
0001
1000
0001
1000
0001
0000
0000
0110
0000
0000
0100
0000
,  // measure 74
0001
1000
0000
0001
0000
0010
0000
0001
0000
1000
0000
0100
0010
0000
0001
0000
,  // measure 75
1000
0000
0011
0000
1100
0000
0010
0100
,  // measure 76
0001
0000
0010
0000
0100
0000
1000
0000
0001
0010
0001
0010
0100
1000
0100
1000
,  // measure 77
0001
0100
0010
1000
1010
2002
0000
3003
,  // measure 78
0000
1100
0000
0101
0000
1100
0000
0101
,  // measure 79
0000
1010
0000
0011
0000
1010
0000
0011
,  // measure 80
0000
1100
0000
0011
0000
1100
0000
0011
,  // measure 81
0000
1010
0000
0101
0000
1010
0000
0101
,  // measure 82
0001
0010
0100
0001
0100
1000
0010
0100
,  // measure 83
0001
0000
1000
0000
0010
0000
0100
0000
0010
1000
0001
0000
0010
0000
0100
0000
,  // measure 84
1000
0000
0100
0000
0010
0000
0001
0000
1000
0010
0100
0000
0001
0010
0100
0000
,  // measure 85
1000
0010
1000
0000
0001
0010
0001
0000
1000
0100
1000
0000
0001
0100
0020
0200
,  // measure 86
0000
0000
0000
0000
,  // measure 87
0000
0000
0000
0000
,  // measure 88
0330
0000
0000
0000
;
