#TITLE:B.B.K.K.B.K.K.;
#SUBTITLE:;
#ARTIST:nora2r;
#TITLETRANSLIT:;
#SUBTITLETRANSLIT:;
#ARTISTTRANSLIT:;
#GENRE:;
#CREDIT:;
#BANNER:B.B.K.K.B.K.K_banner.png;
#BACKGROUND:B.B.K.K.B.K.K.png;
#LYRICSPATH:;
#CDTITLE:;
#MUSIC:B.B.K.K.B.K.K..ogg;
#OFFSET:-0.640000;
#SAMPLESTART:102.279999;
#SAMPLELENGTH:15.000000;
#SELECTABLE:YES;
#BPMS:0.000000=170.000000
;
#STOPS:28.000000=1.059000,
43.000000=0.176000,
43.500000=0.176000,
74.000000=0.176000,
74.500000=0.176000,
151.000000=1.059000,
212.000000=1.059000,
337.000000=1.059000
;
#BGCHANGES:;
#KEYSOUNDS:;
#ATTACKS:;

//---------------dance-single - ----------------
#NOTES:
     dance-single:
     :
     Easy:
     7:
     0.307751,0.332180,0.062898,0.117934,0.000000,274.000000,266.000000,8.000000,15.000000,0.000000,0.000000,0.307751,0.332180,0.062898,0.117934,0.000000,274.000000,266.000000,8.000000,15.000000,0.000000,0.000000:
0000
0000
0000
0000
,
0000
0000
0000
0000
,
0000
0000
0000
0000
,
0000
0000
0000
0000
,
1000
1000
0001
0001
,
1000
0001
0001
0000
,
0100
0100
0010
0010
,
0000
1000
0010
1000
,
0010
0100
0001
0100
,
0000
0001
0010
0001
,
0010
0100
1000
0100
,
1000
0001
1000
0001
,
0100
0010
0100
0000
,
0001
0010
0100
1000
,
2002
0000
0000
0000
0000
3003
0000
0000
,
1000
0010
1000
0010
,
0100
0001
0100
0001
,
0010
0001
0010
0001
,
1000
0010
0100
0010
,
1000
0100
1000
0010
,
0100
0001
0100
0001
,
0010
0100
1000
2002
,
0000
0000
0000
3003
0000
0000
0100
0000
,
0100
0010
0010
0100
,
0010
0010
0000
1000
,
1000
0001
0001
1000
,
1000
0001
0001
0100
,
0100
0010
0010
0100
,
0010
0010
0000
1000
,
1000
0010
0010
0020
,
0000
0000
0030
0100
,
0100
0001
0001
0100
,
0001
0001
0000
1000
,
1000
0100
0100
1000
,
1000
0100
0100
0010
,
0010
0001
0001
0010
,
0001
0001
0000
0001
,
0001
1000
1000
0000
,
0020
0000
0000
0000
,
2030
0000
0000
0000
,
3002
0000
0000
0000
,
0203
0000
0000
0000
,
0310
0000
0010
0000
,
0100
0000
0100
0000
,
0001
0000
0001
0000
,
1000
0000
1000
0000
,
0001
0100
0001
1000
,
0001
0100
0001
0000
,
1000
0010
1000
0001
,
1000
0010
1000
0000
,
0010
0100
1000
0100
,
0010
0100
0001
0000
,
1000
0001
1000
0001
,
0110
0100
0100
0010
,
0010
0100
0010
0010
,
0000
1000
1000
0001
,
0001
1000
1000
0001
,
0001
1000
1000
0010
,
0010
1000
0010
0010
,
0000
0001
0001
0100
,
0100
0001
0001
0002
,
0000
1003
1000
0010
,
0010
0100
0100
0001
,
0000
0010
0010
0001
,
0001
1000
1000
0100
,
0000
1000
0010
0100
,
0010
1000
0001
0010
,
0000
0001
1000
0100
,
0010
0220
0000
0000
,
0330
0010
0001
0010
,
0001
1000
0100
1000
,
0100
1000
0010
1000
,
0010
1001
0000
0110
,
0000
0010
1000
0010
,
1000
0001
0100
0001
,
0100
0001
1000
0010
,
1000
0200
0000
0310
,
0000
0001
0100
0010
,
1000
0100
0010
0001
,
0000
1000
0010
0100
,
0001
1000
0010
1000
,
0000
0001
0100
0010
,
1000
0100
1000
0001
,
0000
0100
0010
1000
,
0001
0000
0000
0000
0000
0000
0000
0000
0000
0000
0000
0000
2002
3003
0000
0000
0000
0000
0000
0000
0000
0000
0000
0000
0110
0000
0000
0000
0000
0000
0000
0000
0000
0000
0000
0000
0000
0000
0000
0000
0000
0000
0000
0000
0000
0000
0000
0000
;

//---------------dance-single - ----------------
#NOTES:
     dance-single:
     :
     Medium:
     12:
     0.542495,0.531488,0.275179,0.102209,0.000000,483.000000,448.000000,35.000000,13.000000,0.000000,0.000000,0.542495,0.531488,0.275179,0.102209,0.000000,483.000000,448.000000,35.000000,13.000000,0.000000,0.000000:
0000
0000
0000
0000
,
0000
0000
0000
0000
,
0000
0000
0000
0000
,
0000
0000
0000
0000
,
1000
1000
0010
0010
,
1000
0101
1010
0000
,
0001
0001
0100
0100
,
2020
3030
0000
0000
0000
0000
0000
0000
0001
0000
0000
0000
0000
0000
0000
0000
0100
0000
0000
0000
0000
0000
0000
0000
0001
0000
0000
0000
1000
0000
0000
0000
,
0100
0000
1000
0000
0010
0000
1000
0001
,
0010
0000
0001
0000
0100
0000
0010
1000
,
0001
0000
1000
0100
1000
0000
0020
0130
,
0001
0000
0101
0000
0100
0010
0100
0000
,
0010
0000
1010
0000
1000
0100
1000
0000
,
0001
0000
1001
0000
1000
0010
0100
0001
,
2000
0000
3002
0000
,
0013
0001
0010
0000
0001
0100
0001
0100
,
0010
1000
0010
0000
1000
0100
1000
0100
,
0010
0001
0010
0000
0001
1000
0001
1000
,
0010
1000
0100
0000
2000
3001
0100
0010
,
0100
0000
0001
0100
0001
0010
0001
1000
,
0100
0000
1000
0010
0100
0010
1000
0001
,
1000
0000
0001
0100
0001
0010
0200
0000
,
0000
0000
0300
1000
,
1000
0001
0001
1000
,
1010
0101
0000
0001
,
0001
1000
1000
0001
,
0011
1000
1100
0100
,
0100
0010
0010
0100
,
0011
1100
0000
1000
,
1000
0010
0010
0100
,
0100
0001
1000
0001
1000
0010
0100
0000
,
0100
0001
0001
1000
,
1100
0011
0000
0001
,
0001
1000
1000
0010
,
0110
0100
0110
0010
,
0010
1000
0010
0000
1010
0000
0100
0000
,
0101
0000
1100
0000
0000
0000
1000
0100
,
0010
1000
0010
0100
1000
0001
0000
0000
,
0110
0000
0001
0010
0001
0100
0010
0000
,
1000
0000
0010
0100
0010
1000
0100
0000
,
1000
0000
0010
0100
1000
0100
0010
0000
,
0100
0000
0001
0100
0010
0100
0001
0000
,
0010
0001
1000
0000
0010
1000
0001
0000
,
0100
0001
1000
0000
0100
1000
0001
0000
,
0100
0010
1000
0010
0100
0001
0010
0000
,
0001
0010
0100
1000
0010
0100
0010
0000
,
1000
1100
1000
1010
,
0001
0101
0001
0011
,
0100
0101
0100
0110
,
0010
1010
0010
0110
,
1000
0010
1000
0000
0001
0010
0001
0000
,
1000
0100
1000
0000
0001
0100
0001
0000
,
1000
0001
1000
0001
0100
0010
0100
0010
,
1000
0000
0001
0000
1000
0001
0100
0010
,
1000
0000
0010
0000
0100
0001
1000
0100
,
0010
0000
0001
0000
0100
0010
1000
0010
,
0100
0000
0001
0010
0001
0000
1000
0010
,
1000
0000
0010
1000
0100
1000
0001
0100
,
0010
0000
1000
0100
0010
0001
2000
0000
,
3001
0000
0010
0001
0100
0010
1000
0100
,
1000
0000
0010
0000
0010
0100
0010
0100
,
0010
0100
0001
0000
0001
0010
0001
1000
,
0001
0000
1000
0010
1000
0001
1000
0010
,
1000
0000
0010
0100
0001
0100
0010
1000
,
0100
0000
1000
0100
0010
0100
1000
0001
,
0010
0000
0001
0100
0010
1000
0001
0010
,
0100
0000
1000
0010
0100
1000
0100
0001
,
0100
0020
1030
0002
,
0013
0000
0100
0100
2000
0000
3001
0100
,
0010
0000
1010
0000
1000
0001
1000
0010
,
0100
0000
0001
0010
0100
0000
1000
0001
,
1000
0000
0010
1000
0010
0100
0001
0000
,
1000
0000
0010
0100
0001
1000
0001
0000
,
0101
0000
1000
0010
0100
0010
1000
0000
,
0001
0000
0010
0001
1000
0100
1000
0000
,
0010
0000
0100
0001
1000
0001
0010
0001
,
1000
0000
0010
1000
0100
1000
0001
0100
,
0010
0000
1001
0000
0001
0010
0100
0010
,
0001
0000
1000
0000
0010
0100
0001
0100
,
0010
0000
1000
0100
0001
0100
1000
0000
,
1001
0000
0001
0010
1000
0010
0001
0000
,
1001
0000
1000
0010
1000
0100
0010
0001
,
0100
0000
0001
0010
0100
1000
0001
0100
,
0010
0000
1000
0010
0100
0001
0010
0100
,
1000
0000
0000
0000
0000
0000
0000
0000
2002
3003
0000
0000
0000
0000
0000
0000
0110
0000
0000
0000
0000
0000
0000
0000
0000
0000
0000
0000
0000
0000
0000
0000
;

//---------------dance-single - ----------------
#NOTES:
     dance-single:
     :
     Hard:
     16:
     0.800827,0.830451,0.102209,0.086485,0.581807,713.000000,700.000000,13.000000,11.000000,0.000000,0.000000,0.800827,0.830451,0.102209,0.086485,0.581807,713.000000,700.000000,13.000000,11.000000,0.000000,0.000000:
// measure 0
0000
0000
0000
0000
,  // measure 1
0000
0000
0000
0000
,  // measure 2
0000
0000
0000
0000
,  // measure 3
0000
0000
0000
0000
,  // measure 4
1000
0010
1000
0010
0100
0001
0100
0001
,  // measure 5
0010
0100
0010
0000
2002
0000
3003
0000
,  // measure 6
0010
1000
0001
0100
0001
0010
1000
0100
,  // measure 7
0020
0030
0000
0000
0000
0000
0000
0000
0001
0000
0000
0000
0010
0000
0001
0000
0000
0000
0000
0000
0100
0000
0000
0000
0010
0000
0000
0000
1000
0000
0000
0000
,  // measure 8
0100
0000
1000
0000
0010
0000
0100
0010
0000
0000
1000
0000
0001
0000
0010
0000
,  // measure 9
0100
0000
1000
0000
0010
0000
1000
0001
0000
0000
0100
0000
0010
0000
1000
0000
,  // measure 10
0001
0000
0100
0000
0010
0000
1000
0100
0000
0000
1000
0000
0001
0000
0110
0000
,  // measure 11
1001
0000
1000
0010
0000
0000
0100
0000
0001
0000
0010
0000
1000
0000
0010
0000
,  // measure 12
0001
0000
0010
0100
0000
0000
1000
0000
0010
0000
0100
0000
0001
0000
0010
0000
,  // measure 13
0001
0000
1000
0010
0000
0000
0100
0000
0001
0000
0100
0000
1000
0000
0100
0000
,  // measure 14
0001
0000
0000
0101
0000
0000
0001
0000
1000
0000
0000
1010
0000
0000
1000
0000
,  // measure 15
0001
0000
0010
0001
0000
1000
0001
0000
0100
0001
0000
1000
0010
0000
0010
0000
,  // measure 16
1000
0000
0001
1000
0000
0010
1000
0000
0001
1000
0000
0010
0100
0000
0100
0000
,  // measure 17
0010
0000
1000
0001
0000
1000
0001
0000
0100
0010
0000
0100
0010
0000
1000
0000
,  // measure 18
0001
0000
0010
0100
0000
0010
0001
0000
2000
0000
3002
0000
1003
0000
0010
0100
,  // measure 19
0000
0010
1000
0000
0010
0100
0000
0010
1000
0000
0001
0000
0100
0000
0001
0100
,  // measure 20
0000
0010
0100
0000
0001
0100
0000
0010
1000
0000
0100
0000
1000
0000
0001
0010
,  // measure 21
0000
0001
1000
0000
0001
0010
0000
0001
0100
0000
0010
0000
0220
0000
0000
0000
,  // measure 22
0000
0000
0000
0000
0330
0000
1000
0100
,  // measure 23
1000
0100
1000
0010
1000
0010
0100
0001
,  // measure 24
0010
0001
1000
0100
0001
0100
0010
0001
,  // measure 25
0010
0001
1000
0100
1000
0100
0010
0100
,  // measure 26
0010
0100
1000
0001
1000
0001
0100
0010
,  // measure 27
0100
0010
0100
1000
0100
1000
0100
0001
,  // measure 28
0010
0100
1000
0001
1000
0001
0010
0100
,  // measure 29
0010
0100
1000
0010
0001
1000
0100
0010
,  // measure 30
0100
0100
0100
0100
0100
0100
0001
0010
,  // measure 31
0001
0000
0100
0000
0010
0100
0001
0000
1000
0000
0010
0000
0100
0000
1000
0000
,  // measure 32
0100
0000
0001
0000
1000
0010
0100
0000
0001
0000
0010
0000
0001
0000
1000
0000
,  // measure 33
0010
0000
1000
0000
0100
0010
0001
0000
1000
0000
0010
0000
0100
0000
0001
0000
,  // measure 34
0010
0000
0100
0000
1000
0001
1000
0000
0100
0000
0010
0000
0001
0000
0000
0000
,  // measure 35
1000
0000
0010
0100
0010
0000
1000
0000
0001
0000
0100
0000
0010
0000
1000
0000
,  // measure 36
0001
0000
0010
0100
0010
0000
0001
0000
1000
0000
0001
0000
1000
0000
0001
0000
,  // measure 37
0010
0000
0000
0000
0000
0000
1000
0000
0000
0000
0000
0000
0010
0000
0000
0001
0000
0000
0010
0000
0000
0001
0000
0000
1000
0000
0000
0100
0000
0000
2000
0000
0000
0200
0000
0000
0000
3300
0000
0000
0000
0000
0000
0000
0000
0000
0000
0000
,  // measure 38
0011
0000
0100
0010
1000
0100
0001
0100
,  // measure 39
1000
0100
0010
0100
1000
0010
0001
0010
,  // measure 40
0100
0001
0100
0010
1000
0001
0010
0001
,  // measure 41
1000
0100
0010
0001
0100
0010
0001
0010
,  // measure 42
1000
0100
0010
0100
1000
0100
0001
0100
,  // measure 43
1000
0010
0100
0010
1000
0001
0010
0001
,  // measure 44
0100
0010
0100
0001
0010
0100
1000
0100
,  // measure 45
0010
0001
0100
0010
1000
0100
1001
0000
,  // measure 46
0001
0100
0001
1000
0010
0100
1000
0100
,  // measure 47
0001
0010
0100
0010
1000
0010
0001
0100
,  // measure 48
0010
1000
0100
1000
0001
0010
1000
0001
,  // measure 49
0100
1000
0100
0001
1000
0010
0001
0000
,  // measure 50
1000
0010
1000
0010
0100
0001
0100
0001
,  // measure 51
0010
0100
0010
0100
1000
0001
1000
0001
,  // measure 52
0100
0010
0100
0010
1000
0001
1000
0001
1000
0010
1000
0010
0100
0001
0100
0001
,  // measure 53
0010
0000
0001
1000
0100
1000
0010
0100
,  // measure 54
0001
0010
0001
1000
0100
1000
0010
0100
,  // measure 55
0001
1000
0010
1000
0100
0010
0001
0100
,  // measure 56
0010
1000
0100
1000
0001
1000
0010
0100
,  // measure 57
1001
0000
0000
0000
1000
0000
0010
0000
0100
0010
0000
0100
0010
0000
1000
0001
,  // measure 58
0000
1000
0001
0000
0010
0000
0001
0000
1000
0100
0000
1000
0010
0000
0100
0001
,  // measure 59
0000
0010
0001
0000
1000
0000
0001
0000
0010
0001
0000
0100
0010
0000
1000
0100
,  // measure 60
0000
1000
0010
0000
0200
0000
0000
0000
0010
0000
0010
0000
0010
0000
0010
0000
,  // measure 61
0010
0000
0310
0000
0100
0000
0001
1000
0000
0000
0001
1000
0001
0100
0010
0000
,  // measure 62
1000
0000
0000
0000
0001
0000
0100
0010
0000
0000
1000
0001
1000
0010
0100
0000
,  // measure 63
0001
0000
0000
0000
1000
0000
0010
0100
0000
0000
0001
1000
0100
1000
0001
0000
,  // measure 64
0100
0000
0010
0000
0100
0000
0001
0010
0000
0000
0001
1000
0100
1000
0001
0000
,  // measure 65
0100
0010
0000
1000
0001
0000
1000
0010
0000
0000
0100
0000
0001
0000
1000
0010
,  // measure 66
0000
0100
0001
1000
0010
0000
1000
0100
0000
1000
0010
0000
0100
0000
0010
0000
,  // measure 67
0100
0000
0001
0000
1000
0000
0000
1010
0000
0000
1000
0000
0001
0000
0000
0011
,  // measure 68
0000
0000
0000
0001
0000
0000
0100
0000
0000
0100
0000
0000
0010
0000
0010
0000
0010
0000
1000
0000
0000
0001
0000
0000
,  // measure 69
1001
0000
0000
0000
0010
0000
1000
0001
0000
1000
0010
0000
0100
0000
0001
1000
,  // measure 70
0000
0010
0100
0000
0001
0000
0010
0001
0000
1000
0100
0000
1000
0000
0010
0100
,  // measure 71
0000
0001
0010
0000
0001
0000
1000
0010
0000
1000
0010
0000
0100
0000
0001
1000
,  // measure 72
0000
0001
1000
0000
0010
0000
1000
0100
0000
1000
0001
0000
0010
0100
0010
0000
,  // measure 73
0001
0000
1000
0000
0010
0000
0100
0010
0000
1000
0010
0000
0100
0000
0001
0100
,  // measure 74
0000
0010
0100
0000
0010
0000
1000
0001
0000
1000
0100
0000
1000
0000
0001
0010
,  // measure 75
0000
0001
0100
0000
0010
0000
1000
0001
0000
1000
0010
0000
0100
0000
0001
1000
,  // measure 76
0000
0010
0100
0000
0010
0000
1000
0100
0000
1000
0001
0000
0100
0010
0100
0000
,  // measure 77
0010
0000
1000
0000
0001
0000
0010
0001
0000
1000
0001
0000
1000
0000
0100
1000
,  // measure 78
0000
0010
1000
0000
0010
0000
0100
0001
0000
0100
0001
0000
1000
0000
0010
1000
,  // measure 79
0000
0100
1000
0000
0001
0000
0010
0100
0000
1000
0100
0000
1000
0000
0010
0100
,  // measure 80
0000
0001
0010
0000
0001
0000
1000
0100
0000
0010
0001
0000
1000
0010
0100
0000
,  // measure 81
0001
0000
1000
0000
0010
0000
1000
0010
0000
1000
0010
0000
0100
0000
0001
0100
,  // measure 82
0000
0001
0100
0000
0001
0000
1000
0100
0000
0001
0100
0000
1000
0000
0100
0001
,  // measure 83
0000
0100
1000
0000
0001
0010
0001
0000
1000
0010
1000
0000
0001
0010
0100
1000
,  // measure 84
0010
0000
0000
0100
0000
0000
0001
0000
0000
0010
0000
0000
0002
0003
0000
0000
0000
0000
0000
0000
0000
0000
0000
0000
1100
0000
0000
0000
0000
0000
0000
0000
0000
0000
0000
0000
0000
0000
0000
0000
0000
0000
0000
0000
0000
0000
0000
0000
;
