#TITLE:Artificial Mind;
#SUBTITLE:;
#ARTIST:dotĪ·;
#TITLETRANSLIT:;
#SUBTITLETRANSLIT:;
#ARTISTTRANSLIT:;
#GENRE:;
#CREDIT:;
#BANNER:Artificial_Mind_banner.png;
#BACKGROUND:Artificial_Mind.png;
#LYRICSPATH:;
#CDTITLE:;
#MUSIC:Artificial Mind.ogg;
#OFFSET:-0.070000;
#SAMPLESTART:93.550003;
#SAMPLELENGTH:12.000000;
#SELECTABLE:YES;
#BPMS:0.000000=172.000000
;
#STOPS:
;
#BGCHANGES:;
#KEYSOUNDS:;
#ATTACKS:;

//---------------dance-single - ----------------
#NOTES:
     dance-single:
     :
     Easy:
     7:
     0.298668,0.349324,0.193893,0.269764,0.004215,248.000000,225.000000,23.000000,32.000000,0.000000,0.000000,0.298668,0.349324,0.193893,0.269764,0.004215,248.000000,225.000000,23.000000,32.000000,0.000000,0.000000:
0000
0000
0000
0000
,
0000
0000
0000
0000
,
0000
0000
0000
0000
,
0000
0000
0000
0000
,
0000
0000
0000
0000
,
0010
0010
2000
0000
,
3001
0001
0200
0000
,
0310
1000
0001
0010
,
0220
0000
0330
0000
,
0001
0000
0001
1000
,
0100
0000
0010
1000
,
0001
0000
0101
0000
,
0010
0000
1100
0000
,
0001
1000
0010
0000
,
0100
0001
1000
0000
,
0011
0000
0100
0010
,
2020
0000
0000
0000
0000
3030
0000
0000
,
0100
0010
1000
0000
,
0001
0010
0100
0000
,
1000
0001
0100
0010
,
1000
0000
0101
0000
,
0010
0010
0100
0100
,
1000
0001
1000
0001
,
2000
0000
3010
0001
,
0220
0000
0000
0000
0000
0330
0000
0000
,
0001
0000
0001
1000
,
0010
0000
0010
1000
,
0100
0000
0100
0010
,
0001
0000
0001
1000
,
0010
0000
0010
1000
,
0001
0000
1010
0000
,
0100
0100
0010
0010
,
0001
1000
0001
1000
,
0002
0000
1003
0100
,
0220
0000
0000
0000
0000
0330
0000
0000
,
0100
0000
0000
0100
0000
0000
0100
0000
,
1000
0000
0000
1000
0000
0000
1000
0000
,
0001
0000
0000
0001
0000
0000
0001
0000
,
0010
0000
0000
0010
0000
0000
0010
0000
,
0001
0010
0200
0000
,
0310
0100
2000
0000
,
3010
0100
0001
1000
,
2002
0000
0000
0000
0000
3003
0000
0000
,
0010
0000
0010
0100
,
0100
0000
1000
0001
,
1000
0000
0001
0000
,
1000
0001
0010
0100
,
0100
0000
0100
0010
,
0010
0000
0001
1000
,
0001
0000
1000
0000
,
2002
0000
0000
0000
0000
3003
0000
0000
,
0100
0000
0100
0010
,
0100
0000
0011
0000
,
1100
0000
0010
1000
,
0001
0000
0101
0000
,
0010
0100
0020
0000
,
1030
0001
1000
0000
,
0011
0000
1100
0000
,
0001
1000
0010
0100
,
2002
0000
0000
0000
0000
3003
0000
0000
,
0220
0000
0000
0000
0000
0330
0000
0000
,
0100
0001
1000
0010
,
0001
0010
1000
0100
,
0010
0100
1000
0000
,
0001
0010
0100
0000
,
1000
0010
0100
0001
,
2002
0000
0000
0000
0000
3003
0000
0000
,
0010
0010
0100
0100
,
1000
0001
1000
0001
,
2000
0000
3001
0010
,
0001
0000
0101
0000
,
0100
0100
0010
0010
,
0001
1000
0001
1000
,
0002
0000
1003
0100
,
1000
0000
1010
0000
,
2002
3003
0001
0010
,
0001
0100
0010
1000
,
0200
0000
1300
0010
,
0100
0001
0010
0000
,
0001
0010
0100
1000
,
0010
0100
0001
0000
,
1000
0010
1000
0100
,
2002
0000
0000
0000
3003
0000
0000
0000
0010
0000
0000
0100
0000
0000
0010
0000
;

//---------------dance-single - ----------------
#NOTES:
     dance-single:
     :
     Medium:
     12:
     0.539529,0.593851,0.219184,0.193893,0.105377,448.000000,422.000000,26.000000,23.000000,0.000000,0.000000,0.539529,0.593851,0.219184,0.193893,0.105377,448.000000,422.000000,26.000000,23.000000,0.000000,0.000000:
0000
0000
0000
0000
,
0000
0000
0000
0000
,
0000
0000
0000
0000
,
0000
0000
0000
0000
,
0000
0000
0000
0000
,
0010
0000
0100
0000
0010
0000
1000
0000
0001
0000
0000
1100
0000
0000
0000
0000
,
0001
0010
0001
1000
0010
0100
0100
0000
,
0010
0100
0010
0100
1000
0001
1000
0001
,
2002
0000
0000
3003
,
0020
0000
0130
0000
0001
0010
0000
1001
,
0000
0100
0100
0000
0010
0000
1000
0001
,
0000
0010
0001
0000
1000
0001
0010
0100
,
0000
1000
0001
0000
0100
0000
1010
0000
,
0001
0010
0100
0000
1000
0010
0000
1001
,
0000
0100
0001
0000
0010
0001
1000
0010
,
0000
0010
1000
0000
0001
0000
0010
0100
,
0000
0100
0001
0000
0100
0000
1100
0000
,
0001
0000
0000
1000
0000
0000
0010
0000
0100
0000
0010
0000
1000
0000
0000
0000
,
0001
0000
0000
0010
0000
0000
0100
0000
1000
0000
0010
0000
0100
0000
0000
0000
,
0010
0000
0000
1000
0000
0000
0100
0000
1000
0000
0001
0000
0010
0000
0000
0000
,
0001
0000
0000
1000
0000
0000
0010
0000
0100
0000
0000
0000
1001
0000
0000
0000
,
0010
0000
0000
0001
0000
0000
0100
0000
0010
0000
1000
0000
0001
0000
1000
0000
,
0010
0000
0000
1000
0000
0000
0100
0000
0010
0000
0001
0000
1000
0000
0001
0000
,
0100
0000
0000
0010
0000
0000
0010
0000
1000
0000
0100
0000
0010
0000
0001
0000
,
0202
0000
0000
0303
,
0010
0000
0000
0100
0000
0000
0100
0000
0001
0000
1000
0000
0200
0000
0000
0000
,
1300
0000
0000
0010
0000
0000
0001
0000
1000
0000
0001
0000
0010
0000
0000
0000
,
0010
0100
0010
0100
0000
1000
0001
1000
,
0010
0100
0010
0100
0000
1000
0001
1000
,
0100
0010
0100
0010
0000
0001
1000
0001
,
0200
0000
0000
0300
,
0010
1000
0010
1000
0000
0001
0010
0100
,
0010
0001
0010
0100
0000
1000
0010
0100
,
0001
0100
0010
0100
0000
0001
1000
0100
,
2000
0000
3001
0000
0100
0010
0100
0000
,
0001
0000
0000
0010
0000
0000
0100
0000
0000
0000
1000
0000
0010
0000
1000
0000
,
0100
0000
0000
1000
0000
0000
0001
0000
0000
0000
1000
0000
0010
0000
0100
0000
,
0001
0000
0000
1000
0000
0000
0001
0000
0000
0000
0010
0000
0001
0000
1000
0000
,
0010
0000
0000
0100
0000
0000
0010
0000
0000
0000
1000
0000
0100
0000
0010
0000
,
0001
0000
0100
0000
0010
0000
0100
0000
0010
0000
0000
1001
0000
0000
0000
0000
,
1000
0010
0100
0001
0010
0010
0010
0000
,
0001
0100
0010
1000
0100
0010
0001
1000
,
0020
0000
0000
0030
,
0200
0000
0301
0010
,
0012
0000
1003
1100
,
0010
0100
0010
0100
0000
0001
0010
0001
,
1000
0100
1000
0100
0000
0100
0010
0100
,
1000
0010
1000
0010
0000
0010
0001
0010
,
1000
0000
0010
0100
0000
0100
0002
0000
,
0013
0000
0000
0100
0000
0000
1000
0000
0000
0010
0000
0000
0101
0000
0000
0000
,
2020
0000
0000
3030
,
0110
0000
0001
0000
,
0100
0000
0000
0010
0000
0000
0100
0000
0010
0000
1000
0000
1000
0000
0000
0000
,
0011
0000
1000
0000
,
0001
0000
0000
1000
0000
0000
0001
0000
0010
0000
0000
0000
0101
0000
0000
0000
,
0010
0100
1000
0200
0001
0000
0301
0000
,
0100
0010
0001
0020
1000
0000
1030
0000
,
0110
0000
0000
0001
0000
0000
0001
0000
1001
0000
0000
0100
0000
0000
0100
0000
,
0110
0000
1010
0000
0001
0010
0100
1000
,
0002
0000
0000
0000
,
0000
0000
0000
0003
,
0100
0000
0000
0000
0100
0000
0000
0000
0010
0000
0000
0010
0000
0000
0010
0000
,
1000
0000
0000
0000
1000
0000
0000
0000
0001
0000
0000
0001
0000
0000
0001
0000
,
0010
0100
1000
0000
0001
0010
0100
0000
,
1000
0010
0100
0000
0010
0100
0001
0000
,
1000
0001
0010
0100
1000
0001
0100
0010
,
2000
0000
0000
3000
,
0101
0000
0010
1000
0100
1000
0000
0101
,
0000
0010
1000
0001
0010
0001
1000
0020
,
0000
0130
0001
0000
0010
0100
1000
0002
,
0000
1003
0010
1000
0001
0000
1100
0000
,
0010
1000
0100
1000
0001
0010
0000
0101
,
0000
0010
0100
0000
0001
0010
0100
1000
,
0100
0000
0000
0010
0000
0000
0100
0000
1000
0000
0010
0000
0100
0000
0001
0000
,
0020
0100
0100
0130
,
0220
0000
0330
0000
1000
0001
0100
0000
,
0010
0000
1000
0001
0010
0100
1000
0000
,
0010
0000
0100
0010
0100
1000
0100
0000
,
0001
0010
0100
0010
0001
1000
0001
0000
,
0010
0100
0010
0100
1000
0001
1000
0000
,
0100
0010
0100
0010
0001
1000
0001
0000
,
1000
0100
1000
0100
0010
0001
0010
0000
,
0100
0000
0001
0000
0100
0000
1000
0000
0010
0000
0000
1000
0000
0000
0101
0000
;

//---------------dance-single - ----------------
#NOTES:
     dance-single:
     :
     Hard:
     15:
     0.767143,0.873310,0.337206,0.202323,0.526884,637.000000,597.000000,40.000000,24.000000,0.000000,0.000000,0.767143,0.873310,0.337206,0.202323,0.526884,637.000000,597.000000,40.000000,24.000000,0.000000,0.000000:
// measure 0
0000
0000
0000
0000
,  // measure 1
0000
0000
0000
0000
,  // measure 2
0000
0000
0000
0000
,  // measure 3
0000
0000
0000
0000
,  // measure 4
0000
0000
0000
0000
,  // measure 5
0010
0000
0100
0000
0010
0100
0010
0100
1000
0000
0000
0101
0000
0000
1000
0000
,  // measure 6
0010
0000
1000
0001
1000
0000
0010
0000
0100
0000
0001
0000
0001
0000
0000
0000
,  // measure 7
1000
0010
1000
0010
0100
0000
0001
0000
0010
0100
0010
0100
1000
0000
0001
0000
,  // measure 8
2002
0000
0000
3003
,  // measure 9
0110
0000
0001
0000
0100
1000
0000
0110
,  // measure 10
0000
0001
0001
0000
1000
0100
1000
0020
,  // measure 11
0000
0100
0130
0000
0001
0010
0100
0020
,  // measure 12
0000
0001
0031
0100
0010
0000
1001
0000
,  // measure 13
0100
0000
0010
1000
0100
0010
0000
1100
,  // measure 14
0000
0001
0010
0001
1000
0010
0100
0001
,  // measure 15
0000
0010
0110
0000
1000
0100
0010
0011
,  // measure 16
0000
1000
0001
0010
1000
0001
0100
1000
,  // measure 17
1000
0000
0010
0100
0000
0001
0010
0000
0001
0000
1000
0100
1000
0000
0010
0000
,  // measure 18
0100
0000
0001
1000
0000
0001
1000
0000
0010
0000
0100
0000
1000
0000
0100
0000
,  // measure 19
0001
0000
0010
0001
0000
1000
0001
0000
0010
0000
0001
1000
0100
0000
0010
0000
,  // measure 20
0001
0000
0010
0100
0000
0010
0001
0000
1000
0000
0010
0100
0010
0000
1000
0000
,  // measure 21
0001
0000
1000
0100
0000
0010
0001
0000
0100
0000
0010
1000
0001
0000
0010
0000
,  // measure 22
0100
0000
1000
0001
0000
0010
0001
0000
1000
0000
0010
0000
0001
0000
0010
0000
,  // measure 23
0100
0000
0001
0100
0000
0010
1000
0000
0100
0000
1000
0010
1000
0000
0001
0000
,  // measure 24
0022
0000
0000
0033
,  // measure 25
0100
0000
0000
0011
0000
0000
0100
0000
1000
0000
0001
0100
0001
0000
0000
0000
,  // measure 26
1010
0000
0000
0011
0000
0000
0110
0000
1000
0000
0010
0100
0002
0000
0000
0000
,  // measure 27
1003
0010
0001
0020
0000
0130
0001
0100
,  // measure 28
0001
0010
1000
0020
0000
0130
0110
0000
,  // measure 29
1000
0100
0001
0200
0000
0010
0310
0001
,  // measure 30
0100
0000
0010
0100
0000
0010
0100
0000
0010
0000
1000
0001
1000
0000
0000
0000
,  // measure 31
0001
0100
1000
0200
0000
0010
0310
1000
,  // measure 32
0100
0001
0100
2000
0000
0010
3010
0100
,  // measure 33
0001
0010
1000
0020
0000
0100
0130
1000
,  // measure 34
0001
0000
0100
0000
0010
1000
0000
0001
0100
0000
0010
0100
0010
0000
1000
0000
,  // measure 35
0001
0000
0100
0001
0000
1000
0010
0000
0000
0100
0010
0000
1000
0000
0100
0000
,  // measure 36
1000
0000
0001
0010
0000
0001
0100
0000
0000
0010
1000
0000
0100
0000
1000
0000
,  // measure 37
0001
0000
0010
0001
0000
0100
0010
0000
0000
1000
0001
0000
1000
0000
0010
0000
,  // measure 38
0100
0000
0001
0010
0000
0001
1000
0000
0000
0010
0100
0000
0010
0000
0010
0000
,  // measure 39
1000
0000
0100
0000
0010
0000
0001
0000
0101
0000
0000
1010
0000
0000
0100
0000
,  // measure 40
0010
0000
1000
0000
0001
0010
0100
0000
1000
0000
1000
0000
1001
0000
0000
0000
,  // measure 41
0001
0010
0001
0010
0100
0000
1000
0000
0010
1000
0010
1000
0100
0000
0001
0000
,  // measure 42
0020
0000
0000
0130
,  // measure 43
1000
0000
0000
1000
0000
0000
1000
0000
0000
0000
0010
0000
0100
0000
0010
0000
,  // measure 44
0100
0000
0000
0100
0000
0000
0100
0000
0001
0000
0010
0000
1001
0000
0000
0000
,  // measure 45
0100
0000
0010
0000
1000
0000
0001
0010
0000
0001
0010
0000
0100
0000
1000
0000
,  // measure 46
0010
0000
0100
0000
0001
0000
1000
0010
0000
0100
0001
0000
1000
0000
0010
0000
,  // measure 47
1000
0000
0001
0000
0010
0000
0100
1000
0000
0100
1000
0000
0010
0000
1000
0000
,  // measure 48
0001
0000
1000
0000
0100
0000
1000
0001
1000
0000
0010
0000
0100
0000
0100
0000
,  // measure 49
0010
0000
0000
1010
0000
0000
0011
0000
0000
1000
0001
0000
0010
0000
0010
0000
,  // measure 50
0220
0000
0000
0330
,  // measure 51
1100
0000
0000
0001
0000
0000
0001
0000
0100
0000
0010
0000
0100
0000
0000
0000
,  // measure 52
0011
0000
0000
1010
0000
0000
1001
0000
0100
0000
0010
0100
0002
0000
0000
0000
,  // measure 53
0013
0000
0100
1000
0000
0100
1000
0000
0001
0000
1000
0000
0010
0000
0000
0000
,  // measure 54
0101
0000
0000
0010
0000
0000
0010
0000
1000
0000
0100
0000
1001
0000
0000
0000
,  // measure 55
0100
0000
0001
0010
0000
0100
1000
0000
0010
0000
0010
0000
0010
0000
0000
0000
,  // measure 56
1001
0000
0100
0010
0000
1000
0001
0000
0100
0000
0100
0000
0100
0000
0000
0000
,  // measure 57
0011
0000
0000
0100
0000
0000
1000
0000
1010
0000
0000
0100
0000
0000
0001
0000
,  // measure 58
0011
0000
1000
0000
0110
0000
0001
0000
1000
0001
1000
0001
0100
0010
0100
0010
,  // measure 59
2000
0000
0000
0000
0000
0000
0100
0000
0000
0000
0100
0000
0000
3100
0000
0100
,  // measure 60
0020
0000
0000
0000
0000
0000
0001
0000
0000
0000
0001
0000
0000
0031
0000
0001
,  // measure 61
0200
0000
0010
0000
0000
0000
0010
0000
0000
0000
0010
0000
0000
0310
0000
0010
,  // measure 62
2000
0000
0100
0000
0000
0000
0100
0000
0000
0000
3100
0000
0000
0000
1000
0001
,  // measure 63
1000
0010
1000
0010
0100
0001
0100
0001
,  // measure 64
0010
0100
0010
0100
1000
0001
1000
0001
,  // measure 65
1000
0010
1000
0010
0100
0001
0100
0001
0010
0001
0010
0001
1000
0100
1000
0100
,  // measure 66
0020
0000
0000
0030
,  // measure 67
0100
0000
1000
0000
0010
0000
1000
0000
0001
0000
0010
0001
0100
0000
0010
0000
,  // measure 68
1000
0000
0001
0010
0000
0001
1000
0000
0010
0000
0100
0000
0001
0000
0011
0000
,  // measure 69
0000
0000
1000
0000
0010
0000
0100
0000
0010
0000
1000
0001
0100
0000
0020
0000
,  // measure 70
0000
0000
0130
0001
1000
0000
0010
0000
0100
0000
0010
0000
1001
0000
0000
0000
,  // measure 71
0010
0000
0100
0000
1000
0000
0001
0000
1000
0000
0010
0100
0001
0000
0010
0000
,  // measure 72
0000
0000
0010
0100
1000
0000
0010
0000
0100
0000
0001
0000
0010
0000
0001
0000
,  // measure 73
1100
0000
0000
0101
0000
0000
0010
0000
1000
0000
0001
0010
0100
0000
1000
0010
,  // measure 74
0100
0000
0001
0000
0000
0000
0010
0000
0001
0100
0010
1000
0100
0000
0100
0000
,  // measure 75
2000
0000
0000
0000
0000
0000
3010
0100
0001
0000
0010
0001
1000
0000
0010
0000
,  // measure 76
1000
0000
0001
0010
0000
0001
0100
0000
0010
0000
1000
0000
0010
0000
0001
0000
,  // measure 77
0010
0000
1000
0100
0010
0000
0001
0000
0100
0000
0001
0000
0010
0000
0100
0000
,  // measure 78
1000
0000
0100
0001
0000
0100
1000
0000
0010
0000
0100
0000
0101
0000
0000
0000
,  // measure 79
0010
0000
1000
0000
0001
0000
0010
0000
0001
0000
1000
0001
0100
0000
0010
0000
,  // measure 80
1000
0000
0001
0010
0000
0001
1000
0000
0010
0000
1000
0000
0100
0000
0010
0000
,  // measure 81
0001
0010
0001
0000
1000
0010
1000
0000
0001
0000
0001
0000
1000
0100
0010
0001
,  // measure 82
0000
0000
0100
0010
0100
0000
0010
0000
1010
0000
0000
0011
0000
0000
1100
0000
;
