#TITLE:Arcanos;
#SUBTITLE:;
#ARTIST:DJ Totoriott;
#TITLETRANSLIT:;
#SUBTITLETRANSLIT:;
#ARTISTTRANSLIT:;
#GENRE:;
#CREDIT:;
#BANNER:Arcanos_banner.png;
#BACKGROUND:Arcanos.png;
#LYRICSPATH:;
#CDTITLE:;
#MUSIC:Arcanos.ogg;
#OFFSET:0.990000;
#SAMPLESTART:1.170000;
#SAMPLELENGTH:12.000000;
#SELECTABLE:YES;
#BPMS:0.000000=96.000000
,125.000000=192.000000
,197.000000=96.000000
;
#STOPS:100.000000=1.250000
;
#BGCHANGES:;
#KEYSOUNDS:;
#ATTACKS:;

//---------------dance-single - ----------------
#NOTES:
     dance-single:
     :
     Easy:
     4:
     0.142897,0.209991,0.125035,0.232207,0.000000,112.000000,98.000000,14.000000,26.000000,0.000000,0.000000,0.142897,0.209991,0.125035,0.232207,0.000000,112.000000,98.000000,14.000000,26.000000,0.000000,0.000000:
0000
0000
0000
0000
,
0000
0000
0000
0000
,
0000
0000
0000
0000
,
0000
0000
0000
0000
,
1000
0000
0000
0001
0000
0000
0010
0000
,
0000
0100
0000
0000
1000
0000
0000
0010
,
0000
0000
0100
0000
0000
0110
0000
0000
,
0001
0000
0000
0010
0000
0000
0100
0000
,
0000
1000
0000
0000
0010
0000
0000
0100
,
0000
0000
0001
0000
0000
0020
0000
0000
,
0031
0000
0000
1000
0000
0000
0100
0000
,
0000
1000
0000
0000
0010
0000
0000
0100
,
0000
0000
0001
0000
0000
2002
3003
0000
,
0010
0000
0000
0010
0000
0000
0001
0000
,
0000
0001
0000
0000
0100
0000
0000
0100
,
0000
0000
0010
0000
0000
0010
0000
0000
,
1000
0000
0000
1000
0000
0000
0001
0000
,
0000
0001
0000
0000
1000
0000
0000
0010
,
0000
0000
0100
0000
0000
0001
0000
0000
,
0011
0000
0000
0001
0000
0000
1100
0000
,
0000
1000
0000
0000
1010
0000
0000
0010
,
0000
0000
0110
0000
0000
0100
0000
0000
,
0001
0000
0010
0010
0000
0000
1000
0000
,
0100
0100
0000
0000
0020
0000
0000
0130
,
0000
0000
2000
0000
0000
3001
0000
0000
,
0000
0000
0200
0000
0000
0300
0000
0000
,
0002
0000
0000
0003
0000
0000
0020
0000
,
0000
0030
0000
0000
2000
0000
0000
3000
,
0000
0000
0001
0000
0000
0010
0000
0000
,
0100
0000
0000
1000
0000
0000
0010
0000
,
0000
0100
0000
0000
0220
0000
0000
0330
,
0000
1000
0000
0000
,
0010
0000
0000
0200
,
0000
0300
0001
0000
,
0000
0010
0000
0000
,
0001
0000
0000
1000
,
0000
0000
2002
0000
,
3003
0100
0000
0000
,
0010
0000
0000
0100
,
0000
0000
0001
0000
,
0000
0010
0000
0000
,
0100
0000
0000
1000
,
0000
0000
0001
0000
,
0000
0000
2002
0000
0000
3003
0000
0000
,
0100
0000
0000
2002
,
0000
3003
0000
0000
0010
0000
0000
0000
,
0000
0000
2002
0000
0000
3003
0000
0000
,
0010
0000
0000
2002
,
0000
3003
0000
0000
0100
0000
0000
0000
,
0000
0000
0220
0000
0000
0330
0000
0000
,
0001
0000
0000
1000
,
0000
0000
0000
0000
0010
0000
0000
2002
,
0000
3003
0000
0000
;

//---------------dance-single - ----------------
#NOTES:
     dance-single:
     :
     Medium:
     9:
     0.340656,0.419982,0.080379,0.187552,0.178621,267.000000,258.000000,9.000000,21.000000,0.000000,0.000000,0.340656,0.419982,0.080379,0.187552,0.178621,267.000000,258.000000,9.000000,21.000000,0.000000,0.000000:
0000
0000
0000
0000
,
0000
0000
0000
0000
,
0000
0000
0000
0000
,
0000
0000
0000
0000
,
1000
0000
0000
0010
0000
0000
0100
0000
0010
0000
0100
0000
0001
0000
0000
0010
,
0000
0000
0001
0000
0100
0000
0010
0000
1000
0000
0000
0100
0000
0000
1000
0000
,
0010
0000
0100
0000
0001
0000
0000
0010
0000
0100
0020
0000
0000
0030
0000
0000
,
0001
0000
0000
1000
0000
0000
0010
0000
0100
0000
0010
0000
1000
0000
0000
0100
,
0000
0000
0020
0000
0000
0000
0130
0000
1000
0000
0000
0001
0000
0000
0100
0000
,
0010
0000
1000
0000
0100
0000
0000
0010
0000
0000
0002
0000
0000
0000
0103
0000
,
0010
0000
0000
0100
0000
0000
0001
0000
1000
0000
0100
0000
1000
0000
0000
0010
,
0000
0000
0100
0000
0010
0000
1000
0000
0001
0000
0000
0010
0000
0000
0100
0000
,
0010
0001
1000
0010
0100
0020
0000
1030
,
1000
0000
0000
0001
0000
0000
0010
0000
0001
0000
0100
0000
0010
0000
0000
0010
,
0000
0000
1000
0000
0100
0000
0010
0000
0001
0000
0000
0001
0000
0000
0010
0000
,
0100
0000
1000
0000
0010
0000
0000
0100
0000
0000
0020
0000
0000
0000
1030
0000
,
1000
0000
0000
0011
0000
0000
0100
0000
0001
0000
1000
0000
0010
0000
0000
1100
,
0000
0000
0001
0000
0100
0000
0010
0000
1000
0000
0000
1010
0000
0000
0001
0000
,
0000
0101
0000
0000
0010
0000
0100
0000
1000
0000
0002
0000
0000
0000
0003
0000
,
0100
0010
0000
0100
0010
0000
2000
0000
0000
0000
3000
0000
0001
0010
0000
0001
,
0010
0000
0200
0000
0000
0000
0300
0000
1000
0001
0000
1000
0001
0000
0020
0000
,
0000
0000
0030
0000
0001
1000
0000
0001
1000
0000
0100
0000
0000
0000
0100
0000
,
1000
0001
0000
1000
0001
0000
0010
0000
0001
0000
0000
0000
0010
0100
0000
0010
,
0100
0000
1000
0000
0010
0000
0000
0000
0100
0010
0000
0100
0010
0000
1000
0000
,
0001
0000
0010
0000
0022
0000
0000
0033
0000
0000
1000
0000
0010
0000
0110
0000
,
0000
0000
0000
0000
0001
0000
0000
0010
0000
0000
0200
0000
0000
0000
0300
0000
,
1000
0000
0000
0010
0000
0000
0200
0000
0000
0000
0300
0000
0001
0000
0000
1000
,
0000
0000
0010
0000
0000
0000
1000
0000
0100
0000
0000
1000
0000
0000
0001
0000
,
0010
0000
0000
0000
1001
0000
0000
0010
0000
0000
0100
0000
0000
0000
0010
0000
,
1000
0000
0000
0001
0000
0000
0010
0000
0000
0000
0001
0000
1000
0000
0100
0000
,
0010
0001
0000
0001
0010
0100
2000
0002
,
0000
3003
0100
0000
0010
0100
0010
0000
,
2000
0001
0000
3001
,
0010
0000
0001
1000
0010
0000
0100
0000
,
0010
0000
0100
0000
0001
0010
0001
0000
,
1000
0010
0100
0001
,
0100
0010
1000
0000
0100
0000
0010
0000
,
0010
0000
0001
0000
1000
0010
0100
0000
,
0002
1000
0000
1003
,
0010
0100
0010
1000
,
0001
0010
0001
0000
1000
0000
0010
0000
,
1010
0000
0100
0001
,
1000
0000
0001
0000
0010
0100
0010
0100
,
0010
0000
0001
1000
0000
0001
1000
0000
,
0010
0000
0100
0000
0001
0000
1000
0100
,
0000
1000
0100
0000
0010
0000
0100
0000
,
1000
0000
0001
0010
0000
0001
0010
0000
,
0100
0000
1000
0000
0010
0000
0100
0001
,
0000
1000
0010
0000
1000
0000
0001
0000
,
0010
0000
0110
0000
0000
1000
0000
0000
,
0010
0000
0000
0001
0000
0000
0200
0000
,
0000
2300
0000
0000
3020
0000
0000
0032
,
0000
0003
0000
0000
;

//---------------dance-single - ----------------
#NOTES:
     dance-single:
     :
     Hard:
     15:
     0.674932,0.744849,0.509069,0.133966,0.544794,529.000000,472.000000,57.000000,15.000000,0.000000,0.000000,0.674932,0.744849,0.509069,0.133966,0.544794,529.000000,472.000000,57.000000,15.000000,0.000000,0.000000:
0000
0000
0000
0000
,
0000
0000
0000
0000
,
0000
0000
0000
0000
,
0000
0000
0000
0000
,
1001
0000
0100
0010
0100
0000
0001
0000
0010
0100
1000
0000
0010
0000
1000
0010
,
0100
0000
0001
0010
0100
0010
0001
0000
1001
0000
0100
0010
1000
0000
0001
1000
,
0010
0000
0100
0000
0010
0100
0001
0010
0100
1000
0100
0001
0100
1000
0010
0100
,
0001
0000
0010
0100
1000
0100
0010
0000
0100
0000
1000
0000
0010
0000
0100
0001
,
0010
0001
0100
0000
0010
0000
1000
0000
0001
0000
0100
0010
1000
0010
0100
0000
,
0001
0000
1000
0000
0100
0000
0100
0010
0000
0010
0001
0100
1000
0100
0001
0000
,
1000
0000
0100
0010
0001
0010
0100
0000
0010
0000
0001
0000
0100
0000
0010
1000
,
0100
1000
0010
0000
0100
0000
0001
0000
1000
0000
0010
0100
0001
0100
0010
0000
,
1000
0000
0001
0000
0010
0001
0100
0010
1000
0010
0001
0000
0110
0000
0100
0000
,
1001
0000
1000
0001
0010
0001
1000
0000
1010
0000
0010
0000
0100
0001
0010
0001
,
1000
0010
0100
0000
0110
0000
0010
0000
1000
0000
0001
0100
0010
1000
0100
0010
,
0100
1000
0001
0000
0100
0010
0001
0010
0100
0010
0100
0001
1001
0000
1010
0000
,
0101
0000
0010
0001
1000
0001
0010
0000
0110
0000
0100
0000
1000
0100
0010
0001
,
0100
0001
0010
0100
0010
0001
1000
0010
1000
0000
1000
0001
0010
0001
0100
0000
,
0010
0000
0010
0100
0001
0000
1000
0010
0000
0001
0010
0000
0100
0000
0110
0000
,
0001
0011
0000
1000
1100
0000
1010
0000
0100
0000
0100
0000
0001
1001
0000
0010
,
0011
0000
1000
0000
0010
0000
0010
0000
0100
0101
0000
0010
1010
0000
0100
0000
,
0001
0000
0001
0000
0010
0110
0000
0100
1100
0000
1000
0010
0100
0001
0020
0000
,
0031
0100
1000
0100
0001
0010
0100
1000
0100
0001
0100
1000
0010
0100
1000
0100
,
0001
1000
0100
0001
0100
1000
0020
0000
0130
0000
0001
0100
1000
0001
0010
0000
,
1010
0000
0011
0000
1000
0100
0001
1000
0010
0001
1000
0000
0110
0000
1001
0000
,
0000
0000
0000
0000
0011
0000
1000
0010
0100
0010
1000
0000
0100
0000
0010
0000
,
0011
0000
0001
0100
0010
0100
0001
0000
1000
0000
0010
0000
0110
0000
0100
1000
,
0100
0001
0100
0000
0010
0000
1000
0000
1010
0000
0100
0010
0100
1000
0001
0000
,
0100
0000
0010
0000
0101
0000
0010
0100
1000
0001
1000
0000
0010
0100
0001
0000
,
0011
0000
1000
0001
0010
0100
1000
0000
0010
1000
0100
0000
1001
0000
0100
0010
,
0100
0001
0010
0100
0010
0001
0010
1000
0010
0001
0010
0100
0010
0001
0010
0100
,
1000
0000
1001
0000
0110
0000
0000
0000
0010
0000
1000
0100
0010
0000
0001
0100
,
0020
0000
1000
1000
1030
0000
0110
0000
,
0001
0000
1000
0010
0100
0000
0001
0010
0100
0000
1000
0000
0100
0000
0001
0000
,
0100
1000
0002
0000
0103
1000
0100
0001
,
0010
1000
0010
0001
0100
0010
1000
0001
,
0010
0000
1000
0000
0001
0000
0100
0000
1000
0010
1000
0000
0001
0010
0001
0000
,
0100
0000
0000
0000
0110
0000
0000
0000
0100
0000
0001
0010
0100
0000
1000
0010
,
0200
0000
0001
0001
0301
0000
0110
0000
,
1000
0000
0001
0100
0010
0000
1000
0100
0010
0000
0001
0000
0010
0000
1000
0000
,
0010
0001
1001
0000
0100
0001
1000
0001
,
0010
0100
1000
0010
0100
0001
1001
0000
,
0110
0000
1001
0000
0010
0100
0010
0100
,
0001
0100
0010
1000
0001
0000
0011
0000
0000
0000
1000
0000
1100
0000
0000
0000
,
1010
0000
0210
0000
0301
0000
1000
1010
,
0000
0001
0101
0000
0011
0000
0210
0000
,
1300
0000
0110
0110
0000
1001
1001
0000
,
0001
0000
0010
0000
1000
0000
0010
0000
0001
1000
0010
0000
1010
0000
1010
0000
,
0000
0011
0011
0000
0100
0001
1000
0010
,
1000
0100
0010
0001
0020
0000
0100
0000
0130
0000
2000
0000
0010
0000
3010
0000
,
0200
0001
0301
0020
0100
0130
1002
0100
,
0103
2000
0010
3010
0002
0010
0013
2000
,
0100
3100
0000
0000
0000
0000
0000
0000
;
