#TITLE:Arcana;
#SUBTITLE:;
#ARTIST:Maozon;
#TITLETRANSLIT:;
#SUBTITLETRANSLIT:;
#ARTISTTRANSLIT:;
#GENRE:UPLIFTING TRANCE;
#CREDIT:;
#BANNER:Arcana_banner.png;
#BACKGROUND:Arcana.png;
#LYRICSPATH:;
#CDTITLE:;
#MUSIC:Arcana.ogg;
#OFFSET:0.310000;
#SAMPLESTART:55.070000;
#SAMPLELENGTH:15.000000;
#LASTBEATHINT:262.000000;
#SELECTABLE:YES;
#BPMS:0.000000=143.000000
;
#STOPS:
;
#BGCHANGES:;
#KEYSOUNDS:;
#ATTACKS:;

//---------------dance-single - ----------------
#NOTES:
     dance-single:
     :
     Easy:
     6:
     0.240477,0.280557,0.043163,0.302138,0.000000,195.000000,190.000000,5.000000,35.000000,0.000000,0.000000,0.240477,0.280557,0.043163,0.302138,0.000000,195.000000,190.000000,5.000000,35.000000,0.000000,0.000000:
0000
0000
0000
0000
,
0000
0000
0000
0000
,
0000
0000
0000
0000
,
0000
0000
0000
0000
,
0000
0000
0000
0000
,
2000
0010
0000
3010
,
0020
0100
0000
0130
,
0200
0001
0000
0301
,
0022
0000
0033
0000
,
1000
0001
0010
0001
,
1000
0100
0010
0100
,
1000
0010
0100
0001
,
0010
0001
0100
0010
,
2000
0100
0000
0100
,
3002
0100
0000
0103
,
0010
0100
0001
1000
,
0020
0030
0020
0030
0020
0030
0100
0000
,
0002
0010
0000
0013
,
0200
1000
0000
1300
,
1000
0001
0010
0100
,
0010
0001
1000
0100
,
2000
0010
0000
0010
,
3002
0010
0000
0013
,
0100
0010
1000
0100
,
0220
0000
0000
0000
0000
0330
0000
0000
,
0001
0100
0001
0000
,
1000
0100
1000
0000
,
0001
0010
0001
0000
,
1000
0010
1000
0000
,
0001
0010
0100
0000
,
1000
0010
0100
0000
,
0001
1000
0100
0010
,
2002
0000
3003
0000
,
0020
0100
0000
0130
,
0002
1000
0000
1003
,
2000
0100
0000
3100
,
0010
0001
1000
0010
,
0200
0001
0000
0301
,
2000
0010
0000
3010
,
1000
0001
0010
0100
,
0020
0030
0020
0030
0000
0010
0000
0000
,
0001
0100
0010
1000
,
0100
0010
0100
1000
,
0001
0010
0100
1000
,
0010
0100
0010
1001
,
0100
0001
1000
0010
,
1000
0001
0010
0100
,
1000
0010
0100
0010
,
0001
1000
0100
0010
,
2000
0000
0000
3000
,
0002
0000
0000
0003
,
0020
0000
0000
0030
,
0200
0000
0000
0300
,
0010
0001
0000
0001
,
1000
0100
0000
0100
,
1000
0001
0010
0100
,
0220
0000
0330
0000
,
0001
0010
0001
1000
,
0010
0100
0020
0000
,
1030
0100
0010
0100
,
0010
0001
2000
0000
,
3010
0100
0010
1000
,
0001
0010
0200
0000
,
0310
0001
1000
0010
,
2000
0000
0100
3100
,
0010
0000
0000
0000
;

//---------------dance-single - ----------------
#NOTES:
     dance-single:
     :
     Medium:
     11:
     0.456290,0.476947,0.207181,0.267608,0.151069,370.000000,346.000000,24.000000,31.000000,0.000000,0.000000,0.456290,0.476947,0.207181,0.267608,0.151069,370.000000,346.000000,24.000000,31.000000,0.000000,0.000000:
0000
0000
0000
0000
,
0000
0000
0000
0000
,
0000
0000
0000
0000
,
0000
0000
0000
0000
,
0000
0000
0000
0000
,
0010
0001
0100
0000
0010
1000
0100
0010
,
0100
1000
0001
0000
0100
0010
1000
0001
,
0010
0001
1000
0000
0010
1000
0001
0000
,
0220
0000
0330
0000
1000
0100
0001
0000
,
0200
0000
1000
0000
1300
0000
0000
0000
0002
0000
0000
0010
0000
0000
0013
0000
,
0100
0000
1000
0000
0010
0000
0000
0000
0200
0000
0000
0001
0000
0000
0301
0000
,
1000
0000
0010
0000
1000
0000
0000
0000
0001
0000
0000
0010
0000
0000
0100
0000
,
1000
0000
0001
0000
1000
0000
0000
0000
0010
0000
0000
0110
0000
0000
1000
0000
,
0001
0010
0001
1000
0000
0100
0010
0100
,
1000
0000
0001
0000
0001
0000
0000
0000
0020
0000
0000
0100
0000
0000
0130
0000
,
1000
0000
0001
0000
0100
0000
0010
0000
0100
0000
0000
0010
0000
0000
1000
0000
,
0001
1100
0101
0120
,
1030
0000
0100
0000
0001
0000
0000
0000
0001
0000
0000
0100
0000
0000
1000
0000
,
0010
0000
0100
0000
0010
0000
0000
0000
1000
0000
0000
0001
0000
0000
0010
0000
,
0001
0010
0100
0000
0010
0100
1000
0001
,
0100
0010
1000
0000
0010
0100
0001
0010
,
0200
0000
1000
0000
1300
0000
0000
0000
0020
0000
0000
0100
0000
0000
0130
0000
,
0001
0000
0010
0000
0001
0000
0000
0000
2000
0000
0000
0100
0000
0000
3100
0000
,
0010
0000
0001
0000
1000
0000
0000
0000
0020
0000
0000
0100
0000
0000
0130
0000
,
0001
1001
0110
1100
,
0001
0000
0010
0000
0100
0000
0000
0000
1000
0000
0000
0010
0000
0000
1000
0000
,
0001
0000
0100
0000
0010
0000
0000
0000
0100
0000
0000
0001
0000
0000
1000
0000
,
0001
0000
0010
0000
0000
0000
0001
0000
0100
0000
0000
0100
0000
0000
0100
0000
,
2000
3200
0320
2030
,
3001
0000
0010
0000
0001
0000
0000
0000
0100
0000
0000
0010
0000
0000
1000
0000
,
0100
0000
0000
0001
0000
0000
0100
0000
1000
0000
0000
0010
0000
0000
0010
0000
,
0200
0001
0010
1300
,
2002
0000
0000
0000
0000
3003
0000
0000
,
0010
0000
0000
0100
0000
0000
0001
0000
0010
0000
0000
0100
0000
0000
1000
0000
,
0100
0000
0000
1000
0000
0000
0001
0000
0100
0000
0000
0010
0000
0000
0100
0000
,
0001
0000
0000
1000
0000
0000
0100
0000
0010
0000
0000
0100
0000
0000
0001
0000
,
0100
0000
0000
1000
0000
0000
0010
0000
0001
0000
0000
0010
0000
0000
1000
0000
,
0010
0000
0000
0100
0000
0000
0001
0000
1000
0000
0000
0100
0000
0000
0010
0000
,
0001
0000
0000
1000
0000
0000
0001
0000
0010
0000
0000
0100
0000
0000
0010
0000
,
0001
1000
0100
0000
1000
0001
0010
0000
,
0110
0000
2002
3003
0000
0220
0330
0000
,
0010
1000
0010
0100
0001
0100
0010
0000
,
1000
0001
0010
0100
0010
0001
1000
0000
,
0010
1000
0001
1000
0100
0010
0001
0000
,
0100
0010
1000
0010
0100
0001
0010
0000
,
0001
0100
0010
1000
0100
0010
0001
0000
,
1000
0010
1000
0001
0010
0100
1000
0000
,
0010
1000
0001
0100
0001
0010
0100
0000
,
0010
0001
0100
0010
1000
0100
0010
0000
,
0002
1000
1000
1003
,
0200
0010
0010
0310
,
0010
1000
0100
0010
0001
0010
0100
0000
,
0010
0100
1000
0010
0100
0001
0010
0000
,
0201
0010
0010
0310
,
0002
0010
0010
0013
,
2100
0001
0100
3001
,
0220
0000
0330
0000
0001
1000
0100
0010
,
0001
0000
0000
1010
0000
0000
0100
0000
0001
0000
0000
1100
0000
0000
0010
0000
,
0100
0000
0000
0011
0000
0000
1000
0000
0010
0000
0100
0000
0010
0000
0000
0000
,
1000
0000
0000
0011
0000
0000
0100
0000
0001
0000
0000
1100
0000
0000
0010
0000
,
1000
0000
0000
0101
0000
0000
0010
0000
1000
0000
0001
0000
0010
0000
0000
0000
,
0012
1000
0100
1003
,
2010
0001
0100
3001
,
0010
0100
0001
0010
0100
1000
0001
0000
,
0100
0010
0110
0000
1000
0100
0001
0100
,
1000
0000
0000
0000
;

//---------------dance-single - ----------------
#NOTES:
     dance-single:
     :
     Hard:
     13:
     0.615376,0.589170,0.112223,0.241711,0.578379,499.000000,486.000000,13.000000,28.000000,0.000000,0.000000,0.615376,0.589170,0.112223,0.241711,0.578379,499.000000,486.000000,13.000000,28.000000,0.000000,0.000000:
0000
0000
0000
0000
,
0000
0000
0000
0000
,
0000
0000
0000
0000
,
0000
0000
0000
0000
,
0000
0000
0000
0000
,
0001
0000
0010
0000
0001
0100
0000
0010
0000
1000
0000
0100
0010
0000
0001
0000
,
1000
0000
0010
0000
0100
0001
0000
0010
0000
0100
0000
1000
0001
0000
0100
0000
,
0010
0000
1000
0000
0100
0010
0000
0001
0000
1000
0000
0010
0100
0000
0010
0000
,
0220
0000
0000
0330
0001
0010
0100
1000
,
0002
0000
0010
0000
0010
0000
0000
0000
0010
0000
0000
0010
0000
0000
0013
0000
,
0200
0000
1000
0000
1000
0000
0000
0000
1000
0000
0000
1000
0000
0000
1300
0000
,
0010
0000
0100
0000
0001
0000
0010
0000
0100
1000
0001
0000
0100
0000
0010
0000
,
1000
0000
0100
0000
0010
0000
0001
0000
1000
0010
0100
0000
0001
0000
0010
0000
,
0200
0000
0010
0000
0010
0000
0000
0000
1000
0000
0000
1000
0000
0000
1300
0000
,
0002
0000
0010
0000
0010
0000
0000
0000
1000
0000
0000
1000
0000
0000
1003
0000
,
0100
0000
0010
0000
0001
1000
0001
0000
1000
0000
0010
0100
0000
1000
0100
0000
,
2200
3300
0202
0303
0110
0000
1001
0000
,
0010
0000
0100
0000
0001
0000
1000
0100
0000
0010
0001
0000
1000
0000
0010
0000
,
0100
0000
0001
0000
0010
0000
0001
1000
0000
0100
0010
0000
0100
0000
1000
0000
,
0001
0000
0010
0000
0100
0000
1000
0000
0010
0100
0010
0000
1000
0000
0100
0000
,
1000
0000
0010
0000
0100
0000
0001
0000
0010
0100
0010
0000
0001
0000
0010
0000
,
0001
0000
0100
0000
0100
0000
0010
0000
1000
0000
0100
1000
0000
0010
1000
0000
,
0001
0000
0010
0000
0010
0000
0001
0000
1000
0000
0001
0010
0000
0001
1000
0000
,
0001
0000
0100
0000
0010
0000
1000
0000
0010
0000
0100
0010
1000
0100
0000
0000
,
1020
0100
0100
0130
,
0001
0000
0010
0000
0001
0000
1000
0100
0000
1000
0000
0001
0000
0000
0010
0000
,
0001
0000
0010
0000
0100
0000
1000
0100
0000
0010
0000
0001
0000
0000
1000
0000
,
0200
0000
0010
0000
0000
0000
0310
0000
2000
0000
0000
0001
0000
0000
3001
0000
,
0010
0000
0000
0011
0000
0000
0100
0000
1000
0000
0000
1010
0000
0000
0100
0000
,
0001
0000
0010
0000
0001
0000
1000
0100
0000
0010
0000
0100
1000
0000
0001
0000
,
0100
0000
0010
0100
0000
0010
0100
0000
0001
0000
0010
0001
0000
1000
0100
0000
,
1000
0001
0100
0010
1000
0100
0010
0001
,
2002
0000
0000
3003
,
0100
0010
0000
0100
0001
0000
0100
0000
0010
1000
0000
0010
0100
0000
0010
0000
,
1000
0100
0000
1000
0010
0000
1000
0000
0001
0010
0000
0001
0100
0000
0010
0000
,
1000
0001
0000
0010
0001
0000
1000
0000
0010
1000
0000
0001
1000
0000
0100
0000
,
0010
0100
0000
1000
0100
0000
1000
0000
0010
0100
0000
0100
0010
0000
1000
0000
,
0001
0010
0000
0001
1000
0000
0001
0000
0100
0010
0000
0100
0001
0000
0100
0000
,
0010
1000
0000
0010
0100
0000
0010
0000
1000
0000
0100
1000
0000
0100
0010
0000
,
0001
0000
0010
0000
0100
0000
1000
0000
0010
0000
0100
0000
0001
1000
0001
0000
,
0100
0000
0000
0000
0110
0000
0000
0000
0001
0000
0010
0100
0000
0100
1000
0000
,
0010
0000
1000
0000
0001
1000
0000
0001
0000
0100
0000
0010
0100
0000
0001
0000
,
0010
0000
0001
0000
0100
0010
0000
1000
0000
0100
0000
0010
0100
0000
1000
0000
,
0001
0000
1000
0000
0010
0100
0000
0010
0000
1000
0000
0001
0010
0000
0100
0000
,
0010
0000
0001
0000
1000
0100
0000
0100
0010
0000
0100
0000
1000
0001
1000
0000
,
0010
0000
0100
0000
0001
1000
0000
0010
0000
0100
0000
0001
0010
0000
0100
0000
,
1000
0000
0010
0000
0100
0001
0000
0010
0000
0100
0000
1000
0001
0000
0010
0000
,
0001
0000
1000
0000
0100
0010
0000
0100
0000
1000
0000
0010
0100
0000
0001
0000
,
0010
0000
0100
0010
0100
0000
0010
0000
0001
0000
1000
0000
0100
0010
0100
0000
,
2000
0000
0000
0010
0000
0000
3010
0000
0200
0000
0000
1000
0000
0000
1300
0000
,
0200
0000
0000
0001
0000
0000
0301
0000
0020
0000
0000
0100
0000
0000
0130
0000
,
0010
0000
0001
0000
0100
0000
0010
0000
1000
0000
0100
0000
0010
0100
0010
0000
,
0001
0000
0100
0000
0010
0000
1000
0000
0100
0000
0010
0000
0001
1000
0001
0000
,
0200
0000
0310
1000
0000
1000
0010
0001
,
0000
0000
0001
0000
0010
0000
1000
0000
0001
0000
1000
0100
0000
0100
0010
0000
,
0001
0100
0010
1000
0100
0010
0001
1000
,
2002
0000
0000
0000
3003
0000
0000
0000
0010
0100
0010
0100
0000
0000
0000
0000
,
0001
0000
0010
0001
0000
0100
0001
0000
1000
0000
0010
0100
0000
0010
1000
0000
,
0001
0000
0010
0100
0000
0010
0001
0000
1000
0000
0010
0100
0000
0010
1000
0000
,
0100
0000
0010
0100
0000
1000
0001
0000
0100
0000
0010
1000
0000
0001
0010
0000
,
0100
0000
1000
0010
0000
1000
0001
0000
0010
0000
0001
0010
0000
0100
1000
0000
,
0002
0000
0010
0000
0010
0000
0000
0000
1000
0000
0000
1000
0000
0000
1003
0000
,
0020
0000
0100
0000
0100
0000
0000
0000
0001
0000
0000
0001
0000
0000
0031
0000
,
1000
0010
2002
3003
0001
0100
2002
3003
,
0100
0000
0010
0000
0100
0000
0010
0000
1000
0001
0010
0000
0100
0000
1000
0000
,
0010
0000
0000
0000
;

//---------------dance-double - ----------------
#NOTES:
     dance-double:
     :
     Hard:
     13:
     0.588245,0.589170,0.112223,0.233078,0.535216,477.000000,464.000000,13.000000,27.000000,0.000000,0.000000,0.588245,0.589170,0.112223,0.233078,0.535216,477.000000,464.000000,13.000000,27.000000,0.000000,0.000000:
// measure 0
00000000
00000000
00000000
00000000
,  // measure 1
00000000
00000000
00000000
00000000
,  // measure 2
00000000
00000000
00000000
00000000
,  // measure 3
00000000
00000000
00000000
00000000
,  // measure 4
00000000
00000000
00000000
00000000
,  // measure 5
10000000
00000000
00010000
00000000
00100000
00010000
00000000
01000000
00000000
00001000
00000000
00010000
00000100
00000000
00001000
00000000
,  // measure 6
00000010
00000000
00000100
00000000
00000001
00000010
00000000
00000001
00000000
00001000
00000000
00000010
00010000
00000000
00000100
00000000
,  // measure 7
00010000
00000000
00001000
00000000
00100000
00010000
00000000
10000000
00000000
01000000
00000000
10000000
00100000
00000000
01000000
00000000
,  // measure 8
00100000
00000000
10000000
00010000
10000000
00000000
00100000
00000000
02000000
00000000
00000000
00000000
03002000
00000000
00000000
00000000
,  // measure 9
00013000
00000000
00000100
00000000
00000100
00000000
00010000
00000000
00001000
00000000
00000000
00100000
00000000
00000000
00001000
00000000
,  // measure 10
00010000
00000000
00000010
00000000
00000010
00000000
00010000
00000000
00001000
00000000
00000000
01000000
00000000
00000000
00001000
00000000
,  // measure 11
00010000
00000000
00000100
00000000
00001000
00000000
00000001
00000000
00000010
00000001
00001000
00000000
00000010
00000000
00010000
00000000
,  // measure 12
00001000
00000000
01000000
00000000
00010000
00000000
10000000
00000000
00100000
10000000
00010000
00000000
00100000
00000000
00001000
00000000
,  // measure 13
00010000
00000000
01000000
00000000
01000000
00000000
10000000
00000000
01000000
00000000
00000000
00100000
00000000
00000000
00010000
00000000
,  // measure 14
00100000
00000000
00001000
00000000
00001000
00000000
00010000
00000000
00000010
00000000
00000000
00001000
00000000
00000000
00000010
00000000
,  // measure 15
00000001
00000000
00000010
00000000
00001000
00000000
00000100
00000000
00010000
00000000
00000010
00010000
00000000
00001000
00100000
00000000
,  // measure 16
00202000
00303000
00020200
00030300
00011000
00000000
01010000
00000000
,  // measure 17
00200000
00000000
10000000
00000000
10000000
00000000
00000000
00000000
01000000
00000000
00000000
01300000
00000000
00000000
00001000
00000000
,  // measure 18
00020000
00000000
00000100
00000000
00000100
00000000
00000000
00000000
00001000
00000000
00000000
00031000
00000000
00000000
00010000
00000000
,  // measure 19
00000010
00000000
00001000
00000000
00000100
00000000
00000010
00000000
00000001
00001000
00000010
00000000
00010000
00000000
00000100
00000000
,  // measure 20
00010000
00000000
00001000
00000000
01000000
00000000
00100000
00000000
10000000
00010000
01000000
00000000
00010000
00000000
00100000
00000000
,  // measure 21
02000000
00000000
10000000
00000000
10000000
00000000
00000000
00000000
00100000
00000000
00000000
03100000
00000000
00000000
00010000
00000000
,  // measure 22
00200000
00000000
00001000
00000000
00301000
00000000
00010000
00000000
00000020
00000000
00000000
00010030
00000000
00000000
00000010
00000000
,  // measure 23
00001000
00000000
00000100
00000000
00010000
00000010
00001000
00000000
00000001
00000000
00000010
00000100
00000000
00000010
00000001
00000000
,  // measure 24
00002000
00000010
00000001
00003100
,  // measure 25
00010000
00000000
00001000
00000000
00010000
00000000
01000000
10000000
00000000
00100000
00000000
10000000
00000000
00000000
00010000
00000000
,  // measure 26
00100000
00000000
00010000
00000000
01000000
00000000
00001000
00010000
00000000
00000010
00000000
00001000
00000000
00000000
00000001
00000000
,  // measure 27
00000010
00000000
00000100
00000000
00000000
00000000
00000100
00000000
00010000
00000000
00000000
00001000
00000000
00000000
00100000
00000000
,  // measure 28
00010000
00000000
00000000
01010000
00000000
00000000
10000000
00000000
01000000
00000000
00000000
10010000
00000000
00000000
00100000
00000000
,  // measure 29
00010000
00000000
10000000
00000000
01000000
00000000
00100000
00001000
00000000
00010000
00000000
00000010
00000000
00000000
00000100
00000000
,  // measure 30
00000001
00000000
00000000
00000010
00000000
00000000
00001000
00000000
00000010
00000000
00000000
00000001
00000000
00000000
00001000
00000000
,  // measure 31
00000010
00010000
00001000
01000000
00010000
10000000
00100000
01000000
,  // measure 32
02200000
00000000
00000000
03300000
,  // measure 33
10000000
00010000
00000000
00100000
00010000
00000000
10000000
00000000
00010000
00100000
00000000
00001000
01000000
00000000
00010000
00000000
,  // measure 34
00100000
00001000
00000000
00010000
00001000
00000000
00010000
00000000
00000010
00000000
00000100
00000001
00000000
00000010
00000001
00000000
,  // measure 35
00001000
00000001
00000000
00000010
00000001
00000000
00000100
00000000
00000010
00001000
00000000
00000100
00010000
00000000
00000010
00000000
,  // measure 36
00001000
00000100
00000000
00010000
00001000
00000000
00100000
00000000
00010000
00000000
00100000
01000000
00000000
10000000
00010000
00000000
,  // measure 37
10000000
00100000
00000000
00100000
01000000
00000000
00010000
00000000
00100000
00001000
00000000
00001000
00010000
00000000
00000010
00000000
,  // measure 38
00001000
00000100
00000000
00000100
00000010
00000000
00000001
00000000
00001000
00000000
00000010
00010000
00000000
00000100
00010000
00000000
,  // measure 39
00001000
00000000
00010000
00000000
00000010
00000000
00001000
00000000
00000100
00000000
00000010
00000000
00000001
00001000
00000001
00000000
,  // measure 40
00001010
00000000
00020200
00030300
00000000
00011000
00000000
00000000
,  // measure 41
00010000
00000000
00001000
00000000
00010000
00000010
00000000
00010000
00000000
00001000
00000000
00010000
00000100
00000000
00010000
00000000
,  // measure 42
00001000
00000000
00100000
00000000
00001000
01000000
00000000
00001000
00000000
00010000
00000000
00001000
00100000
00000000
01000000
00000000
,  // measure 43
10000000
00000000
00010000
00000000
10000000
00100000
00000000
10000000
00000000
01000000
00000000
00100000
00010000
00000000
00100000
00000000
,  // measure 44
00001000
00000000
00010000
00000000
00001000
01000000
00001000
00000000
00010000
00000000
00000010
00000000
00020000
00000000
00000000
00000000
,  // measure 45
00030100
00000000
00001000
00000000
00000010
00001000
00000000
00000100
00000000
00001000
00000000
00000001
00000010
00000000
00000100
00000000
,  // measure 46
00010000
00000000
00001000
00000000
00010000
00000100
00000000
00010000
00000000
00001000
00000000
00010000
00000010
00000000
00010000
00000000
,  // measure 47
00001000
00000000
00100000
00000000
00001000
01000000
00000000
00001000
00000000
00100000
00000000
01000000
10000000
00000000
00100000
00000000
,  // measure 48
01000000
00000000
00010000
00000000
00100000
00001000
00100000
00000000
00001000
00000000
00010000
00000000
00000010
00001000
00000010
00000000
,  // measure 49
00000200
00000000
00000000
00000001
00000000
00000000
00000301
00000000
00000020
00000000
00000000
00000100
00000000
00000000
00000130
00000000
,  // measure 50
00020000
00000000
00000000
00001000
00000000
00000000
00031000
00000000
00002000
00000000
00000000
00100000
00000000
00000000
00103000
00000000
,  // measure 51
00010000
00000000
00100000
00000000
01000000
00000000
10000000
00000000
00010000
01000000
00100000
00000000
01000000
00000000
00001000
00000000
,  // measure 52
00000000
00000000
00010000
00000000
00000100
00000000
00001000
00000000
00000001
00000010
00000100
00000000
00002000
00000000
00000000
00000000
,  // measure 53
00003001
00000010
00001000
00000010
00000000
00000100
00010000
00001000
,  // measure 54
00000000
00000000
01000000
00000000
00100000
00000000
10000000
00000000
00010000
00000000
00000000
00100000
00000000
00000000
00001000
00000000
,  // measure 55
01000000
00000000
00010000
00000000
00100000
00000000
01000000
00000000
10000000
00000000
00100000
00000000
10000000
00010000
01000000
00000000
,  // measure 56
00002000
00000000
00000000
00000000
00003000
00000000
00000000
00000000
00010000
00001000
00010000
00001000
00000000
00000000
00000000
00000000
,  // measure 57
00100000
00000000
00001000
00010000
00000000
00001000
00100000
00000000
00010000
00000000
00100000
01000000
00000000
00100000
00010000
00000000
,  // measure 58
10000000
00000000
00100000
01000000
00000000
00100000
10000000
00000000
00010000
00000000
00100000
00001000
00000000
00001000
00010000
00000000
,  // measure 59
00000010
00000000
00000100
00000001
00000000
00000100
00000010
00000000
00001000
00000000
00000001
00000010
00000000
00000001
00001000
00000000
,  // measure 60
00000010
00000000
00010000
00001000
00000000
00010000
00000010
00000000
00001000
00000100
00000000
00000100
00010000
00000000
00001000
00000000
,  // measure 61
00200000
00000000
01000000
00000000
01000000
00000000
00000000
00000000
00010000
00000000
00000000
00310000
00000000
00000000
01000000
00000000
,  // measure 62
00002000
00000000
00010000
00000000
00010000
00000000
00000000
00000000
00000010
00000000
00000000
00003010
00000000
00000000
00001000
00000000
,  // measure 63
00010000
00000100
00001100
00000000
00010000
00001000
01001000
00000000
,  // measure 64
00022000
00000000
00033000
00000000
00001000
00000100
00000001
00000010
,  // measure 65
00001000
00000000
00000000
00000000
;
