#TITLE:Anubis;
#SUBTITLE:;
#ARTIST:ARForest;
#TITLETRANSLIT:;
#SUBTITLETRANSLIT:;
#ARTISTTRANSLIT:;
#GENRE:;
#CREDIT:;
#BANNER:Anubis_banner.png;
#BACKGROUND:Anubis.png;
#LYRICSPATH:;
#CDTITLE:;
#MUSIC:Anubis.ogg;
#OFFSET:-0.454000;
#SAMPLESTART:94.959999;
#SAMPLELENGTH:11.640000;
#LASTBEATHINT:287.477081;
#SELECTABLE:YES;
#DISPLAYBPM:165.000000;
#BPMS:0.000000=82.500000
,18.000000=165.000000
,78.000000=41.250000
,78.125000=165.000000
,78.500000=330.000000
,79.500000=165.000000
,96.000000=330.000000
,97.500000=165.000000
,97.750000=41.250000
,98.000000=165.000000
,103.000000=330.000000
,105.000000=165.000000
,113.000000=41.250000
,113.250000=165.000000
,113.500000=330.000000
,114.000000=165.000000
,174.000000=82.500000
,174.500000=165.000000
,175.000000=330.000000
,176.000000=165.000000
,176.500000=82.500000
,176.750000=41.250000
,177.000000=82.500000
,177.500000=165.000000
,178.000000=330.000000
,179.000000=165.000000
,179.500000=82.500000
,179.750000=41.250000
,180.000000=82.500000
,180.500000=165.000000
,181.000000=330.000000
,182.000000=165.000000
,182.500000=82.500000
,182.750000=41.250000
,183.000000=82.500000
,183.500000=165.000000
,184.000000=330.000000
,185.000000=165.000000
,185.500000=82.500000
,185.750000=41.250000
,186.000000=82.500000
,194.000000=165.000000
,209.000000=330.000000
,211.000000=165.000000
,272.000000=330.000000
,274.000000=165.000000
;
#STOPS:79.750000=0.730000,
128.500000=0.364000,
131.250000=0.182000,
148.000000=0.181000,
155.500000=0.181000,
223.000000=1.100000,
281.000000=0.182000,
281.250000=0.182000,
281.500000=0.182000,
281.750000=0.182000,
282.000000=0.182000,
282.250000=0.182000,
282.500000=0.182000,
282.750000=0.182000,
283.750000=0.182000
;
#BGCHANGES:;
#KEYSOUNDS:;
#ATTACKS:;

//---------------dance-single - ----------------
#NOTES:
     dance-single:
     :
     Easy:
     9:
     0.247858,0.367943,0.103464,0.214886,0.127340,218.000000,205.000000,13.000000,27.000000,0.000000,0.000000,0.247858,0.367943,0.103464,0.214886,0.127340,218.000000,205.000000,13.000000,27.000000,0.000000,0.000000:
0000
0000
0000
0000
,
0000
0000
0000
0000
,
0000
0000
0010
0010
,
0010
0000
0100
0100
,
0100
0000
0001
0000
,
0010
0000
0001
1000
,
0100
0000
1000
0000
,
0010
0000
0100
0001
,
1000
0000
0001
0000
,
0101
0000
0010
1000
,
0100
0000
0010
0000
,
1100
0000
0001
0100
,
0010
1000
2002
0000
,
0000
0000
0000
0000
,
0000
0000
3003
0000
,
0000
0000
0000
0000
,
0000
0000
0001
0010
,
0100
1000
0001
0010
,
0100
1000
0010
0100
,
0001
1000
0001
0000
0200
0000
0000
0300
,
0010
0000
0000
0010
0000
0000
0010
0000
2000
0000
0000
0000
3100
0000
0000
0000
,
0000
0010
0000
0100
0020
0000
0000
0000
,
1030
0000
0000
1000
0000
0000
1000
0000
0010
0000
0000
0000
1000
0000
0000
0000
,
0000
0001
0000
0010
0001
0000
0001
0000
,
0200
0000
0300
0000
,
0010
0100
0010
2000
,
0000
0000
0000
0000
3100
0000
0000
0100
0000
0000
0100
0000
0010
0000
0000
0000
,
0001
1000
0001
2002
,
3003
0220
0330
0000
,
0000
0000
0000
0000
,
0000
0000
0100
0000
0000
0100
0000
0000
0000
0000
0001
0000
0000
0000
0010
0000
,
0000
0002
0000
0000
0000
1003
0000
1000
,
0000
0010
0000
0100
0000
0010
0000
0000
,
1000
0001
0010
0010
,
0000
0000
0000
0000
0010
0000
0000
0100
0000
0000
0010
0000
0000
0000
0000
0000
,
0000
0000
0000
1000
,
0000
0100
0000
0000
0001
0000
0000
0000
,
0000
0000
0000
0000
0000
0001
0000
0000
,
0010
0000
0000
1000
0000
0000
0000
0000
,
0000
0000
0000
0000
0010
0000
0000
0100
,
0000
2002
0000
3003
,
0000
0000
0000
0000
0100
0000
0000
0010
,
0000
2002
0000
3003
,
0000
0000
0020
0000
,
0130
0002
0000
0013
,
2000
0000
3010
0200
,
0000
0301
0001
1000
,
0010
0100
0001
1000
0100
0000
1000
0000
,
0001
0000
0100
0000
0110
0000
0000
0000
0010
0000
0000
1000
0000
0000
0000
0000
,
0010
0000
0000
1000
0000
0000
0000
0000
0001
0000
0000
0100
0000
0000
0000
0000
,
0001
0000
0000
0100
0000
0000
0000
0000
0100
0000
0000
0001
0000
0000
0000
0000
,
0100
0000
0000
0001
0000
0000
0000
0000
1000
0000
0000
0010
0000
0000
0000
0000
,
0200
0000
0300
0001
,
0100
0010
1000
0001
,
0100
0010
1000
0100
,
1000
0000
0010
0100
0010
0000
0110
0000
,
1000
0000
0000
0010
0000
0000
0000
0000
0100
0000
0000
0001
0000
0000
0000
0000
,
0010
0000
0000
0001
0000
0000
0000
0000
1000
0000
0000
0010
0000
0000
0000
0000
,
0100
0000
0000
0010
0000
0000
0000
0000
1000
0000
0000
0100
0000
0000
0000
0000
,
0010
0000
0000
0001
0000
0000
0000
0000
2002
0000
0000
0000
3003
0000
0000
0000
,
0010
0000
0000
0100
0000
0000
0000
0000
0001
0000
0000
0100
0000
0000
0000
0000
,
0010
0000
1000
0000
0010
0100
0010
0000
,
2002
0000
0000
3003
,
0020
0000
0000
0030
,
1000
0000
0000
0001
0000
0000
0000
0000
0010
0000
0000
0001
0000
0000
0000
0000
,
1000
0000
0000
0100
0000
0000
0000
0000
1000
0000
0000
0010
0000
0000
0000
0000
,
0100
0000
0000
0101
0000
0000
0000
0000
0010
0000
0000
1010
0000
0000
0000
0000
,
1000
0001
0010
0100
,
2000
0000
3000
0000
,
0000
0000
0000
0000
,
0000
0000
0000
0000
0001
1000
0001
1000
0010
0100
0010
0100
0001
0000
0000
0100
,
0010
0010
0000
0000
0000
0000
0000
0000
;

//---------------dance-single - ----------------
#NOTES:
     dance-single:
     :
     Medium:
     12:
     0.472977,0.566065,0.238762,0.238762,0.246721,416.000000,386.000000,30.000000,30.000000,0.000000,0.000000,0.472977,0.566065,0.238762,0.238762,0.246721,416.000000,386.000000,30.000000,30.000000,0.000000,0.000000:
0000
0000
0000
0000
,
0000
0000
0000
0000
,
0000
0000
0000
0000
0000
0000
0000
0000
0011
0000
1000
0010
0000
1000
0200
0000
,
0000
0000
0300
0000
0000
1000
0010
0100
0001
0000
0010
0100
0000
1000
0002
0000
,
0000
0000
0003
0000
0110
0000
1000
0010
,
0100
0000
0001
0010
0000
0010
0001
1000
,
0020
0000
0030
0000
0110
0000
0001
1000
,
0010
0000
1000
0100
0000
0100
0010
0100
,
1000
0000
1001
0000
0010
0100
0001
0100
,
0000
0001
0010
0100
1000
0100
0000
1000
,
0010
0000
0110
0000
1000
0010
0001
0010
,
0000
0010
1000
0010
0001
0010
0000
0100
,
0001
0100
1000
0000
0220
0000
0000
0000
,
0000
0000
0000
0000
,
0000
0000
0330
0000
,
0000
0000
0000
0000
,
0000
0000
1000
1001
,
0001
0011
1000
1010
,
0100
0000
0101
0000
1000
0010
0100
0001
,
1000
0000
0001
0000
0100
0010
0100
0010
0200
0000
0000
0000
0000
0000
0300
0000
,
0001
0000
0000
0011
0000
0000
1000
0000
0010
0000
0100
0000
0001
0000
0000
1000
,
0000
0000
0010
0000
0000
1000
0000
0000
0001
0000
0010
0000
0200
0000
0000
0000
,
1300
0000
0000
1010
0000
0000
0100
0000
0001
0000
0000
0010
0001
0000
0000
1000
,
0000
0010
1000
0001
0010
0100
1000
0000
,
2002
0000
0000
3003
0000
0000
0010
0000
,
0100
0000
0100
0010
0000
0010
1000
0001
0010
0001
0000
0000
,
0000
0000
0000
0000
0100
0000
0000
1010
0000
0000
0100
0000
0001
0000
0000
0010
,
0000
0000
0001
0000
1000
0000
0000
1010
0000
0000
0001
0000
0010
0000
0100
0000
,
1000
0001
2002
0000
,
0000
0000
3003
0000
,
0000
0000
0001
0000
0000
1100
0000
0000
1000
0000
0010
0000
0100
0000
0001
0000
,
0000
0010
0100
1000
0001
1000
0010
0100
,
0000
1001
0000
0010
0100
0010
1000
0001
,
0010
0000
0100
0000
1000
0000
0001
0000
0200
0000
0000
0000
0310
0000
0000
0110
,
0000
0000
0001
0000
1000
0000
0000
1100
0000
0000
0022
0000
0000
0000
0000
0000
,
0000
0000
0033
1000
,
0010
0001
0000
0001
0020
0000
0000
0030
,
0000
1000
0100
0010
0001
0100
0000
0010
,
1000
0000
0001
0020
0000
0000
0030
0000
,
0000
0000
0001
0000
0100
0010
1000
0001
,
0000
1000
0001
0010
0100
0010
0000
0010
,
0100
0000
1000
0000
0010
0100
1000
0100
,
0000
0001
0010
0100
0000
0010
0100
1000
,
0001
0000
1001
0000
0100
0010
0200
0000
,
0301
0000
0000
0010
0001
0000
0010
0000
0200
0000
0000
0000
1300
0000
0000
0010
,
0100
0000
0001
0000
0010
0000
0000
0000
0001
0000
0000
1000
0010
0000
0100
0000
,
0000
0000
0220
0330
1000
0010
0100
0001
,
0010
0000
0100
1000
0010
0000
0000
0000
0100
0000
0001
0010
0100
0000
0010
0000
,
0001
0000
1000
0000
1001
0000
0000
0000
0100
0000
0001
0100
0000
0000
0000
0000
,
0010
0000
1000
0010
0000
0000
0000
0000
0100
0000
0001
0010
0000
0000
0000
0000
,
0001
0000
1000
0100
0000
0000
0000
0000
1000
0000
0010
0100
0000
0000
0000
0000
,
0001
0000
0010
0100
0000
0000
0000
0000
1000
0000
0001
0010
0000
0000
0000
0000
,
0001
0100
2000
0000
0000
0000
3100
0001
,
0010
0000
0001
0010
0100
0000
0010
0100
,
1000
0000
0010
1000
0100
0010
0001
1000
,
0001
0000
0010
0000
0100
0010
0100
0010
0100
0010
0100
0010
0100
0000
0000
0000
,
1000
0000
0010
0100
0000
0000
0001
0000
0010
0000
0001
0100
0000
0000
0010
0000
,
1000
0000
0001
0010
0000
0000
0100
0000
1000
0000
0010
0100
0000
0000
0001
0000
,
0100
0000
0010
0100
0000
0000
0001
0000
0010
0000
0100
0010
0000
0000
0001
0000
,
1000
0000
0001
0100
0000
0000
0001
0000
0010
0000
0100
1000
0000
0010
0100
0000
,
0001
0000
1000
0100
0000
0000
1000
0000
0010
0000
0100
0001
0000
0000
0010
0000
,
0001
0010
0100
1000
0100
0010
0001
0000
,
1000
0010
0100
0001
0010
0100
1000
0000
,
2002
0000
0000
3003
,
0010
0000
0100
0010
0000
0000
0100
0000
0001
0000
0010
0001
0000
0000
1000
0000
,
0100
0000
1000
0010
0000
0000
0100
0000
0001
0000
1000
0100
0000
0000
0010
0000
,
0001
0000
0000
0011
0000
0000
1000
0000
0010
0000
0000
0110
0000
0000
1000
0000
,
0100
1000
0010
0100
0001
0010
0100
0000
,
2000
0000
3002
0203
,
2300
3200
0302
0023
,
1030
0000
0000
0000
0010
0100
1000
1100
0001
0101
0010
0110
1000
0000
0000
0001
,
0010
0100
0000
0000
0000
0000
0000
0000
;

//---------------dance-single - ----------------
#NOTES:
     dance-single:
     :
     Hard:
     17:
     0.748122,0.990615,0.342226,0.159175,0.915255,658.000000,615.000000,43.000000,20.000000,0.000000,0.000000,0.748122,0.990615,0.342226,0.159175,0.915255,658.000000,615.000000,43.000000,20.000000,0.000000,0.000000:
// measure 0
0000
0000
0000
0000
,  // measure 1
0000
0000
0000
0000
,  // measure 2
0000
0000
0000
0000
0000
1000
0010
0001
0010
0000
1000
0001
0000
0010
0200
0000
,  // measure 3
0000
0000
1000
0000
0000
0310
0001
1000
0010
0100
0001
0010
0100
1000
0010
0100
,  // measure 4
0001
0000
1000
0000
0010
0000
0100
0000
0001
1000
0100
1000
0001
0000
0010
0000
0110
0000
0000
0000
0000
0000
0000
0000
1000
0000
0000
0000
0100
0000
0000
0000
,  // measure 5
0001
0000
0000
0000
0001
0000
0100
0000
0000
0000
1000
0010
0100
0000
0001
0000
,  // measure 6
0010
0000
0101
0000
0110
0000
1000
0010
,  // measure 7
0100
0000
0000
0000
0001
0000
0010
0000
0000
0000
0010
0100
1000
0000
0001
0000
,  // measure 8
0100
0000
0010
0000
1000
0001
1000
0001
1000
0000
0000
0000
0100
0000
0010
0000
,  // measure 9
0001
0000
0000
0000
1000
0000
0010
0000
0000
0000
0010
0100
0001
0000
0010
0000
,  // measure 10
0100
0000
1100
0000
0001
0010
1000
0010
,  // measure 11
0001
1000
0010
0001
0010
1000
0001
0100
,  // measure 12
0010
0000
1000
0000
0001
0010
0100
1000
0002
0000
0000
0000
0000
0000
0000
0000
,  // measure 13
0000
0000
0000
0000
,  // measure 14
0000
0000
2000
0000
,  // measure 15
0000
0000
0000
0000
,  // measure 16
0000
0000
3003
0000
0010
0100
0010
0100
,  // measure 17
0001
0010
0001
0010
0100
1000
0100
1000
,  // measure 18
0001
0100
0001
0100
0010
1000
0100
0010
,  // measure 19
0001
0100
0001
0100
0010
1000
0010
1000
0200
0000
0000
0000
0300
0000
0000
0000
,  // measure 20
0011
0000
0000
1100
0000
0000
0010
0100
0001
0000
1000
0010
0100
0000
0000
0110
,  // measure 21
0000
0000
0000
0000
0000
0000
0010
0000
0000
1000
0000
0000
0001
0000
0000
0000
0010
0000
0000
0000
0100
0000
0000
0000
1000
0000
0000
0000
0000
0000
0100
0000
0000
1000
0000
0000
0100
0000
0000
1000
0000
0000
0100
0000
0000
0000
0000
0000
,  // measure 22
1000
0000
0000
0011
0000
0000
0001
0100
0001
0000
0000
1000
0010
0000
0000
0110
,  // measure 23
0000
0001
1000
0001
1000
0000
0010
0000
1000
0010
0100
0001
0010
0000
0001
0100
,  // measure 24
0020
0000
0000
0000
0000
0000
0000
0000
0000
0000
0000
0000
0000
0000
0000
0000
0000
0000
0030
0000
0000
0000
1000
0100
0010
0000
0000
0000
0100
0000
0000
0000
1000
0000
0000
0000
0001
0000
0000
0000
0010
0000
0000
0000
1000
0000
0000
0000
,  // measure 25
0001
0100
1000
0010
0100
0001
1000
0010
0100
0002
0000
0000
,  // measure 26
0000
0000
0003
0000
1010
0000
0000
0101
0000
0000
0010
0001
0010
0000
0000
1100
,  // measure 27
0000
0000
0000
0000
0000
0000
0010
0000
0000
0100
0000
0000
0001
0000
0000
0000
0000
0000
0000
0000
0000
0011
0000
0000
0000
0000
0000
0000
0000
0000
1000
0000
0000
0010
0000
0000
1000
0000
0000
0000
0001
0000
0000
0000
0010
0000
0000
0000
,  // measure 28
0100
0000
2002
3003
0220
0000
0000
0000
,  // measure 29
0000
0000
0000
0000
0330
0000
0000
0000
0000
0000
0001
0000
0100
1000
0000
0100
,  // measure 30
0001
1000
0010
0000
0000
0110
0000
0000
1000
0010
1000
0000
0001
0010
0100
0010
,  // measure 31
0001
0000
0000
0000
0000
0000
0000
0000
0000
0000
0000
0000
1001
0000
0000
0000
0000
0000
0010
0000
0000
0100
0000
0000
0010
0000
0000
0100
0000
0000
0010
0000
0000
0000
0000
0000
1000
0000
0000
0000
0000
0000
0100
0000
0000
0000
0010
0000
,  // measure 32
0000
0000
0001
0000
0000
0000
1000
0000
0000
0000
0000
0000
0010
0000
0000
0000
1000
0000
0000
0000
0100
0000
0000
0000
0010
0000
0000
0000
0000
0000
0100
0000
0000
1000
0000
0000
0100
0000
0000
0000
0000
0000
0010
0000
0000
0001
0000
0000
,  // measure 33
0010
0001
1000
0100
1000
0000
0010
0000
0001
0000
0010
0000
1010
0000
0000
0101
,  // measure 34
0000
0000
1100
0000
1010
0000
0000
0011
0000
0000
2002
0000
0000
0000
0000
0000
,  // measure 35
0000
0000
0000
3003
0000
0000
0110
0000
,  // measure 36
0010
0000
0001
0000
0000
0000
0100
1000
0001
0000
0000
0000
0001
0000
1000
0000
,  // measure 37
0000
1000
0100
0001
0100
1000
0000
0010
,  // measure 38
0100
0000
0000
0000
0001
0100
1000
0000
0100
0000
0010
0000
1000
0000
0000
0000
,  // measure 39
0000
0000
0010
1000
0001
0000
0010
0000
0100
0000
1000
0000
0100
0000
0001
0000
,  // measure 40
0000
0001
0100
1000
0010
0100
0000
0100
,  // measure 41
0001
0010
0100
1000
0001
1000
0100
0110
,  // measure 42
0000
0001
1000
0010
0000
0010
1000
0001
,  // measure 43
0010
0100
1001
0000
0110
0001
0020
0000
,  // measure 44
0130
0000
1000
0001
0110
0000
0010
0000
2000
0000
0000
0000
3100
0000
0010
0001
,  // measure 45
0110
0000
0010
0000
0200
0000
0000
0000
0301
0000
0100
1000
0011
0000
0010
0000
,  // measure 46
2000
0000
0000
0000
0000
0000
0000
0000
3001
0000
0000
0000
0010
0100
1000
0001
0100
0000
0010
0000
0100
0000
0001
0000
0010
0000
0100
0000
1000
0000
0001
0000
,  // measure 47
1000
0010
0100
0001
0010
0100
0110
0000
1000
0001
0010
0001
1000
0010
0100
0001
,  // measure 48
1000
0000
0100
0000
0001
0000
0100
0000
1000
0000
0001
0000
0010
0001
1000
0010
1000
0000
0010
0000
0100
0000
0001
0000
0000
0000
0000
0000
0010
0000
0000
0000
,  // measure 49
0001
0100
0010
1000
0000
0000
0100
0000
1000
0001
0010
0100
0000
0000
1000
0000
,  // measure 50
0010
0100
0001
0010
0000
0000
0100
0000
1000
0010
0001
0010
0000
0000
1000
0000
,  // measure 51
0001
0010
1000
0010
0000
0000
0001
0000
1000
0100
0001
0100
0000
0000
1000
0000
,  // measure 52
0001
0010
0100
1000
0002
0000
0000
0000
0000
0000
0000
0000
1003
0000
0010
0000
,  // measure 53
0100
0000
0010
1000
0100
0000
0010
0000
0001
0000
0100
0010
1000
0000
0001
0000
,  // measure 54
1000
0000
0100
0010
0001
0000
1000
0000
0001
0000
0010
0100
0010
0001
0010
0001
,  // measure 55
1000
0000
0100
0000
1000
0000
0100
0000
1000
0000
0010
0000
0100
0000
0001
0000
0010
0000
0100
0000
1000
0000
0001
0000
0020
0030
0000
0000
0000
0000
0000
0000
,  // measure 56
0001
0100
0010
0100
0000
0001
0010
0001
1000
0010
0100
0010
0000
1000
0100
1000
,  // measure 57
0010
0100
0010
1000
0000
0001
0010
0100
0010
0001
1000
0001
0000
0100
0010
0100
,  // measure 58
0001
0010
0100
0010
0000
0001
1000
0001
1000
0010
0100
0010
0000
1000
0100
1000
,  // measure 59
0010
0100
0010
0100
0000
0001
0100
0010
0100
0010
0100
0010
0000
1000
0100
1000
,  // measure 60
0010
1000
0100
0010
0000
0001
0010
0001
0100
0010
0100
0001
0000
1000
0100
0010
,  // measure 61
0001
0100
0001
0000
0010
0000
0100
0000
1000
0000
0010
0100
0001
0100
0010
0000
,  // measure 62
0200
0000
0000
0301
1000
0001
0100
0010
0001
1001
0000
0000
,  // measure 63
0010
0000
0100
0001
1000
0000
1000
0001
0100
0000
0010
0000
0110
0000
0000
0000
,  // measure 64
0010
1000
0100
1000
0000
0010
0100
0001
0010
0001
0100
0010
0000
1000
0001
1000
,  // measure 65
0100
0010
0100
1000
0000
0001
0100
0010
0100
0001
0010
0001
0000
1000
0010
1000
,  // measure 66
0001
0000
0000
0110
0000
0000
1001
0000
0010
0100
0010
0000
1000
0000
0100
1000
,  // measure 67
0001
0000
0010
0001
0000
1000
0001
0000
1000
0000
0010
1000
0000
0100
1000
0000
,  // measure 68
0002
0000
0000
0000
0000
0000
1003
0010
0001
1000
0100
0001
,  // measure 69
0010
0100
1000
0100
0001
0100
1000
0010
0100
0001
0010
1000
,  // measure 70
0010
0000
0000
0000
0001
0000
0000
0000
1000
0000
0000
0000
0010
0000
0000
0110
0000
0000
1100
0000
0000
1001
0000
0000
0011
0000
0000
1001
0000
0000
0110
0000
0000
1010
0000
0000
0101
0000
0000
0000
0000
0000
0100
0000
0000
0010
0000
0000
,  // measure 71
1000
0010
0001
0000
0000
0000
0000
0000
0000
0000
0000
0000
0000
0000
0000
0000
;
